Phil Manzanera - 50 Minutes Later (2005)

Download Now

Phil Manzanera - 50 Minutes Later (2005)

Phil Manzanera - 50 Minutes Later (2005)
EAC Rip | FLAC (tracks & cue & log) | 364 MB | MP3 CBR 320 kbps | 156 MB | Scans | 60:37
Genre: Progressive Rock | Country: UK | Label: Hannibal/Rykodisc | HNCD 1503

"Phil's wry sleevenotes disingenuously refer to his artistic freedom as being due to 'never being in fashion'. This from the guitarist of art rock's hippest band of 1973? Let's face it, he was always the coolest Roxy member after Eno, and 50 Minutes - made, in part, with Brian, Paul Thompson and Robert Wyatt - shows us how he's retained such status for 30 years.Manzanera's voice may not be too distinctive (except where he does a great Wyatt impersonation on ''Desparecido''!), yet this is a satisfying album compared with its lumpen predecessor, 6PM. His guitar playing was always the right side of avant garde and here it shines amidst arrangements that bounce between psychedelic rock and Argentinian ambience."



Tracklist:
01. Revolution (5:32)
02. Technicolor UFO (4:12)
03. That's All I Know (4:44)
04. 50 Minutos Mas Tarde (6:04)
05. Desparecido (4:03)
06. Dusza (1:20)
07. One Step (4:36)
08. Swimming (4:48)
09. Bible Black (5:19)
10. Till The End Of The Line (9:21)
- Bonus Track (Audio Warning Enter At Your Own Peril)
11. Ebotonik Bible Black (Mainstream Version) (10:34)

Exact Audio Copy V1.0 beta 2 from 29. April 2011
EAC extraction logfile from 21. August 2011, 22:57
Manzanera, Phil / 50 Minutes Later
Used drive : LITE-ON BD B LH-2B1S Adapter: 3 ID: 0
Read mode : Secure
Utilize accurate stream : Yes
Defeat audio cache : Yes
Make use of C2 pointers : No
Read offset correction

: 618
Overread into Lead-In and Lead-Out : No
Fill up missing offset samples with silence : Yes
Delete leading and trailing silent blocks : No
Null samples used in CRC calculations : Yes
Used interface
: Native Win32 interface for Win NT & 2000
Gap handling
: Appended to previous track
Used output format : User Defined Encoder
Selected bitrate : 256 kBit/s
Quality : High
Add ID3 tag : No
Command line compressor : C:\Program Files (x86)\Exact Audio Copy\Flac\flac.exe
Additional command line options : -8 -V -T "ARTIST=%artist%" -T "TITLE=%title%" -T "ALBUM=%albumtitle%" -T "DATE=%year%" -T "TRACKNUMBER=%tracknr%" -T "TOTALTRACKS=%numtracks%" -T "GENRE=%genre%" -T "ALBUMARTIST=%albumartist%" -T "ALBUM ARTIST=%albumartist%
TOC of the extracted CD
Track | Start | Length | Start sector | End sector
--1 | 0:00.00 | 5:32.30 | 0 | 249292 | 5:32.30 | 4:12.39 | 24930 | 438683 | 9:44.69 | 4:44.05 | 43869 | 651734 | 14:28.74 | 6:04.44 | 65174 | 925175 | 20:33.43 | 4:03.42 | 92518 | 1107846 | 24:37.10 | 1:20.56 | 110785 | 1168407 | 25:57.66 | 4:36.13 | 116841 | 1375538 | 30:34.04 | 4:48.10 | 137554 | 1591639 | 35:22.14 | 5:19.27 | 159164 | 183115
10 | 40:41.41 | 9:21.30 | 183116 | 225220
11 | 50:02.71 | 10:34.53 | 225221 | 272823
Track 1
Filename C:\Users\Qwim\Desktop\Phil Manzanera - 50 minutes later (2005) [FLAC]\Flac\01 - Revolution.wav
Pre-gap length 0:00:02.00
Peak level 89.0 %
Extraction speed 4.0 X
Track quality 100.0 %
Test CRC C63A513F
Copy CRC C63A513F
Accurately ripped (confidence 11) [CD33968E] (AR v1)
Copy OK
Track 2
Filename C:\Users\Qwim\Desktop\Phil Manzanera - 50 minutes later (2005) [FLAC]\Flac\02 - Technicolor UFO.wav
Pre-gap length 0:00:02.00
Peak level 89.0 %
Extraction speed 4.3 X
Track quality 100.0 %
Test CRC 5DCD0E89
Copy CRC 5DCD0E89
Accurately ripped (confidence 12) [CF11A55A] (AR v1)
Copy OK
Track 3
Filename C:\Users\Qwim\Desktop\Phil Manzanera - 50 minutes later (2005) [FLAC]\Flac\03 - That's All I Know.wav
Pre-gap length 0:00:02.00
Peak level 89.0 %
Extraction speed 4.8 X
Track quality 100.0 %
Test CRC 94C6C1DA
Copy CRC 94C6C1DA
Accurately ripped (confidence 12) [424AD817] (AR v1)
Copy OK
Track 4
Filename C:\Users\Qwim\Desktop\Phil Manzanera - 50 minutes later (2005) [FLAC]\Flac\04 - 50 Minutos Mas Tarde.wav
Pre-gap length 0:00:01.00
Peak level 89.0 %
Extraction speed 5.4 X
Track quality 100.0 %
Test CRC EE58E2A8
Copy CRC EE58E2A8
Accurately ripped (confidence 12) [10D34B63] (AR v1)
Copy OK
Track 5
Filename C:\Users\Qwim\Desktop\Phil Manzanera - 50 minutes later (2005) [FLAC]\Flac\05 - Desaparecido.wav
Peak level 89.0 %
Extraction speed 5.4 X
Track quality 100.0 %
Test CRC 30919BF1
Copy CRC 30919BF1
Accurately ripped (confidence 12) [D15E607D] (AR v1)
Copy OK
Track 6
Filename C:\Users\Qwim\Desktop\Phil Manzanera - 50 minutes later (2005) [FLAC]\Flac\06 - Dusza.wav
Peak level 45.2 %
Extraction speed 4.4 X
Track quality 100.0 %
Test CRC 8771AE14
Copy CRC 8771AE14
Accurately ripped (confidence 11) 2B308E8 (AR v1)
Copy OK
Track 7
Filename C:\Users\Qwim\Desktop\Phil Manzanera - 50 minutes later (2005) [FLAC]\Flac\07 - One Step.wav
Peak level 100.0 %
Extraction speed 5.9 X
Track quality 100.0 %
Test CRC 8E5FB43F
Copy CRC 8E5FB43F
Accurately ripped (confidence 11) [144EB68D] (AR v1)
Copy OK
Track 8
Filename C:\Users\Qwim\Desktop\Phil Manzanera - 50 minutes later (2005) [FLAC]\Flac\08 - Swimming.wav
Pre-gap length 0:00:02.00
Peak level 89.0 %
Extraction speed 5.2 X
Track quality 99.9 %
Test CRC 8FFC175E
Copy CRC 8FFC175E
Accurately ripped (confidence 12) [444119EC] (AR v1)
Copy OK
Track 9
Filename C:\Users\Qwim\Desktop\Phil Manzanera - 50 minutes later (2005) [FLAC]\Flac\09 - Bible Black.wav
Pre-gap length 0:00:02.00
Peak level 89.0 %
Extraction speed 5.6 X
Track quality 99.9 %
Test CRC DDE8C67E
Copy CRC DDE8C67E
Accurately ripped (confidence 11) E035A14 (AR v1)
Copy OK
Track 10
Filename C:\Users\Qwim\Desktop\Phil Manzanera - 50 minutes later (2005) [FLAC]\Flac\10 - Till the End of the Line.wav
Peak level 89.0 %
Extraction speed 6.7 X
Track quality 99.9 %
Test CRC C9FDA8DC
Copy CRC C9FDA8DC
Accurately ripped (confidence 10) [856B2471] (AR v1)
Copy OK
Track 11
Filename C:\Users\Qwim\Desktop\Phil Manzanera - 50 minutes later (2005) [FLAC]\Flac\11 - Enotonik Bible Black [Mainstream Version] [x].wav
Pre-gap length 0:00:04.71
Peak level 89.0 %
Extraction speed 7.9 X
Track quality 100.0 %
Test CRC C0C0CC5D
Copy CRC C0C0CC5D
Accurately ripped (confidence 11) [E941A481] (AR v1)
Copy OK
All tracks accurately ripped
No errors occurred
End of status report
==== Log checksum 792FDB7B1100537DFB5F142C4716776CDDF76A18A1C70084365522C55B3D0FCC ====

Personnel

- Phil Manzanera : guitar/vocals/keyboards
- Jamie Johnson : bass
- Paul Thompson : drums
- Paddi Milner : keyboards, grand piano
- Claire Singers : backing vox
- Yaron Stavi : acoustic bass
- Robert Wyatt : cornet, vocals, keyboards, percussion
- Brian Eno : keyboards, kaos pads, enotonik treatment
- Nigel Simpson : grand piano
- Mark McCarthy : sound effects
- Lucho Brieva : backing vox
- Gina Bellman : backing vox
- Romano Viazzani : accordion
- Andres Ticino : cajon
- Andy MacKay : soprano saxophone
- Brendan Jury : viola

All thanks to original releaser

Phil Manzanera - 50 Minutes Later (2005)


Download Links:
(Premium Recommended)


All above links are interchangable. No password

Direct Download

Tags: Manzanera, Minutes

Phil Manzanera - 50 Minutes Later (2005) Download via Hotfile Rapidshare Fileserve Megaupload & FileSonic, Phil Manzanera - 50 Minutes Later (2005) free torrent downloads included crack, serial, keygen.


Attention!Information

Members of Guest cannot leave comments.