Grimms - Rockin' Duck (1973)

Download Now

Grimms - Rockin' Duck (1973)

Grimms - Rockin' Duck (1973)
EAC | Flac(Image) + Cue + Log & MP3 CBR 320Kbps
2009 | Universal Music Japan, UICY-94111 | ~ 233 or 87 Mb | Scans Included
Pub Rock

"Grimms' debut album was a live hodgepodge of straight pub rock, poetry, comedy sketches, and silliness that was a promising but uneven depiction of the state of British alternative comedy circa 1972. Released only months after their debut, the far superior studio album Rocking Duck is much more cohesive, experimental, and enjoyable..."


Tracklist:

01. Rockin' Duck (Innes) 01:55
02. Songs of the Stars (Roberts) 03:23
03. The Right Mask (Patten) 01:46
04. Policeman's Lot (Gorman) 03:21
05. Question of Habit (McGough) 01:44
06. Take It While You Can (McGear, McGough) 03:05
07. Poetic Licence (Patten, McGough) 00:41
08. The Masked Poet (Gorman) 00:44
09. Hiss and Boo (Gorman) 01:41
10. Gruesome (Roberts, McGough) 01:42
11. FX (McGough) 03:19 00:58
12. Blab Blab Blab/EEC (Innes, McGough) 02:29
13. Backwards Thro' Space (Patten, McGough) 00:58
14. The Prophet (Patten) 03:05
15. OO-Chuck-A-Mao-Mao (Innes) 03:50
16. End Of The Record (McGough) 03:50

Musicians:

John Gorman (The Scaffold) - vocals
Andy Roberts (Liverpool Scene) - vocals, guitar
Neil Innes (Bonzo Dog Band) - vocals, guitar, keyboards
Mike McGear (The Scaffold) - vocals, percussion
Roger McGough (The Scaffold and Liverpool Scene) - vocals, words
Vivian Stanshall (Bonzo Dog Band) - vocals, percussion

Adrian Henri (Liverpool Scene) - words
Brian Patten (Liverpool Scene) - words
George "Zoot" Money (The Animals) - keyboards
Michael Giles (King Crimson) - drums
John Megginson - bass, keyboards


Exact Audio Copy V1.0 beta 1 from 15. November 2010

EAC extraction logfile from 1. November 2011, 20:17

Grimms / Rockin' Duck

Used drive : HL-DT-STDVDRAM GH22NS50 Adapter: 5 ID: 0

Read mode : Secure
Utilize accurate stream : Yes
Defeat audio cache : Yes
Make use of C2 pointers : No

Read offset correction

: 667
Overread into Lead-In and Lead-Out : No
Fill up missing offset samples with silence : Yes
Delete leading and trailing silent blocks : No
Null samples used in CRC calculations : Yes
Used interface
: Native Win32 interface for Win NT & 2000
Gap handling
: Appended to previous track

Used output format : User Defined Encoder
Selected bitrate : 128 kBit/s
Quality : High
Add ID3 tag : No
Command line compressor : C:\Program Files\Exact Audio Copy\flac.exe
Additional command line options : -8 -V -T "ARTIST=%a" -T "TITLE=%t" -T "ALBUM=%g" -T "DATE=%y" -T "TRACKNUMBER=%n" -T "TOTALTRACKS=%x" -T "GENRE=%m" -T "ALBUMARTIST=%v" -T "ALBUM ARTIST=%v" -T "COMMENT=EAC Secure Mode, Test & Copy, AccurateRip, FLAC -8" %s

TOC of the extracted CD Track | Start | Length | Start sector | End sector
--1 | 0:00.00 | 1:54.45 | 0 | 8594 2 | 1:54.45 | 3:23.05 | 8595 | 23824 3 | 5:17.50 | 1:46.29 | 23825 | 31803 4 | 7:04.04 | 3:21.12 | 31804 | 46890 5 | 10:25.16 | 1:44.10 | 46891 | 54700 6 | 12:09.26 | 3:04.65 | 54701 | 68565 7 | 15:14.16 | 0:41.29 | 68566 | 71669 8 | 15:55.45 | 0:44.07 | 71670 | 74976 9 | 16:39.52 | 1:41.02 | 74977 | 82553
10 | 18:20.54 | 1:41.49 | 82554 | 90177
11 | 20:02.28 | 3:18.58 | 90178 | 105085
12 | 23:21.11 | 2:29.00 | 105086 | 116260
13 | 25:50.11 | 0:58.35 | 116261 | 120645
14 | 26:48.46 | 3:04.69 | 120646 | 134514
15 | 29:53.40 | 3:49.63 | 134515 | 151752
16 | 33:43.28 | 1:19.69 | 151753 | 157746

Track 1 Filename E:\Music\01 - Rockin' Duck.wav Pre-gap length 0:00:02.00 Peak level 99.8 %
Extraction speed 0.8 X
Track quality 100.0 %
Test CRC F39DF9B2
Copy CRC F39DF9B2
Accurately ripped (confidence 1) [3A469163]
Copy OK

Track 2 Filename E:\Music\02 - Songs Of The Stars.wav Peak level 99.8 %
Extraction speed 1.0 X
Track quality 100.0 %
Test CRC 522C35EE
Copy CRC 522C35EE
Accurately ripped (confidence 1) 81F9D1E
Copy OK

Track 3 Filename E:\Music\03 - The Right Mask.wav Pre-gap length 0:00:02.44 Peak level 99.8 %
Extraction speed 0.9 X
Track quality 100.0 %
Test CRC 1FD9DCCF
Copy CRC 1FD9DCCF
Accurately ripped (confidence 1) [15EFAFCF]
Copy OK

Track 4 Filename E:\Music\04 - Policeman's Lot.wav Pre-gap length 0:00:01.35 Peak level 99.8 %
Extraction speed 1.1 X
Track quality 100.0 %
Test CRC C81443EC
Copy CRC C81443EC
Accurately ripped (confidence 1) [E8D1838D]
Copy OK

Track 5 Filename E:\Music\05 - A Question Of Habit.wav Peak level 99.8 %
Extraction speed 1.0 X
Track quality 100.0 %
Test CRC 1899E362
Copy CRC 1899E362
Accurately ripped (confidence 1) [31712D7E]
Copy OK

Track 6 Filename E:\Music\06 - Take It While You Can.wav Peak level 99.8 %
Extraction speed 1.2 X
Track quality 100.0 %
Test CRC D6BDD18A
Copy CRC D6BDD18A
Accurately ripped (confidence 1) [9EA475F1]
Copy OK

Track 7 Filename E:\Music\07 - Poetic Licence.wav Peak level 44.9 %
Extraction speed 0.7 X
Track quality 100.0 %
Test CRC C2E9064A
Copy CRC C2E9064A
Accurately ripped (confidence 1) [AF698407]
Copy OK

Track 8 Filename E:\Music\08 - The Masked Poet.wav Peak level 83.3 %
Extraction speed 0.8 X
Track quality 100.0 %
Test CRC 8A514862
Copy CRC 8A514862
Accurately ripped (confidence 1) [8FF3E192]
Copy OK

Track 9 Filename E:\Music\09 - Hiss And Boo.wav Pre-gap length 0:00:02.62 Peak level 99.8 %
Extraction speed 1.2 X
Track quality 100.0 %
Test CRC 5A6A1D7C
Copy CRC 5A6A1D7C
Accurately ripped (confidence 1) [32EF76B5]
Copy OK

Track 10 Filename E:\Music\10 - Gruesome.wav Peak level 99.8 %
Extraction speed 1.2 X
Track quality 100.0 %
Test CRC A738473A
Copy CRC A738473A
Accurately ripped (confidence 1) [63DE9898]
Copy OK

Track 11 Filename E:\Music\11 - FX.wav Peak level 99.8 %
Extraction speed 1.4 X
Track quality 100.0 %
Test CRC DDCDAB31
Copy CRC DDCDAB31
Accurately ripped (confidence 1) [AFB66059]
Copy OK

Track 12 Filename E:\Music\12 - Blab Blab Blab,EEC.wav Peak level 99.8 %
Extraction speed 1.4 X
Track quality 100.0 %
Test CRC 720B049B
Copy CRC 720B049B
Accurately ripped (confidence 1) [D7091E2A]
Copy OK

Track 13 Filename E:\Music\13 - Backwards Thro' Space.wav Peak level 99.8 %
Extraction speed 1.0 X
Track quality 100.0 %
Test CRC EA4F2122
Copy CRC EA4F2122
Accurately ripped (confidence 1) [770DBD99]
Copy OK

Track 14 Filename E:\Music\14 - The Prophet.wav Pre-gap length 0:00:03.40 Peak level 96.2 %
Extraction speed 1.5 X
Track quality 100.0 %
Test CRC 4763B56B
Copy CRC 4763B56B
Accurately ripped (confidence 1) D4A2F89
Copy OK

Track 15 Filename E:\Music\15 - OO-Chuck-A-Mao-Mao.wav Pre-gap length 0:00:03.05 Peak level 99.8 %
Extraction speed 1.7 X
Track quality 100.0 %
Test CRC 01719B15
Copy CRC 01719B15
Accurately ripped (confidence 1) [7A3B87CF]
Copy OK

Track 16 Filename E:\Music\16 - End Of The Record.wav Pre-gap length 0:00:00.50 Peak level 99.8 %
Extraction speed 1.4 X
Track quality 100.0 %
Test CRC 4F7595AD
Copy CRC 4F7595AD
Accurately ripped (confidence 1) 81CC31D
Copy OK

All tracks accurately ripped

No errors occurred

End of status report

==== Log checksum FB4D70ED9834D03596BDC6077555E9161A78DFF6A490AEB66930E1C05484B4B4 ====

foobar2000 1.2.9 / Dynamic Range Meter 1.1.1
log date: 2015-07-23 16:30:55

Analyzed: Grimms / Rockin' Duck

DR Peak RMS Duration Track

DR8 -0.01 dB -9.94 dB 1:55 01-Rockin' Duck
DR8 -0.01 dB -10.76 dB 3:23 02-Songs Of The Stars
DR17 -0.01 dB -20.90 dB 1:46 03-The Right Mask
DR8 -0.01 dB -9.91 dB 3:21 04-Policeman's Lot
DR12 -0.01 dB -17.66 dB 1:44 05-A Question Of Habit
DR8 -0.01 dB -10.56 dB 3:05 06-Take It While You Can
DR14 -6.95 dB -28.18 dB 0:41 07-Poetic Licence
DR15 -1.58 dB -22.98 dB 0:44 08-The Masked Poet
DR11 -0.01 dB -14.08 dB 1:41 09-Hiss And Boo
DR11 -0.01 dB -11.32 dB 1:42 10-Gruesome
DR14 -0.01 dB -18.55 dB 3:19 11-FX
DR13 -0.01 dB -15.42 dB 2:29 12-Blab Blab Blab/EEC
DR14 -0.01 dB -18.43 dB 0:58 13-Backwards Thro' Space
DR14 -0.33 dB -17.47 dB 3:05 14-The Prophet
DR8 -0.01 dB -10.11 dB 3:50 15-OO-Chuck-A-Mao-Mao
DR16 -0.01 dB -20.58 dB 1:20 16-End Of The Record

Number of tracks: 16
Official DR value: DR12

Samplerate: 44100 Hz
Channels: 2
Bits per sample: 16
Bitrate: 883 kbps
Codec: FLAC

[CUETools log; Date: 23.07.2015 16:30:46; Version: 2.1.4]
[CTDB TOCID: .lKYkb37BuPBAVuHh1CLRgKfP_o-] found.
Track | CTDB Status
1 | (1/1) Accurately ripped
2 | (1/1) Accurately ripped
3 | (1/1) Accurately ripped
4 | (1/1) Accurately ripped
5 | (1/1) Accurately ripped
6 | (1/1) Accurately ripped
7 | (1/1) Accurately ripped
8 | (1/1) Accurately ripped
9 | (1/1) Accurately ripped
10 | (1/1) Accurately ripped
11 | (1/1) Accurately ripped
12 | (1/1) Accurately ripped
13 | (1/1) Accurately ripped
14 | (1/1) Accurately ripped
15 | (1/1) Accurately ripped
16 | (1/1) Accurately ripped
[AccurateRip ID: 00147179-00f2d089-ab083710] found.
Track [ CRC | V2 ] Status
01 [3a469163|455c71c4] (0+2/2) Accurately ripped
02 81f9d1e|fad45c66 (0+2/2) Accurately ripped
03 [15efafcf|a1252a79] (0+2/2) Accurately ripped
04 [e8d1838d|a779d752] (0+2/2) Accurately ripped
05 [31712d7e|d86e1e8a] (0+2/2) Accurately ripped
06 [9ea475f1|321cb8bd] (0+2/2) Accurately ripped
07 [af698407|d5eff6b4] (0+2/2) Accurately ripped
08 [8ff3e192|68253d04] (0+2/2) Accurately ripped
09 [32ef76b5|952ae29e] (0+2/2) Accurately ripped
10 [63de9898|aa3de7bb] (0+2/2) Accurately ripped
11 [afb66059|be3199ca] (0+2/2) Accurately ripped
12 [d7091e2a|0276b772] (0+2/2) Accurately ripped
13 [770dbd99|0c2c1135] (0+2/2) Accurately ripped
14 d4a2f89|5221aa8e (0+2/2) Accurately ripped
15 [7a3b87cf|f58be722] (0+2/2) Accurately ripped
16 81cc31d|70c527d4 (0+2/2) Accurately ripped

Track Peak [ CRC32 ] [W/O NULL] [ LOG ]
-- 99,8 [F1AC431A] [C58FAA7A]
01 99,8 [F39DF9B2] [A7C97C15] CRC32
02 99,8 [522C35EE] 06E17FE CRC32
03 99,8 [1FD9DCCF] [D5CBC55B] CRC32
04 99,8 [C81443EC] [5CB7B657] CRC32
05 99,8 [1899E362] [1899E362] CRC32
06 99,8 [D6BDD18A] [D6BDD18A] CRC32
07 44,9 [C2E9064A] [C2E9064A] CRC32
08 83,3 [8A514862] [A4803887] CRC32
09 99,8 [5A6A1D7C] [0AD69356] CRC32
10 99,8 [A738473A] [A738473A] CRC32
11 99,8 [DDCDAB31] [DDCDAB31] CRC32
12 99,8 [720B049B] [720B049B] CRC32
13 99,8 [EA4F2122] [22A330E8] CRC32
14 96,2 [4763B56B] [6E56A2DF] CRC32
15 99,8 [01719B15] [FBF0ED73] CRC32
16 99,8 [4F7595AD] [1E68AB21] CRC32

Grimms - Rockin' Duck (1973)

DOWNLOAD LINKS:
Buy Premium To Support Me & Get Resumable Support & Max Speed


Links are Interchangeable - No Password - Single Extraction

Direct Download

Tags: Grimms, Rockin

Grimms - Rockin' Duck (1973) Download via Hotfile Rapidshare Fileserve Megaupload & FileSonic, Grimms - Rockin' Duck (1973) free torrent downloads included crack, serial, keygen.


Attention!Information

Members of Guest cannot leave comments.