Jordi Savall & Hesperion XXI - Dinastia Borgia - Chiesa e potere nel Rinascimento (2010) [3CD+DVD] {Alia Vox}

Download Now


Jordi Savall & Hesperion XXI - Dinastia Borgia - Chiesa e potere nel Rinascimento (2010) [3CD+DVD] {Alia Vox}
Jordi Savall & Hesperion XXI - Dinastia Borgia - Chiesa e potere nel Rinascimento (2010) [3CD+DVD] {Alia Vox}
EAC rip (secure mode) | FLAC (tracks)+CUE+LOG -> 1.11 Gb | MP3 @320 -> 534 Mb
DVD5 -> 3.73 Gb | All Regions | PAL 4:3 | Dolby AC3, 2 ch | ~ 81m | ISO Image | Subs: Catala, French, English
Full Artwork @ 600 dpi (jpg) -> 927 Mb | 5% repair rar
© 2010 Alia Vox | AVSA 9875
Classical / Renaissance

"Coinciding with the 500th anniversary of the birth of Saint Francis Borgia, Fourth Duke of Gandia, Jordi Savall and Alia Vox offer a visually lavish and artistically comprehensive new release entitled Dinastia Borgia. Savall's latest musicological/historical quest focuses on music from the time of the Borgia dynasty, including works by composers such as Isaac, Dufay and Morales, from Pope Alexander VI/6 and two of his children, Cesare and Lucrezia, through to Francis Borgia, Jesuit priest and, perhaps, composer. For five centuries, scholars have studied and debated the role of the Borgias in Renaissance history. Although their name is synonymous with Papal corruption and they were undoubtedly malevolent and immoral, as patrons of the arts, the Borgias were also instrumental in the period's explosive growth of culture."

Jordi Savall & Hesperion XXI - Dinastia Borgia - Chiesa e potere nel Rinascimento (2010) [3CD+DVD] {Alia Vox}

"The fascinating story of their life and legacy (both good and evil) still has the power to inspire the imagination. With this dramatic historical and artistic backdrop, Savall and his fellow musicians shed new light on this unique (and at times bloody) era in Western history, revealing first-rate musicians, the vital role of original instruments in performing this type of music and the importance of reconstructing original scores. Above all, it reflects the multi-faceted talents of Jordi Savall as director, researcher and performer.

Jordi Savall & Hesperion XXI - Dinastia Borgia - Chiesa e potere nel Rinascimento (2010) [3CD+DVD] {Alia Vox}


The Borgia family originated from Valencia in Spain and became prominent during the Renaissance in Italy, especially when Rodrigo, a cunning intriguer, was elected Pope in 1492, taking the name Alexander VI. He had several acknowledged children, of which Lucrezia and Cesare were best known. The Borgias have been accused of many different crimes, generally on considerable evidence, including adultery, simony, theft, rape, bribery, incest, and murder (especially murder by arsenic poisoning. Cesare, with his father's backing, tried to become the ruler of Italy. But in 1503, Pope Alexander died suddenly. Cesare's intrigues collapsed, and he went off to Spain. Lucrezia was also rumoured to be a notorious poisoner. She married three times, and after the fall of her father and brother, remained the respected consort of the Duke of Ferrara.

Jordi Savall & Hesperion XXI - Dinastia Borgia - Chiesa e potere nel Rinascimento (2010) [3CD+DVD] {Alia Vox}


Saint Francis Borgia was a grandson of Rodrigo through another son, Giovanni. After a career in the service of the kings of Spain, he entered the priesthood and became a Jesuit. He eventually rose to be the third Father General of the order.

Thanks to the elite ensembles Hespèrion XXI and La Capella Reial de Catalunya, Jordi Savall delivers the soundtrack of a time during which cruelty and beauty were mixed as never before. A bonus DVD (details the creative process which enables Jordi Savall to bring this era back to life."


Jordi Savall & Hesperion XXI - Dinastia Borgia - Chiesa e potere nel Rinascimento (2010) [3CD+DVD] {Alia Vox}


Personnel: La Capella Reial de Catalunya, Hespèrion XXI, Jordi Savall, Montserrat Figueras, Pascal Bertin, Lluis Vilamajó & Marc Mauillon...

Recording Date and Place: Collégiale de Cardona (Cataluña). Iglesia de Franc-Waret (Bélgica). Monasterio de Santa María del Parral de Segovia. Septiembre octubre y noviembre de 2009. 1991/1998/2006
Available format: 3 SACD Hybrid Multichannel Stereo + 1 DVD
Booklet languages: Français, English, Castellano, Català, Deutsch, Italiano
Date of publication: 05/10/2010


Jordi Savall & Hesperion XXI - Dinastia Borgia - Chiesa e potere nel Rinascimento (2010) [3CD+DVD] {Alia Vox}


tracklist:
CD1

01 - Anonymous - Mowachah Billadi Askara Min adbi Llama
02 - Anonymous - Ductia (CSM 123)
03 - Guillaume Dufay-Jordi Savall - Rotundellus
04 - Gilles Binchois - Da Pacem
05 - Josep Piera - Deserts d'amichs, de bens e de senyor
06 - Guillaume Dufay-Jordi Savall - Rondeau ''Ce jour''
07 - Anonymous - Strambotto-caccia- Correno multi cani
08 - Anonymous - Zappay lo campo
09 - Guillaume Dufay - Ave Maris Stella
10 - Anonymous - Makam Muhayyer ''Kume'' usules Duyek - Acemler
11 - Anonymous - Exultet caelum cum laudibus
12 - Anonymous - Adoramus te
13 - Anonymous - Viva, viva Rey Fernando
14 - Anonymous - Miserere nostri - Vexilla regis
15 - Josep Piera - La gran dolor
16 - Anonymous - El cervel mi fa
17 - Johannes Cornago - Patres nostris peccaverunt
18 - Haine van Guizeghem-Josquin des Prez - De Tous bien plaine
19 - Anonymous - Taksim & Danza
20 - Carlo Verardi - Viva el Gran Rey Don Fernando
21 - Heinrich Isaac - Lamento per la morte di Lorenzo Il Magnifico
22 - Anonymous - Romance- La rosa enflorece

Jordi Savall & Hesperion XXI - Dinastia Borgia - Chiesa e potere nel Rinascimento (2010) [3CD+DVD] {Alia Vox}


CD2
01 - Marbriano de Orto - Salve regis Mater-Hic sacerdos
02 - Anonymous - Canto di pace in Ebraico Adonay
03 - Daniele Carnovich - Elogio de Lucrezia
04 - Josquin des Prez - Deploration pour la mort de J. Ockeghem
05 - Anonymous - Fortuna desperata
06 - Josquin des Prez - Absalon fili me
07 - Anonymous - Un cavalier di Spagna
08 - La Capella Reial de Caytalunya, Hesperion XXI - Tamburi e campagne - Fortuna desperata
09 - Josquin des Prez - Une musque de Buscaye
10 - Philippus de Lurano - Donna contro la mia voglia
11 - Juan del Enzina - Villancico- Si abra en estre baldres
12 - Jacques Arcadelt-Pietro Bembo - Sonetto- Amor la tua virtute
13 - Josquin des Prez - Requiem
14 - Joan Ambrosio Dalza - Pavana alla Ferrarese
15 - Pascal Bertin - Eloge de la duchesse de Ferrara
16 - Fernandez de Oviedo - Epitafio- Aqui yaze en poca tierra
17 - Castalios latices ploranda - Castalios latices ploranda
18 - Josquin des Prez - Agnus Dei (Missa Hercules Rex)
19 - Jordi Savall - Fanfarria
20 - Anonymous - Il Canto della Sibilla Valenciana

CD3
01 - Lluis del Mila - Fantasia I
02 - Clement Janequin - Tielman Susato - La Batalla
03 - Josquin des Prez - Motet- Proch dolor
04 - Mateu Flecha - La guerra- Todos los buenos soldados
05 - Lluis del Mila - Fantasia II
06 - Bartomeu Carceres - Tau garco la durundena
07 - Anonymous - Meis olhos van por lo mare
08 - Garcilaso de la Vega - Egloga III (1536) Aquella voluntad honesta y pura
09 - Cristobal de Morales - Jubilate Deo omnis terra
10 - Juan Roman - Pavana ''O voy''
11 - Francesc Borja - Credo in unum Deum
12 - Venegas de Henestrosa - Kyrie I
13 - Teresa de Jesus - Alma buscarte has en mi
14 - Cristobal de Morales - Lachrimosa dies illa
15 - Josquin des Prez - Luys Narvaez - Mille regrets
16 - N. Neyalkov, H. Sarikouyomdjian, G. Mouradian... - Improvvisazione...
17 - Anonymous - Fanfarra
18 - Claude Goudimel - Salmo 35- Deba contre mes debateurs
19 - Cristobal de Morales - Requiem- Pie Jesu Domine
20 - Francisco Rojas - El Rey y por S.M. Don Luis Carrillo - Foglio 34...
21 - N. Neyalkov, H. Sarikouyomdjian, G. Mouradian... - Improvvisazione...
22 - Anonymous - Joan Cabanilles - Pange Lingua gloriosi - Tiento de Pange Lingua

DVD
Details the creative process which enables Jordi Savall to bring this era back to life...

Jordi Savall & Hesperion XXI - Dinastia Borgia - Chiesa e potere nel Rinascimento (2010) [3CD+DVD] {Alia Vox}



Exact Audio Copy V1.0 beta 3 from 29. August 2011

EAC extraction logfile from 8. December 2013, 9:20

- / Dinastia Borgia - Chiesa e potere nel Rinascimento

Used drive : Optiarc DVD RW AD-5280S Adapter: 2 ID: 1

Read mode : Secure
Utilize accurate stream : Yes
Defeat audio cache : Yes
Make use of C2 pointers : No

Read offset correction

: 48
Overread into Lead-In and Lead-Out : No
Fill up missing offset samples with silence : Yes
Delete leading and trailing silent blocks : No
Null samples used in CRC calculations : Yes
Used interface
: Native Win32 interface for Win NT & 2000
Gap handling
: Appended to previous track

Used output format : User Defined Encoder
Selected bitrate : 768 kBit/s
Quality : High
Add ID3 tag : No
Command line compressor : C:\Program Files\Exact Audio Copy\FLAC\FLAC.EXE
Additional command line options : -8 -V -T "ARTIST=%artist%" -T "TITLE=%title%" -T "ALBUM=%albumtitle%" -T "DATE=%year%" -T "TRACKNUMBER=%tracknr%" -T "TOTALTRACKS=%numtracks%" -T "GENRE=%genre%" -T "ALBUMARTIST=%albumartist%" -T "ALBUM ARTIST=%albumartist%" -T "COMMENT=EAC Secure Mode, Test & Copy, AccurateRip, FLAC -8" %source%

TOC of the extracted CD Track | Start | Length | Start sector | End sector
--1 | 0:00.00 | 3:39.62 | 0 | 16486 2 | 3:39.62 | 3:36.51 | 16487 | 32737 3 | 7:16.38 | 2:12.63 | 32738 | 42700 4 | 9:29.26 | 2:02.26 | 42701 | 51876 5 | 11:31.52 | 3:03.69 | 51877 | 65670 6 | 14:35.46 | 1:45.51 | 65671 | 73596 7 | 16:21.22 | 2:26.23 | 73597 | 84569 8 | 18:47.45 | 0:55.40 | 84570 | 88734 9 | 19:43.10 | 1:54.44 | 88735 | 97328
10 | 21:37.54 | 3:26.64 | 97329 | 112842
11 | 25:04.43 | 4:47.43 | 112843 | 134410
12 | 29:52.11 | 2:24.08 | 134411 | 145218
13 | 32:16.19 | 3:34.39 | 145219 | 161307
14 | 35:50.58 | 1:58.04 | 161308 | 170161
15 | 37:48.62 | 3:41.41 | 170162 | 186777
16 | 41:30.28 | 1:38.70 | 186778 | 194197
17 | 43:09.23 | 2:16.68 | 194198 | 204465
18 | 45:26.16 | 3:25.46 | 204466 | 219886
19 | 48:51.62 | 4:40.28 | 219887 | 240914
20 | 53:32.15 | 5:07.74 | 240915 | 264013
21 | 58:40.14 | 7:22.61 | 264014 | 297224
22 | 66:03.00 | 5:19.13 | 297225 | 321162

Track 1 Filename L:\Dinastia Borgia - Chiesa e potere nel Rinascimento (LCR, HXXI, Savall) (2010) [FLAC] {Alia Vox AVSA 9875}\Disc 1of3\01 - Anonymous - Mowachah Billadi Askara Min adbi Llama.wav Pre-gap length 0:00:02.00 Peak level 96.9 %
Extraction speed 2.6 X
Track quality 100.0 %
Test CRC 8D794400
Copy CRC 8D794400
Accurately ripped (confidence 25) [C20C1B6A] (AR v2)
Copy OK

Track 2 Filename L:\Dinastia Borgia - Chiesa e potere nel Rinascimento (LCR, HXXI, Savall) (2010) [FLAC] {Alia Vox AVSA 9875}\Disc 1of3\02 - Anonymous - Ductia (CSM 123).wav Peak level 88.3 %
Extraction speed 2.8 X
Track quality 100.0 %
Test CRC E1D01369
Copy CRC E1D01369
Accurately ripped (confidence 25) [F53D323C] (AR v2)
Copy OK

Track 3 Filename L:\Dinastia Borgia - Chiesa e potere nel Rinascimento (LCR, HXXI, Savall) (2010) [FLAC] {Alia Vox AVSA 9875}\Disc 1of3\03 - Guillaume Dufay-Jordi Savall - Rotundellus.wav Peak level 48.4 %
Extraction speed 2.7 X
Track quality 100.0 %
Test CRC 960EBBF8
Copy CRC 960EBBF8
Accurately ripped (confidence 25) [47DF730B] (AR v2)
Copy OK

Track 4 Filename L:\Dinastia Borgia - Chiesa e potere nel Rinascimento (LCR, HXXI, Savall) (2010) [FLAC] {Alia Vox AVSA 9875}\Disc 1of3\04 - Gilles Binchois - Da Pacem.wav Peak level 70.9 %
Extraction speed 2.8 X
Track quality 100.0 %
Test CRC 1BA55519
Copy CRC 1BA55519
Accurately ripped (confidence 25) [8B638C48] (AR v2)
Copy OK

Track 5 Filename L:\Dinastia Borgia - Chiesa e potere nel Rinascimento (LCR, HXXI, Savall) (2010) [FLAC] {Alia Vox AVSA 9875}\Disc 1of3\05 - Josep Piera - Deserts d'amichs, de bens e de senyor.wav Peak level 47.5 %
Extraction speed 2.7 X
Track quality 99.9 %
Test CRC 22D5EAA3
Copy CRC 22D5EAA3
Accurately ripped (confidence 25) [6CCF8150] (AR v2)
Copy OK

Track 6 Filename L:\Dinastia Borgia - Chiesa e potere nel Rinascimento (LCR, HXXI, Savall) (2010) [FLAC] {Alia Vox AVSA 9875}\Disc 1of3\06 - Guillaume Dufay-Jordi Savall - Rondeau ''Ce jour''.wav Peak level 57.5 %
Extraction speed 2.9 X
Track quality 100.0 %
Test CRC 47943642
Copy CRC 47943642
Accurately ripped (confidence 25) [65C94438] (AR v2)
Copy OK

Track 7 Filename L:\Dinastia Borgia - Chiesa e potere nel Rinascimento (LCR, HXXI, Savall) (2010) [FLAC] {Alia Vox AVSA 9875}\Disc 1of3\07 - Anonymous - Strambotto-caccia- Correno multi cani.wav Peak level 72.2 %
Extraction speed 3.2 X
Track quality 100.0 %
Test CRC F0334BA0
Copy CRC F0334BA0
Accurately ripped (confidence 25) [7ED8D25E] (AR v2)
Copy OK

Track 8 Filename L:\Dinastia Borgia - Chiesa e potere nel Rinascimento (LCR, HXXI, Savall) (2010) [FLAC] {Alia Vox AVSA 9875}\Disc 1of3\08 - Anonymous - Zappay lo campo.wav Peak level 68.0 %
Extraction speed 2.4 X
Track quality 100.0 %
Test CRC 35516644
Copy CRC 35516644
Accurately ripped (confidence 25) [463257E3] (AR v2)
Copy OK

Track 9 Filename L:\Dinastia Borgia - Chiesa e potere nel Rinascimento (LCR, HXXI, Savall) (2010) [FLAC] {Alia Vox AVSA 9875}\Disc 1of3\09 - Guillaume Dufay - Ave Maris Stella.wav Peak level 55.2 %
Extraction speed 3.2 X
Track quality 100.0 %
Test CRC 77615BE0
Copy CRC 77615BE0
Accurately ripped (confidence 25) [D9713715] (AR v2)
Copy OK

Track 10 Filename L:\Dinastia Borgia - Chiesa e potere nel Rinascimento (LCR, HXXI, Savall) (2010) [FLAC] {Alia Vox AVSA 9875}\Disc 1of3\10 - Anonymous - Makam Muhayyer ''Kume'' usules Duyek - Acemler.wav Peak level 91.4 %
Extraction speed 3.7 X
Track quality 100.0 %
Test CRC AA0981C6
Copy CRC AA0981C6
Accurately ripped (confidence 25) [1C3F3396] (AR v2)
Copy OK

Track 11 Filename L:\Dinastia Borgia - Chiesa e potere nel Rinascimento (LCR, HXXI, Savall) (2010) [FLAC] {Alia Vox AVSA 9875}\Disc 1of3\11 - Anonymous - Exultet caelum cum laudibus.wav Peak level 92.5 %
Extraction speed 4.1 X
Track quality 100.0 %
Test CRC 424CBAC3
Copy CRC 424CBAC3
Accurately ripped (confidence 25) [1038A7C5] (AR v2)
Copy OK

Track 12 Filename L:\Dinastia Borgia - Chiesa e potere nel Rinascimento (LCR, HXXI, Savall) (2010) [FLAC] {Alia Vox AVSA 9875}\Disc 1of3\12 - Anonymous - Adoramus te.wav Peak level 54.3 %
Extraction speed 3.2 X
Track quality 99.9 %
Test CRC 79EDF09E
Copy CRC 79EDF09E
Accurately ripped (confidence 25) [78A37CF6] (AR v2)
Copy OK

Track 13 Filename L:\Dinastia Borgia - Chiesa e potere nel Rinascimento (LCR, HXXI, Savall) (2010) [FLAC] {Alia Vox AVSA 9875}\Disc 1of3\13 - Anonymous - Viva, viva Rey Fernando.wav Peak level 86.8 %
Extraction speed 4.2 X
Track quality 100.0 %
Test CRC 2F38B7F6
Copy CRC 2F38B7F6
Accurately ripped (confidence 25) [E34B776D] (AR v2)
Copy OK

Track 14 Filename L:\Dinastia Borgia - Chiesa e potere nel Rinascimento (LCR, HXXI, Savall) (2010) [FLAC] {Alia Vox AVSA 9875}\Disc 1of3\14 - Anonymous - Miserere nostri - Vexilla regis.wav Peak level 67.6 %
Extraction speed 3.8 X
Track quality 100.0 %
Test CRC 5C653081
Copy CRC 5C653081
Accurately ripped (confidence 25) [60731A8B] (AR v2)
Copy OK

Track 15 Filename L:\Dinastia Borgia - Chiesa e potere nel Rinascimento (LCR, HXXI, Savall) (2010) [FLAC] {Alia Vox AVSA 9875}\Disc 1of3\15 - Josep Piera - La gran dolor.wav Peak level 59.3 %
Extraction speed 4.4 X
Track quality 100.0 %
Test CRC 81576F00
Copy CRC 81576F00
Accurately ripped (confidence 25) [9D004AA8] (AR v2)
Copy OK

Track 16 Filename L:\Dinastia Borgia - Chiesa e potere nel Rinascimento (LCR, HXXI, Savall) (2010) [FLAC] {Alia Vox AVSA 9875}\Disc 1of3\16 - Anonymous - El cervel mi fa.wav Peak level 83.6 %
Extraction speed 3.0 X
Track quality 99.8 %
Test CRC 8F06A84D
Copy CRC 8F06A84D
Accurately ripped (confidence 25) [8D18C6D9] (AR v2)
Copy OK

Track 17 Filename L:\Dinastia Borgia - Chiesa e potere nel Rinascimento (LCR, HXXI, Savall) (2010) [FLAC] {Alia Vox AVSA 9875}\Disc 1of3\17 - Johannes Cornago - Patres nostris peccaverunt.wav Peak level 80.2 %
Extraction speed 4.2 X
Track quality 100.0 %
Test CRC A80A337A
Copy CRC A80A337A
Accurately ripped (confidence 25) [32C00E73] (AR v2)
Copy OK

Track 18 Filename L:\Dinastia Borgia - Chiesa e potere nel Rinascimento (LCR, HXXI, Savall) (2010) [FLAC] {Alia Vox AVSA 9875}\Disc 1of3\18 - Haine van Guizeghem-Josquin des Prez - De Tous bien plaine.wav Peak level 46.0 %
Extraction speed 4.7 X
Track quality 100.0 %
Test CRC 11572D26
Copy CRC 11572D26
Accurately ripped (confidence 25) [0854C7BD] (AR v2)
Copy OK

Track 19 Filename L:\Dinastia Borgia - Chiesa e potere nel Rinascimento (LCR, HXXI, Savall) (2010) [FLAC] {Alia Vox AVSA 9875}\Disc 1of3\19 - Anonymous - Taksim & Danza.wav Peak level 80.5 %
Extraction speed 5.0 X
Track quality 100.0 %
Test CRC 275DE872
Copy CRC 275DE872
Accurately ripped (confidence 25) [689FF31E] (AR v2)
Copy OK

Track 20 Filename L:\Dinastia Borgia - Chiesa e potere nel Rinascimento (LCR, HXXI, Savall) (2010) [FLAC] {Alia Vox AVSA 9875}\Disc 1of3\20 - Carlo Verardi - Viva el Gran Rey Don Fernando.wav Peak level 64.6 %
Extraction speed 5.2 X
Track quality 100.0 %
Test CRC DC2385CB
Copy CRC DC2385CB
Accurately ripped (confidence 25) [CDBE746A] (AR v2)
Copy OK

Track 21 Filename L:\Dinastia Borgia - Chiesa e potere nel Rinascimento (LCR, HXXI, Savall) (2010) [FLAC] {Alia Vox AVSA 9875}\Disc 1of3\21 - Heinrich Isaac - Lamento per la morte di Lorenzo Il Magnifico.wav Peak level 71.7 %
Extraction speed 5.6 X
Track quality 100.0 %
Test CRC F041F081
Copy CRC F041F081
Accurately ripped (confidence 23) [E1207E0A] (AR v2)
Copy OK

Track 22 Filename L:\Dinastia Borgia - Chiesa e potere nel Rinascimento (LCR, HXXI, Savall) (2010) [FLAC] {Alia Vox AVSA 9875}\Disc 1of3\22 - Anonymous - Romance- La rosa enflorece.wav Peak level 84.7 %
Extraction speed 5.6 X
Track quality 100.0 %
Test CRC 5B3CBB37
Copy CRC 5B3CBB37
Accurately ripped (confidence 24) [1D76E4D4] (AR v2)
Copy OK

All tracks accurately ripped

No errors occurred

End of status report

==== Log checksum 2A7DCD9A0886C18D892AFB4480D0529506EB353E63402B8E336CCA64E93372B5 ====

Exact Audio Copy V1.0 beta 3 from 29. August 2011

EAC extraction logfile from 11. December 2013, 20:28

- / Dinastia Borgia - Chiesa e potere nel Rinascimento

Used drive : Optiarc DVD RW AD-5280S Adapter: 2 ID: 1

Read mode : Secure
Utilize accurate stream : Yes
Defeat audio cache : Yes
Make use of C2 pointers : No

Read offset correction

: 48
Overread into Lead-In and Lead-Out : No
Fill up missing offset samples with silence : Yes
Delete leading and trailing silent blocks : No
Null samples used in CRC calculations : Yes
Used interface
: Native Win32 interface for Win NT & 2000
Gap handling
: Appended to previous track

Used output format : User Defined Encoder
Selected bitrate : 768 kBit/s
Quality : High
Add ID3 tag : No
Command line compressor : C:\Program Files\Exact Audio Copy\FLAC\FLAC.EXE
Additional command line options : -8 -V -T "ARTIST=%artist%" -T "TITLE=%title%" -T "ALBUM=%albumtitle%" -T "DATE=%year%" -T "TRACKNUMBER=%tracknr%" -T "TOTALTRACKS=%numtracks%" -T "GENRE=%genre%" -T "ALBUMARTIST=%albumartist%" -T "ALBUM ARTIST=%albumartist%" -T "COMMENT=EAC Secure Mode, Test & Copy, AccurateRip, FLAC -8" %source%

TOC of the extracted CD Track | Start | Length | Start sector | End sector
--1 | 0:00.00 | 9:10.04 | 0 | 41253 2 | 9:10.04 | 2:27.19 | 41254 | 52297 3 | 11:37.23 | 0:34.11 | 52298 | 54858 4 | 12:11.34 | 3:55.14 | 54859 | 72497 5 | 16:06.48 | 1:49.20 | 72498 | 80692 6 | 17:55.68 | 3:28.43 | 80693 | 96335 7 | 21:24.36 | 4:44.24 | 96336 | 117659 8 | 26:08.60 | 1:09.70 | 117660 | 122904 9 | 27:18.55 | 2:57.34 | 122905 | 136213
10 | 30:16.14 | 3:28.50 | 136214 | 151863
11 | 33:44.64 | 1:30.21 | 151864 | 158634
12 | 35:15.10 | 2:43.13 | 158635 | 170872
13 | 37:58.23 | 4:16.39 | 170873 | 190111
14 | 42:14.62 | 2:27.39 | 190112 | 201175
15 | 44:42.26 | 1:36.68 | 201176 | 208443
16 | 46:19.19 | 3:32.68 | 208444 | 224411
17 | 49:52.12 | 2:46.47 | 224412 | 236908
18 | 52:38.59 | 3:01.70 | 236909 | 250553
19 | 55:40.54 | 1:46.14 | 250554 | 258517
20 | 57:26.68 | 18:47.49 | 258518 | 343091

Track 1 Filename L:\Various Composers - Dinastia Borgia - Chiesa e potere nel Rinascimento (Savall, Hespèrion XXI) (2010) [FLAC] {Alia Vox AVSA 9875}\Disc 2of3\01 - Marbriano de Orto - Salve regis Mater-Hic sacerdos.wav Pre-gap length 0:00:02.00 Peak level 60.9 %
Extraction speed 3.0 X
Track quality 100.0 %
Test CRC 8DCF9F46
Copy CRC 8DCF9F46
Accurately ripped (confidence 24) [DAF47EB8] (AR v2)
Copy OK

Track 2 Filename L:\Various Composers - Dinastia Borgia - Chiesa e potere nel Rinascimento (Savall, Hespèrion XXI) (2010) [FLAC] {Alia Vox AVSA 9875}\Disc 2of3\02 - Anonymous - Canto di pace in Ebraico Adonay.wav Peak level 67.2 %
Extraction speed 2.9 X
Track quality 100.0 %
Test CRC 0FE6DADC
Copy CRC 0FE6DADC
Accurately ripped (confidence 24) [26566C49] (AR v2)
Copy OK

Track 3 Filename L:\Various Composers - Dinastia Borgia - Chiesa e potere nel Rinascimento (Savall, Hespèrion XXI) (2010) [FLAC] {Alia Vox AVSA 9875}\Disc 2of3\03 - Daniele Carnovich - Elogio de Lucrezia.wav Peak level 54.7 %
Extraction speed 1.1 X
Track quality 99.6 %
Test CRC 46CFE47E
Copy CRC 46CFE47E
Accurately ripped (confidence 24) [190B5FE7] (AR v2)
Copy OK

Track 4 Filename L:\Various Composers - Dinastia Borgia - Chiesa e potere nel Rinascimento (Savall, Hespèrion XXI) (2010) [FLAC] {Alia Vox AVSA 9875}\Disc 2of3\04 - Josquin des Prez - Deploration pour la mort de J. Ockeghem.wav Peak level 90.3 %
Extraction speed 3.3 X
Track quality 100.0 %
Test CRC 66E5C12C
Copy CRC 66E5C12C
Accurately ripped (confidence 24) [96DBCA41] (AR v2)
Copy OK

Track 5 Filename L:\Various Composers - Dinastia Borgia - Chiesa e potere nel Rinascimento (Savall, Hespèrion XXI) (2010) [FLAC] {Alia Vox AVSA 9875}\Disc 2of3\05 - Anonymous - Fortuna desperata.wav Peak level 76.4 %
Extraction speed 3.0 X
Track quality 100.0 %
Test CRC E02A42F8
Copy CRC E02A42F8
Accurately ripped (confidence 24) [C5234D0F] (AR v2)
Copy OK

Track 6 Filename L:\Various Composers - Dinastia Borgia - Chiesa e potere nel Rinascimento (Savall, Hespèrion XXI) (2010) [FLAC] {Alia Vox AVSA 9875}\Disc 2of3\06 - Josquin des Prez - Absalon fili me.wav Peak level 40.2 %
Extraction speed 3.5 X
Track quality 100.0 %
Test CRC C0CCF557
Copy CRC C0CCF557
Accurately ripped (confidence 24) [81B7C118] (AR v2)
Copy OK

Track 7 Filename L:\Various Composers - Dinastia Borgia - Chiesa e potere nel Rinascimento (Savall, Hespèrion XXI) (2010) [FLAC] {Alia Vox AVSA 9875}\Disc 2of3\07 - Anonymous - Un cavalier di Spagna.wav Peak level 85.4 %
Extraction speed 3.9 X
Track quality 100.0 %
Test CRC FFB34F2D
Copy CRC FFB34F2D
Accurately ripped (confidence 24) 733875B (AR v2)
Copy OK

Track 8 Filename L:\Various Composers - Dinastia Borgia - Chiesa e potere nel Rinascimento (Savall, Hespèrion XXI) (2010) [FLAC] {Alia Vox AVSA 9875}\Disc 2of3\08 - La Capella Reial de Caytalunya, Hesperion XXI - Tamburi e campagne - Fortuna desperata.wav Peak level 71.0 %
Extraction speed 2.9 X
Track quality 100.0 %
Test CRC 0CFF9091
Copy CRC 0CFF9091
Accurately ripped (confidence 24) [693166C4] (AR v2)
Copy OK

Track 9 Filename L:\Various Composers - Dinastia Borgia - Chiesa e potere nel Rinascimento (Savall, Hespèrion XXI) (2010) [FLAC] {Alia Vox AVSA 9875}\Disc 2of3\09 - Josquin des Prez - Une musque de Buscaye.wav Peak level 55.0 %
Extraction speed 3.8 X
Track quality 100.0 %
Test CRC 0DE6E3BC
Copy CRC 0DE6E3BC
Accurately ripped (confidence 24) [DEBCBBFB] (AR v2)
Copy OK

Track 10 Filename L:\Various Composers - Dinastia Borgia - Chiesa e potere nel Rinascimento (Savall, Hespèrion XXI) (2010) [FLAC] {Alia Vox AVSA 9875}\Disc 2of3\10 - Philippus de Lurano - Donna contro la mia voglia.wav Peak level 69.2 %
Extraction speed 4.0 X
Track quality 100.0 %
Test CRC 0FDC8F3F
Copy CRC 0FDC8F3F
Accurately ripped (confidence 24) [4E780B53] (AR v2)
Copy OK

Track 11 Filename L:\Various Composers - Dinastia Borgia - Chiesa e potere nel Rinascimento (Savall, Hespèrion XXI) (2010) [FLAC] {Alia Vox AVSA 9875}\Disc 2of3\11 - Juan del Enzina - Villancico- Si abra en estre baldres.wav Peak level 68.3 %
Extraction speed 2.7 X
Track quality 99.8 %
Test CRC 023C58F9
Copy CRC 023C58F9
Accurately ripped (confidence 24) [21806D07] (AR v2)
Copy OK

Track 12 Filename L:\Various Composers - Dinastia Borgia - Chiesa e potere nel Rinascimento (Savall, Hespèrion XXI) (2010) [FLAC] {Alia Vox AVSA 9875}\Disc 2of3\12 - Jacques Arcadelt-Pietro Bembo - Sonetto- Amor la tua virtute.wav Peak level 80.6 %
Extraction speed 4.1 X
Track quality 100.0 %
Test CRC A26D9555
Copy CRC A26D9555
Accurately ripped (confidence 24) [39760734] (AR v2)
Copy OK

Track 13 Filename L:\Various Composers - Dinastia Borgia - Chiesa e potere nel Rinascimento (Savall, Hespèrion XXI) (2010) [FLAC] {Alia Vox AVSA 9875}\Disc 2of3\13 - Josquin des Prez - Requiem.wav Peak level 97.0 %
Extraction speed 4.5 X
Track quality 100.0 %
Test CRC 1539630C
Copy CRC 1539630C
Accurately ripped (confidence 24) [1F86FCF4] (AR v2)
Copy OK

Track 14 Filename L:\Various Composers - Dinastia Borgia - Chiesa e potere nel Rinascimento (Savall, Hespèrion XXI) (2010) [FLAC] {Alia Vox AVSA 9875}\Disc 2of3\14 - Joan Ambrosio Dalza - Pavana alla Ferrarese.wav Peak level 79.6 %
Extraction speed 4.2 X
Track quality 100.0 %
Test CRC 74C4CC3C
Copy CRC 74C4CC3C
Accurately ripped (confidence 24) [35753D71] (AR v2)
Copy OK

Track 15 Filename L:\Various Composers - Dinastia Borgia - Chiesa e potere nel Rinascimento (Savall, Hespèrion XXI) (2010) [FLAC] {Alia Vox AVSA 9875}\Disc 2of3\15 - Pascal Bertin - Eloge de la duchesse de Ferrara.wav Peak level 54.0 %
Extraction speed 3.0 X
Track quality 99.8 %
Test CRC EE0A0406
Copy CRC EE0A0406
Accurately ripped (confidence 24) [41302E3C] (AR v2)
Copy OK

Track 16 Filename L:\Various Composers - Dinastia Borgia - Chiesa e potere nel Rinascimento (Savall, Hespèrion XXI) (2010) [FLAC] {Alia Vox AVSA 9875}\Disc 2of3\16 - Fernandez de Oviedo - Epitafio- Aqui yaze en poca tierra.wav Peak level 83.3 %
Extraction speed 4.6 X
Track quality 100.0 %
Test CRC 3F203D94
Copy CRC 3F203D94
Accurately ripped (confidence 24) [1300BE13] (AR v2)
Copy OK

Track 17 Filename L:\Various Composers - Dinastia Borgia - Chiesa e potere nel Rinascimento (Savall, Hespèrion XXI) (2010) [FLAC] {Alia Vox AVSA 9875}\Disc 2of3\17 - Castalios latices ploranda - Castalios latices ploranda.wav Peak level 70.1 %
Extraction speed 3.9 X
Track quality 99.9 %
Test CRC 219DFDE3
Copy CRC 219DFDE3
Accurately ripped (confidence 24) [E04E22C4] (AR v2)
Copy OK

Track 18 Filename L:\Various Composers - Dinastia Borgia - Chiesa e potere nel Rinascimento (Savall, Hespèrion XXI) (2010) [FLAC] {Alia Vox AVSA 9875}\Disc 2of3\18 - Josquin des Prez - Agnus Dei (Missa Hercules Rex).wav Peak level 86.1 %
Extraction speed 4.1 X
Track quality 99.9 %
Test CRC A4966520
Copy CRC A4966520
Accurately ripped (confidence 24) [76C552C5] (AR v2)
Copy OK

Track 19 Filename L:\Various Composers - Dinastia Borgia - Chiesa e potere nel Rinascimento (Savall, Hespèrion XXI) (2010) [FLAC] {Alia Vox AVSA 9875}\Disc 2of3\19 - Jordi Savall - Fanfarria.wav Peak level 98.7 %
Extraction speed 4.3 X
Track quality 100.0 %
Test CRC 0F90EA50
Copy CRC 0F90EA50
Accurately ripped (confidence 24) [F73D78D5] (AR v2)
Copy OK

Track 20 Filename L:\Various Composers - Dinastia Borgia - Chiesa e potere nel Rinascimento (Savall, Hespèrion XXI) (2010) [FLAC] {Alia Vox AVSA 9875}\Disc 2of3\20 - Anonymous - Il Canto della Sibilla Valenciana.wav Peak level 70.0 %
Extraction speed 6.0 X
Track quality 100.0 %
Test CRC E9707D99
Copy CRC E9707D99
Accurately ripped (confidence 20) [98F861DA] (AR v2)
Copy OK

All tracks accurately ripped

No errors occurred

End of status report

==== Log checksum 89F1D376090F0094ADA0D4EAA403027A3CBEDF84FF128399AC326E107FC27D8F ====

Exact Audio Copy V1.0 beta 3 from 29. August 2011

EAC extraction logfile from 12. December 2013, 17:43

- / Dinastia Borgia - Chiesa e potere nel Rinascimento

Used drive : Optiarc DVD RW AD-5280S Adapter: 2 ID: 1

Read mode : Secure
Utilize accurate stream : Yes
Defeat audio cache : Yes
Make use of C2 pointers : No

Read offset correction

: 48
Overread into Lead-In and Lead-Out : No
Fill up missing offset samples with silence : Yes
Delete leading and trailing silent blocks : No
Null samples used in CRC calculations : Yes
Used interface
: Native Win32 interface for Win NT & 2000
Gap handling
: Appended to previous track

Used output format : User Defined Encoder
Selected bitrate : 768 kBit/s
Quality : High
Add ID3 tag : No
Command line compressor : C:\Program Files\Exact Audio Copy\FLAC\FLAC.EXE
Additional command line options : -8 -V -T "ARTIST=%artist%" -T "TITLE=%title%" -T "ALBUM=%albumtitle%" -T "DATE=%year%" -T "TRACKNUMBER=%tracknr%" -T "TOTALTRACKS=%numtracks%" -T "GENRE=%genre%" -T "ALBUMARTIST=%albumartist%" -T "ALBUM ARTIST=%albumartist%" -T "COMMENT=EAC Secure Mode, Test & Copy, AccurateRip, FLAC -8" %source%

TOC of the extracted CD Track | Start | Length | Start sector | End sector
--1 | 0:00.00 | 2:02.24 | 0 | 9173 2 | 2:02.24 | 2:07.54 | 9174 | 18752 3 | 4:10.03 | 3:49.16 | 18753 | 35943 4 | 7:59.19 | 1:46.37 | 35944 | 43930 5 | 9:45.56 | 5:39.22 | 43931 | 69377 6 | 15:25.03 | 2:08.15 | 69378 | 78992 7 | 17:33.18 | 2:24.46 | 78993 | 89838 8 | 19:57.64 | 2:43.14 | 89839 | 102077 9 | 22:41.03 | 6:27.43 | 102078 | 131145
10 | 29:08.46 | 2:21.62 | 131146 | 141782
11 | 31:30.33 | 5:41.01 | 141783 | 167358
12 | 37:11.34 | 1:32.53 | 167359 | 174311
13 | 38:44.12 | 7:47.31 | 174312 | 209367
14 | 46:31.43 | 1:10.67 | 209368 | 214684
15 | 47:42.35 | 2:45.30 | 214685 | 227089
16 | 50:27.65 | 3:29.42 | 227090 | 242806
17 | 53:57.32 | 1:06.45 | 242807 | 247801
18 | 55:04.02 | 3:46.30 | 247802 | 264781
19 | 58:50.32 | 1:40.39 | 264782 | 272320
20 | 60:30.71 | 5:29.73 | 272321 | 297068
21 | 66:00.69 | 4:18.02 | 297069 | 316420
22 | 70:18.71 | 5:21.70 | 316421 | 340565

Track 1 Filename L:\Various Composers - Dinastia Borgia - Chiesa e potere nel Rinascimento\Disc 3of3\01 - Lluis del Mila - Fantasia I.wav Pre-gap length 0:00:02.00 Peak level 45.6 %
Extraction speed 2.2 X
Track quality 100.0 %
Test CRC C829EB3A
Copy CRC C829EB3A
Accurately ripped (confidence 25) [E768F3B0] (AR v2)
Copy OK

Track 2 Filename L:\Various Composers - Dinastia Borgia - Chiesa e potere nel Rinascimento\Disc 3of3\02 - Clement Janequin - Tielman Susato - La Batalla.wav Peak level 75.4 %
Extraction speed 2.4 X
Track quality 100.0 %
Test CRC 19B9C844
Copy CRC 19B9C844
Accurately ripped (confidence 25) [8A3BBF4C] (AR v2)
Copy OK

Track 3 Filename L:\Various Composers - Dinastia Borgia - Chiesa e potere nel Rinascimento\Disc 3of3\03 - Josquin des Prez - Motet- Proch dolor.wav Peak level 99.1 %
Extraction speed 2.9 X
Track quality 100.0 %
Test CRC 2F710D06
Copy CRC 2F710D06
Accurately ripped (confidence 25) [99AA4657] (AR v2)
Copy OK

Track 4 Filename L:\Various Composers - Dinastia Borgia - Chiesa e potere nel Rinascimento\Disc 3of3\04 - Mateu Flecha - La guerra- Todos los buenos soldados.wav Peak level 65.0 %
Extraction speed 2.6 X
Track quality 100.0 %
Test CRC 99426B5E
Copy CRC 99426B5E
Accurately ripped (confidence 25) [AE4D8F87] (AR v2)
Copy OK

Track 5 Filename L:\Various Composers - Dinastia Borgia - Chiesa e potere nel Rinascimento\Disc 3of3\05 - Lluis del Mila - Fantasia II.wav Peak level 47.9 %
Extraction speed 3.1 X
Track quality 99.9 %
Test CRC 817D59D0
Copy CRC 817D59D0
Accurately ripped (confidence 25) [1AE564C0] (AR v2)
Copy OK

Track 6 Filename L:\Various Composers - Dinastia Borgia - Chiesa e potere nel Rinascimento\Disc 3of3\06 - Bartomeu Carceres - Tau garco la durundena.wav Peak level 98.4 %
Extraction speed 3.1 X
Track quality 100.0 %
Test CRC BC038A50
Copy CRC BC038A50
Accurately ripped (confidence 25) [E0BB0AE5] (AR v2)
Copy OK

Track 7 Filename L:\Various Composers - Dinastia Borgia - Chiesa e potere nel Rinascimento\Disc 3of3\07 - Anonymous - Meis olhos van por lo mare.wav Peak level 82.4 %
Extraction speed 3.3 X
Track quality 100.0 %
Test CRC 4FDE6CED
Copy CRC 4FDE6CED
Accurately ripped (confidence 25) [156639E2] (AR v2)
Copy OK

Track 8 Filename L:\Various Composers - Dinastia Borgia - Chiesa e potere nel Rinascimento\Disc 3of3\08 - Garcilaso de la Vega - Egloga III (1536) Aquella voluntad honesta y pura.wav Peak level 61.1 %
Extraction speed 3.5 X
Track quality 100.0 %
Test CRC D16765FB
Copy CRC D16765FB
Accurately ripped (confidence 25) [938B630C] (AR v2)
Copy OK

Track 9 Filename L:\Various Composers - Dinastia Borgia - Chiesa e potere nel Rinascimento\Disc 3of3\09 - Cristobal de Morales - Jubilate Deo omnis terra.wav Peak level 76.6 %
Extraction speed 4.1 X
Track quality 100.0 %
Test CRC 4E045180
Copy CRC 4E045180
Accurately ripped (confidence 25) [DACF9075] (AR v2)
Copy OK

Track 10 Filename L:\Various Composers - Dinastia Borgia - Chiesa e potere nel Rinascimento\Disc 3of3\10 - Juan Roman - Pavana ''O voy''.wav Peak level 94.9 %
Extraction speed 3.7 X
Track quality 100.0 %
Test CRC 977C08C4
Copy CRC 977C08C4
Accurately ripped (confidence 25) [F61DF672] (AR v2)
Copy OK

Track 11 Filename L:\Various Composers - Dinastia Borgia - Chiesa e potere nel Rinascimento\Disc 3of3\11 - Francesc Borja - Credo in unum Deum.wav Peak level 93.1 %
Extraction speed 4.4 X
Track quality 100.0 %
Test CRC F80C3ECF
Copy CRC F80C3ECF
Accurately ripped (confidence 25) [4CEC4A97] (AR v2)
Copy OK

Track 12 Filename L:\Various Composers - Dinastia Borgia - Chiesa e potere nel Rinascimento\Disc 3of3\12 - Venegas de Henestrosa - Kyrie I.wav Peak level 29.4 %
Extraction speed 3.6 X
Track quality 100.0 %
Test CRC B2C6FC38
Copy CRC B2C6FC38
Accurately ripped (confidence 25) [ADC5BAB3] (AR v2)
Copy OK

Track 13 Filename L:\Various Composers - Dinastia Borgia - Chiesa e potere nel Rinascimento\Disc 3of3\13 - Teresa de Jesus - Alma buscarte has en mi.wav Peak level 99.0 %
Extraction speed 4.5 X
Track quality 99.9 %
Test CRC 20607A8E
Copy CRC 20607A8E
Accurately ripped (confidence 25) [41C5A9F2] (AR v2)
Copy OK

Track 14 Filename L:\Various Composers - Dinastia Borgia - Chiesa e potere nel Rinascimento\Disc 3of3\14 - Cristobal de Morales - Lachrimosa dies illa.wav Peak level 90.6 %
Extraction speed 3.6 X
Track quality 100.0 %
Test CRC 516C3FE4
Copy CRC 516C3FE4
Accurately ripped (confidence 25) [4FC78E25] (AR v2)
Copy OK

Track 15 Filename L:\Various Composers - Dinastia Borgia - Chiesa e potere nel Rinascimento\Disc 3of3\15 - Josquin des Prez - Luys Narvaez - Mille regrets.wav Peak level 67.8 %
Extraction speed 4.5 X
Track quality 100.0 %
Test CRC DDED7583
Copy CRC DDED7583
Accurately ripped (confidence 25) [4F8E3ABC] (AR v2)
Copy OK

Track 16 Filename L:\Various Composers - Dinastia Borgia - Chiesa e potere nel Rinascimento\Disc 3of3\16 - N. Neyalkov, H. Sarikouyomdjian, G. Mouradian... - Improvvisazione....wav Peak level 76.8 %
Extraction speed 4.8 X
Track quality 100.0 %
Test CRC E97EFA87
Copy CRC E97EFA87
Accurately ripped (confidence 25) [3166DA1E] (AR v2)
Copy OK

Track 17 Filename L:\Various Composers - Dinastia Borgia - Chiesa e potere nel Rinascimento\Disc 3of3\17 - Anonymous - Fanfarra.wav Peak level 90.0 %
Extraction speed 3.7 X
Track quality 100.0 %
Test CRC 0AE8561F
Copy CRC 0AE8561F
Accurately ripped (confidence 25) [155F49A8] (AR v2)
Copy OK

Track 18 Filename L:\Various Composers - Dinastia Borgia - Chiesa e potere nel Rinascimento\Disc 3of3\18 - Claude Goudimel - Salmo 35- Deba contre mes debateurs.wav Peak level 96.9 %
Extraction speed 4.4 X
Track quality 99.9 %
Test CRC 360CBB03
Copy CRC 360CBB03
Accurately ripped (confidence 25) [9FCCB37D] (AR v2)
Copy OK

Track 19 Filename L:\Various Composers - Dinastia Borgia - Chiesa e potere nel Rinascimento\Disc 3of3\19 - Cristobal de Morales - Requiem- Pie Jesu Domine.wav Peak level 99.6 %
Extraction speed 4.3 X
Track quality 100.0 %
Test CRC B22DE4B8
Copy CRC B22DE4B8
Accurately ripped (confidence 25) [7B8484D0] (AR v2)
Copy OK

Track 20 Filename L:\Various Composers - Dinastia Borgia - Chiesa e potere nel Rinascimento\Disc 3of3\20 - Francisco Rojas - El Rey y por S.M. Don Luis Carrillo - Foglio 34....wav Peak level 94.0 %
Extraction speed 5.0 X
Track quality 99.9 %
Test CRC C2E912E3
Copy CRC C2E912E3
Accurately ripped (confidence 25) [598971B4] (AR v2)
Copy OK

Track 21 Filename L:\Various Composers - Dinastia Borgia - Chiesa e potere nel Rinascimento\Disc 3of3\21 - N. Neyalkov, H. Sarikouyomdjian, G. Mouradian... - Improvvisazione....wav Peak level 98.7 %
Extraction speed 5.5 X
Track quality 100.0 %
Test CRC 1E41E279
Copy CRC 1E41E279
Accurately ripped (confidence 25) [2ABCA3F8] (AR v2)
Copy OK

Track 22 Filename L:\Various Composers - Dinastia Borgia - Chiesa e potere nel Rinascimento\Disc 3of3\22 - Anonymous - Joan Cabanilles - Pange Lingua gloriosi - Tiento de Pange Lingua.wav Peak level 89.3 %
Extraction speed 5.8 X
Track quality 100.0 %
Test CRC CD80B90A
Copy CRC CD80B90A
Accurately ripped (confidence 25) [C895E3E6] (AR v2)
Copy OK

All tracks accurately ripped

No errors occurred

End of status report

==== Log checksum 6FE78856877EF8509D0B671A8294F87F94A4F7E55F549A251F6657C1205587BB ====

I 21:05:45 DVD Decrypter Version 3.5.4.0 started!
I 21:05:45 Media Center Edition (6.1, Build 7601 : Service Pack 1)
I 21:05:45 Initialising SPTI...
I 21:05:45 Searching for SCSI / ATAPI devices...
I 21:05:45 Found 1 DVD±RW!
W 21:05:56 Possible Structure Protection Found!
W 21:05:56 1 area has been marked as 'suspect'.
W 21:05:56 Dummy sectors will be inserted where necessary.
I 21:06:15 Operation Started!
I 21:06:15 Source Device: [2:1:0] Optiarc DVD RW AD-5280S 1.01 (I:) (ATA)
I 21:06:15 Source Media Type: DVD-ROM
I 21:06:15 Source Media Region Code: 1; 2; 3; 4; 5; 6; 8
I 21:06:15 Source Media Copyright Protection System Type: None
I 21:06:15 Source Media Implementation Identifier: Apple Computer, Inc.
I 21:06:15 Destination File: L:\MASTER.ISO
I 21:06:15 File Splitting: None
I 21:06:15 Hardware Read Error Retries: 20
I 21:06:15 Remove Structure Protection: No
I 21:06:15 Bad Sector Removal Method: Normal
I 21:06:15 Detect Mastering Errors: No
I 21:06:15 Remove Macrovision Protection: Yes
I 21:06:15 Extracting Sectors... (LBA: 0 - 2016879)
I 21:06:15 Found IFO File: VIDEO_TS.IFO - (LBA: 304 - 311)
I 21:06:15 Found VOB File: VIDEO_TS.VOB - (LBA: 312 - 388) - KEY: N/A
I 21:06:15 Found BUP File: VIDEO_TS.BUP - (LBA: 389 - 396)
I 21:06:15 Found IFO File: VTS_01_0.IFO - (LBA: 397 - 428)
I 21:06:15 Found VOB File: VTS_01_0.VOB - (LBA: 429 - 442) - KEY: N/A
I 21:06:15 Found VOB File: VTS_01_1.VOB - (LBA: 443 - 524644) - KEY: N/A
I 21:07:50 Found VOB File: VTS_01_2.VOB - (LBA: 524645 - 672539) - KEY: N/A
I 21:08:11 Found BUP File: VTS_01_0.BUP - (LBA: 672540 - 672571)
I 21:08:11 Found IFO File: VTS_02_0.IFO - (LBA: 672572 - 672602)
I 21:08:11 Found VOB File: VTS_02_0.VOB - (LBA: 672603 - 672679) - KEY: N/A
I 21:08:11 Found VOB File: VTS_02_1.VOB - (LBA: 672680 - 1196881) - KEY: N/A
I 21:09:17 Found VOB File: VTS_02_2.VOB - (LBA: 1196882 - 1344730) - KEY: N/A
I 21:09:34 Found BUP File: VTS_02_0.BUP - (LBA: 1344731 - 1344761)
I 21:09:34 Found IFO File: VTS_03_0.IFO - (LBA: 1344762 - 1344792)
I 21:09:34 Found VOB File: VTS_03_0.VOB - (LBA: 1344793 - 1344869) - KEY: N/A
I 21:09:34 Found VOB File: VTS_03_1.VOB - (LBA: 1344870 - 1869071) - KEY: N/A
I 21:10:29 Found VOB File: VTS_03_2.VOB - (LBA: 1869072 - 2016845) - KEY: N/A
I 21:10:43 Found BUP File: VTS_03_0.BUP - (LBA: 2016846 - 2016876)
I 21:10:43 Operation Successfully Completed! - Duration: 00:04:28
I 21:10:43 Average Read Rate: 15051 KB/s (10.9x) - Maximum Read Rate: 21390 KB/s (15.4x)

Jordi Savall & Hesperion XXI - Dinastia Borgia - Chiesa e potere nel Rinascimento (2010) [3CD+DVD] {Alia Vox}

Jordi Savall & Hesperion XXI - Dinastia Borgia - Chiesa e potere nel Rinascimento (2010) [3CD+DVD] {Alia Vox}

Jordi Savall & Hesperion XXI - Dinastia Borgia - Chiesa e potere nel Rinascimento (2010) [3CD+DVD] {Alia Vox}

Jordi Savall & Hesperion XXI - Dinastia Borgia - Chiesa e potere nel Rinascimento (2010) [3CD+DVD] {Alia Vox}

Jordi Savall & Hesperion XXI - Dinastia Borgia - Chiesa e potere nel Rinascimento (2010) [3CD+DVD] {Alia Vox}

Jordi Savall & Hesperion XXI - Dinastia Borgia - Chiesa e potere nel Rinascimento (2010) [3CD+DVD] {Alia Vox}


All thanks goes to the original releaser!
DOWNLOAD:
Buy Premium From My Links To Get Resumable Support & Max Speed & To Support Me

Rapidgator.net:
qa7cf.savalldinastiaborgiaARTWORK.part1.rar.html
qa7cf.savalldinastiaborgiaARTWORK.part2.rar.html
qa7cf.savalldinastiaborgiaARTWORK.part3.rar.html
qa7cf.savalldinastiaborgiaARTWORK.part4.rar.html
qa7cf.savalldinastiaborgiaARTWORK.part5.rar.html
qa7cf.savalldinastiaborgiaCD1.part1.rar.html
qa7cf.savalldinastiaborgiaCD1.part2.rar.html
qa7cf.savalldinastiaborgiaCD1MP.rar.html
qa7cf.savalldinastiaborgiaCD2.part1.rar.html
qa7cf.savalldinastiaborgiaCD2.part2.rar.html
qa7cf.savalldinastiaborgiaCD2MP.rar.html
qa7cf.savalldinastiaborgiaCD3.part1.rar.html
qa7cf.savalldinastiaborgiaCD3.part2.rar.html
qa7cf.savalldinastiaborgiaCD3MP.rar.html
qa7cf.savalldinastiaborgiaDVD.part01.rar.html
qa7cf.savalldinastiaborgiaDVD.part02.rar.html
qa7cf.savalldinastiaborgiaDVD.part03.rar.html
qa7cf.savalldinastiaborgiaDVD.part04.rar.html
qa7cf.savalldinastiaborgiaDVD.part05.rar.html
qa7cf.savalldinastiaborgiaDVD.part06.rar.html
qa7cf.savalldinastiaborgiaDVD.part07.rar.html
qa7cf.savalldinastiaborgiaDVD.part08.rar.html
qa7cf.savalldinastiaborgiaDVD.part09.rar.html
qa7cf.savalldinastiaborgiaDVD.part10.rar.html

Uploaded.net:
qa7cf.savalldinastiaborgiaARTWORK.part1.rar
qa7cf.savalldinastiaborgiaARTWORK.part2.rar
qa7cf.savalldinastiaborgiaARTWORK.part3.rar
qa7cf.savalldinastiaborgiaARTWORK.part4.rar
qa7cf.savalldinastiaborgiaARTWORK.part5.rar
qa7cf.savalldinastiaborgiaCD1.part1.rar
qa7cf.savalldinastiaborgiaCD1.part2.rar
qa7cf.savalldinastiaborgiaCD1MP.rar
qa7cf.savalldinastiaborgiaCD2.part1.rar
qa7cf.savalldinastiaborgiaCD2.part2.rar
qa7cf.savalldinastiaborgiaCD2MP.rar
qa7cf.savalldinastiaborgiaCD3.part1.rar
qa7cf.savalldinastiaborgiaCD3.part2.rar
qa7cf.savalldinastiaborgiaCD3MP.rar
qa7cf.savalldinastiaborgiaDVD.part01.rar
qa7cf.savalldinastiaborgiaDVD.part02.rar
qa7cf.savalldinastiaborgiaDVD.part03.rar
qa7cf.savalldinastiaborgiaDVD.part04.rar
qa7cf.savalldinastiaborgiaDVD.part05.rar
qa7cf.savalldinastiaborgiaDVD.part06.rar
qa7cf.savalldinastiaborgiaDVD.part07.rar
qa7cf.savalldinastiaborgiaDVD.part08.rar
qa7cf.savalldinastiaborgiaDVD.part09.rar
qa7cf.savalldinastiaborgiaDVD.part10.rar

Uploadable.ch:
qa7cf.savalldinastiaborgiaARTWORK.part1.rar
qa7cf.savalldinastiaborgiaARTWORK.part2.rar
qa7cf.savalldinastiaborgiaARTWORK.part3.rar
qa7cf.savalldinastiaborgiaARTWORK.part4.rar
qa7cf.savalldinastiaborgiaARTWORK.part5.rar
qa7cf.savalldinastiaborgiaCD1.part1.rar
qa7cf.savalldinastiaborgiaCD1.part2.rar
qa7cf.savalldinastiaborgiaCD1MP.rar
qa7cf.savalldinastiaborgiaCD2.part1.rar
qa7cf.savalldinastiaborgiaCD2.part2.rar
qa7cf.savalldinastiaborgiaCD2MP.rar
qa7cf.savalldinastiaborgiaCD3.part1.rar
qa7cf.savalldinastiaborgiaCD3.part2.rar
qa7cf.savalldinastiaborgiaCD3MP.rar
qa7cf.savalldinastiaborgiaDVD.part01.rar
Mirror Links

Direct Download

Tags: Savall, Hesperion, Dinastia, Borgia, Chiesa, potere, Rinascimento

Jordi Savall & Hesperion XXI - Dinastia Borgia - Chiesa e potere nel Rinascimento (2010) [3CD+DVD] {Alia Vox} Download via Hotfile Rapidshare Fileserve Megaupload & FileSonic, Jordi Savall & Hesperion XXI - Dinastia Borgia - Chiesa e potere nel Rinascimento (2010) [3CD+DVD] {Alia Vox} free torrent downloads included crack, serial, keygen.


Attention!Information

Members of Guest cannot leave comments.