Gus G. - Brand New Revolution (2015)

Download Now

Gus G. - Brand New Revolution (2015)

Gus G. - Brand New Revolution (2015)
EAC Rip | FLAC (Img) + Cue + Log ~ 358 Mb | MP3 CBR320 ~ 138 Mb
Scans Included (JPG, 600 dpi) | RAR 5% Recovery
Heavy Metal | Century Media Records #9985838

"Firewind / Ozzy Osbourne guitarist GUS G. returns with a fantastic second solo album! Fans of Slash, Halestorm & Avenged Sevenfold will love this! Features vocals by Jacob Bunton (Adler, Lynam), Mats Leven (Candlemass, ex Yngwie Malmsteen), Jeff Scott Soto (Trans-Siberian Orchesta, ex Journey) and Elize Ryd (Amaranthe), as well as Marty O Brien (Lita Ford) on bass and Jo Nunez (Firewind) on drums Recorded by Jay Ruston (Stone Sour, Anthrax, Steel Panther) and mixed by Mike Fraser (Aerosmith, Metallica, AC/DC)."

Official Website | Wiki | Discogs | All Music
***************

Gus G. - Brand New Revolution (2015)

Track List:

01. The Quest [04:28]
02. Brand New Revolution [03:22]
03. Burn [02:58]
04. We are One [04:00]
05. What Lies Below [04:00]
06. Behind Those Eyes [03:57]
07. Gone To Stay [03:22]
08. One More Try [03:47]
09. Come Hell Or High Water [03:12]
10. If it ends today [03:02]
11. Generation G [03:09]
12. Demon Inside [05:22]

Exact Audio Copy V1.0 beta 4 from 7. December 2014

EAC extraction logfile from 24. July 2015, 14:05

Gus G / Brand New Revoution

Used drive : HL-DT-STDVDRAM GU40N Adapter: 0 ID: 1

Read mode : Secure
Utilize accurate stream : Yes
Defeat audio cache : Yes
Make use of C2 pointers : No

Read offset correction

: 103
Overread into Lead-In and Lead-Out : No
Fill up missing offset samples with silence : Yes
Delete leading and trailing silent blocks : No
Null samples used in CRC calculations : Yes
Used interface
: Installed external ASPI interface

Used output format : User Defined Encoder
Selected bitrate : 128 kBit/s
Quality : High
Add ID3 tag : No
Command line compressor : C:\Program Files (x86)\AudioConverter\AudioConverter.exe
Additional command line options : FLAC

TOC of the extracted CD Track | Start | Length | Start sector | End sector
--1 | 0:00.00 | 4:28.00 | 0 | 20099 2 | 4:28.00 | 3:21.46 | 20100 | 35220 3 | 7:49.46 | 2:57.25 | 35221 | 48520 4 | 10:46.71 | 3:59.42 | 48521 | 66487 5 | 14:46.38 | 3:59.61 | 66488 | 84473 6 | 18:46.24 | 3:56.01 | 84474 | 102174 7 | 22:42.25 | 3:21.24 | 102175 | 117273 8 | 26:03.49 | 3:46.67 | 117274 | 134290 9 | 29:50.41 | 3:11.22 | 134291 | 148637
10 | 33:01.63 | 3:01.41 | 148638 | 162253
11 | 36:03.29 | 3:08.46 | 162254 | 176399
12 | 39:12.00 | 5:21.31 | 176400 | 200505

Range status and errors

Selected range Filename C:\Users\workutagin\Desktop\Gus G. - Brand New Revolution 2015\Gus G - Brand New Revoution.wav Peak level 98.8 %
Extraction speed 2.0 X
Range quality 100.0 %
Test CRC 5B454FE7
Copy CRC 5B454FE7
Copy OK

No errors occurred


AccurateRip summary

Track 1 not present in database
Track 2 not present in database
Track 3 not present in database
Track 4 not present in database
Track 5 not present in database
Track 6 not present in database
Track 7 not present in database
Track 8 not present in database
Track 9 not present in database
Track 10 not present in database
Track 11 not present in database
Track 12 not present in database

None of the tracks are present in the AccurateRip database

End of status report

==== Log checksum C2978E3E99B6BBC0A29207B205BE355A878E06D357C68FA60734706B6583E037 ====

foobar2000 1.2.6 / Dynamic Range Meter 1.1.1
log date: 2015-07-24 19:11:19

Analyzed: Gus G / Brand New Revoution

DR Peak RMS Duration Track

DR7 -0.10 dB -9.71 dB 4:28 01-The Quest
DR7 -0.10 dB -8.64 dB 3:22 02-Brand New Revolution
DR7 -0.10 dB -8.01 dB 2:57 03-Burn
DR6 -0.10 dB -7.60 dB 4:00 04-We are One
DR7 -0.10 dB -8.98 dB 4:00 05-What Lies Below
DR7 -0.10 dB -9.98 dB 3:56 06-Behind Those Eyes
DR7 -0.10 dB -8.09 dB 3:21 07-Gone To Stay
DR8 -0.10 dB -9.36 dB 3:47 08-One More Try
DR6 -0.10 dB -7.41 dB 3:11 09-Come Hell Or High Water
DR6 -0.10 dB -8.21 dB 3:02 10-If it ends today
DR7 -0.10 dB -8.09 dB 3:09 11-Generation G
DR7 -0.10 dB -8.98 dB 5:21 12-Demon Inside

Number of tracks: 12
Official DR value: DR7

Samplerate: 44100 Hz
Channels: 2
Bits per sample: 16
Bitrate: 977 kbps
Codec: FLAC

[CUETools log; Date: 24.07.2015 19:11:11; Version: 2.1.5]
[CTDB TOCID: LlpWNSwlz2SyFQsLsjPaOXII0ck-] disk not present in database.
[AccurateRip ID: 0013c7d6-00b7a6ec-b00a710c] disk not present in database.

Track Peak [ CRC32 ] [W/O NULL] [ LOG ]
-- 98,8 [5B454FE7] [2992DD2E] CRC32
01 98,8 [FFF6CF66] [73CB2F5A]
02 98,8 [AE763DC6] [F20D8778]
03 98,8 [6D4848A8] [9571CE42]
04 98,8 [7DF6C20F] [96CF64A6]
05 98,8 [59DF53CC] [6B4F5021]
06 98,8 [5474C1CE] [FE70FFE6]
07 98,8 [D6BA1469] [296D0D9C]
08 98,8 [9FB33A4C] [7F3CD4B6]
09 98,8 [8C60386B] [4A40D6C4]
10 98,8 [2E21D68A] [4BBBBAD7]
11 98,8 [35A57225] [0BA31C37]
12 98,8 [8D3FA2E8] [2B3A9583]

Gus G. - Brand New Revolution (2015)



DOWNLOAD LINKS:
Buy Premium To Support Me & Get Resumable Support & Max Speed


Links are Interchangeable - No Password - Single Extraction

Direct Download

Tags: Revolution

Gus G. - Brand New Revolution (2015) Download via Hotfile Rapidshare Fileserve Megaupload & FileSonic, Gus G. - Brand New Revolution (2015) free torrent downloads included crack, serial, keygen.


Attention!Information

Members of Guest cannot leave comments.