Forcefield - Forcefield (1987)

Download Now

Forcefield - Forcefield (1987)

Forcefield - Forcefield (1987)
Rock | 1cd | EAC Rip | Ape + Cue + Log | covers
President PCOM 1088 | rel: 1987 | 330Mb

Formed in 1987, Forcefield's ever-changing line-up brought together the mainstays of some of the biggest 80s rock bands. The original members were Pete Prescott, Ray Fenwick and Cozy Powell. Amongst guitarist Fenwick's credits were The Spencer Davis Group, Fancy and The Ian Gillan Band, while drummer Powell had been a key figure in bands of the calibre of Black Sabbath, Rainbow and Whitesnake and is widely regarded as an all-time rock great.
Prescott completed the line-up fresh from a stint as lead vocalist of Sergent. The debut album Forcefield consisted of reworked rock standards such as Deep Purple's Smoke On The Water, The Kinks' Set Me Free and Cream's Sunshine of Your Love mixed with a selection of original material and attracted a cult following. ~President Records

Track listing
01. Set Me Free (3:52)
02. Best Shot (3:50)
03. Runaway (4:18)
04. Sunshine Of Your Love (4:22)
05. Shine It On Me (3:41)
06. Whole Lotta Love (5:19)
07. Black Cat (4:19)
08. White Room (4:10)
09. You Really Got Me (3:17)
10. Fire In The City (2:58)
11. Keep On Running (3:21)
12. Smoke On The Water (7:10)
~ (50:37)

Personnel
- Ray Fenwick guitars, keyboards
- Cozy Powell drums
- Pete Prescott lead vocals
- Mo Foster bass
- Nick Magnus keyboards
- Barry St. John backing vocals

EAC extraction logfile from 25. March 2006, 12:31 for CD
Forcefield / Forcefield

Used drive : BENQ DVD DD DW1620 Adapter: 1 ID: 0
Read mode : Secure with NO C2, accurate stream, disable cache
Read offset correction : 618
Overread into Lead-In and Lead-Out : No

Used output format : Internal WAV Routines 44.100 Hz; 16 Bit; Stereo

Other options :
Fill up missing offset samples with silence : Yes
Delete leading and trailing silent blocks : No
Installed external ASPI interface

Range status and errors
Selected range
Filename D:\flogger77\CDImage.wav Peak level 95.5 %
Range quality 100.0 %
CRC C7C3F810
Copy OK

No errors occured

End of status report

[CUETools log; Date: 2015.07.27. 12:37:12; Version: 2.1.5]
Pregap length 00:00:25.
[CTDB TOCID: cMMu3GQMoRE7Yokt5Czr3FJMI8A-] found.
Track | CTDB Status
1 | (1/1) Accurately ripped
2 | (1/1) Accurately ripped
3 | (1/1) Accurately ripped
4 | (1/1) Accurately ripped
5 | (1/1) Accurately ripped
6 | (1/1) Accurately ripped
7 | (1/1) Differs in 1 samples @00:19:54
8 | (1/1) Accurately ripped
9 | (1/1) Accurately ripped
10 | (1/1) Accurately ripped
11 | (1/1) Accurately ripped
12 | (1/1) Accurately ripped
[AccurateRip ID: 0015fe11-00cd8a1e-8f0bdd0c] found.
Track [ CRC | V2 ] Status
01 7f5cc26|9f262fee (2+0/2) Accurately ripped
02 [28c756d3|a08c5a1f] (2+0/2) Accurately ripped
03 [1cb21128|18082cc5] (2+0/2) Accurately ripped
04 [97d976ef|2d3674b1] (2+0/2) Accurately ripped
05 [1f1ecaf7|d6d5e245] (2+0/2) Accurately ripped
06 [f5cd45a9|6d220518] (2+0/2) Accurately ripped
07 [2c043cec|048b2c93] (0+0/2) No match
08 [3f900836|0aa329d6] (2+0/2) Accurately ripped
09 [a9b36159|3b507e1e] (2+0/2) Accurately ripped
10 [e89c70c9|a3cb462f] (2+0/2) Accurately ripped
11 [51c8e13e|fda9532a] (2+0/2) Accurately ripped
12 [886dcea0|f4ccd325] (2+0/2) Accurately ripped

Track Peak [ CRC32 ] [W/O NULL] [ LOG ]
-- 95,5 [30E7CFD5] [0222D5F5] [C7C3F810]
01 83,8 [1B86CEB3] [246F643D]
02 89,0 [C5E53323] [4F247770]
03 95,5 [6AE7DBD8] [65FCB33E]
04 95,5 [4493AF30] [2B88B85B]
05 92,0 [70FE7039] [F1834BA8]
06 95,5 [8FA26706] [625BEE11]
07 70,0 [C37950C2] [D5EC0581]
08 93,6 [7D711A74] [F44D2783]
09 83,6 [42935EFF] [153C3C77]
10 75,7 [EB9B8661] [3F1D2528]
11 82,4 [8D38BAC1] [996FA749]
12 70,0 [ED89D07A] [675BA0D1]

Thx to flogger77

password: asd
(All below links are interchangable. No password)
Buy Premium To Support Me & Get Resumable Support & Max Speed


Direct Download

Tags: Forcefield, Forcefield

Forcefield - Forcefield (1987) Download via Hotfile Rapidshare Fileserve Megaupload & FileSonic, Forcefield - Forcefield (1987) free torrent downloads included crack, serial, keygen.


Attention!Information

Members of Guest cannot leave comments.