Cerrone - Cerrone 3: Supernature (1977) [1997, Reissue]

Download Now

Cerrone - Cerrone 3: Supernature (1977) [1997, Reissue]

Cerrone - Cerrone 3: Supernature (1977)
EAC Rip | FLAC (Img) + Cue + Log ~ 266 Mb | MP3 CBR320 ~ 110 Mb
Scans Included (JPG, 600 dpi) | RAR 5% Recovery
Disco | Unidisc Music Inc. #AGEK-2175

"Recorded during the summer of 1977, the ambitious Supernature was a surprising departure from Cerrone's two previous albums, Love in C Minor and Cerrone's Paradise. Those who expected the Parisian producer/composer/drummer to come up with another happy, sexy party record had a major surprise when they discovered that Cerrone's third album is a moody, conceptual effort that could be described as the Euro-disco equivalent of a horror or science fiction movie. But Cerrone doesn't go for pure shock value, and the lyrics are never gruesome or graphic..."

Official Website | Wiki | Discogs | All Music
***************

Cerrone - Cerrone 3: Supernature (1977) [1997, Reissue]

Track List:

01. Supernature [09:47]
02. Sweet Drums [02:48]
03. In The Smoke [05:25]
04. Give Me Love [07:43]
05. Love Is Here [02:09]
06. Love Is The Answer [06:02]

Exact Audio Copy V1.0 beta 3 from 29. August 2011

Отчёт EAC об извлечении, выполненном 25. января 2014, 22:28

Cerrone / Supernature

Дисковод: PIONEER DVD-RW DVR-118L Adapter: 0 ID: 0

Режим чтения : Достоверность
Использование точного потока : Да
Отключение кэша аудио : Да
Использование указателей C2 : Нет

Коррекция смещения при чтении : 6
Способность читать области Lead-in и Lead-out : Нет
Заполнение пропущенных сэмплов тишиной : Да
Удаление блоков с тишиной в начале и конце : Нет
При вычислениях CRC использовались нулевые сэмплы : Да
Интерфейс : Установленный внешний ASPI-интерфейс

Выходной формат : Внутренние WAV-операции
Формат сэмплов : 44.100 Гц; 16 бит; стерео

TOC извлечённого CD Трек | Старт | Длительность | Начальный сектор | Конечный сектор

1 | 0:00.00 | 9:46.22 | 0 | 43971
2 | 9:46.22 | 2:48.00 | 43972 | 56571
3 | 12:34.22 | 5:24.08 | 56572 | 80879
4 | 17:58.30 | 7:42.22 | 80880 | 115551
5 | 25:40.52 | 2:09.00 | 115552 | 125226
6 | 27:49.52 | 6:01.45 | 125227 | 152346

Характеристики диапазона извлечения и сообщения об ошибках

Выбранный диапазон Имя файла D:\music\Rip by moote\Cerrone - Supernature.wav Пиковый уровень 94.4 %
Скорость извлечения 1.6 X
Качество диапазона 100.0 %
CRC теста 6A3421AE
CRC копии 6A3421AE
Копирование... OK

Ошибок не произошло


AccurateRip: сводка

Трек 1 : извлечено точно (доверие 5) [2A599177] (AR v2)
Трек 2 : извлечено точно (доверие 5) [FD9AEF09] (AR v2)
Трек 3 : извлечено точно (доверие 5) [A44D319A] (AR v2)
Трек 4 : извлечено точно (доверие 5) [606941BD] (AR v2)
Трек 5 : извлечено точно (доверие 5) [70AB85AE] (AR v2)
Трек 6 : извлечено точно (доверие 5) [466049D5] (AR v2)

Все треки извлечены точно

Конец отчёта

==== Контрольная сумма отчёта 63731BF23B75CE054A69B2079A6096BC37BC022F0EF0642A7666BC3E4A5CF5A9 ====

foobar2000 1.2.6 / Dynamic Range Meter 1.1.1
log date: 2015-07-29 18:13:36

Analyzed: Cerrone / Supernature

DR Peak RMS Duration Track

DR11 -0.50 dB -12.63 dB 9:46 01-Supernature
DR11 -0.50 dB -12.71 dB 2:48 02-Sweet Drums
DR10 -1.76 dB -15.26 dB 5:24 03-In The Smoke
DR12 -0.50 dB -13.08 dB 7:42 04-Give Me Love
DR10 -0.50 dB -11.66 dB 2:09 05-Love Is Here
DR11 -0.50 dB -11.84 dB 6:02 06-Love Is The Answer

Number of tracks: 6
Official DR value: DR11

Samplerate: 44100 Hz
Channels: 2
Bits per sample: 16
Bitrate: 933 kbps
Codec: FLAC

[CUETools log; Date: 29.07.2015 21:26:09; Version: 2.1.5]
[CTDB TOCID: o_A7jSol_owVBhFtACH9l5bSnbA-] found.
Track | CTDB Status
1 | (3/3) Accurately ripped
2 | (3/3) Accurately ripped
3 | (3/3) Accurately ripped
4 | (3/3) Accurately ripped
5 | (3/3) Accurately ripped
6 | (3/3) Accurately ripped
[AccurateRip ID: 0008c456-002d6bdc-4d07ef06] found.
Track [ CRC | V2 ] Status
01 [5aa63a87|2a599177] (09+06/15) Accurately ripped
02 [ec09f25a|fd9aef09] (09+06/15) Accurately ripped
03 [2ec2b1ce|a44d319a] (09+06/15) Accurately ripped
04 [972a877d|606941bd] (09+06/15) Accurately ripped
05 [4cff3b9d|70ab85ae] (09+06/15) Accurately ripped
06 [f9e3854f|466049d5] (09+06/15) Accurately ripped

Track Peak [ CRC32 ] [W/O NULL] [ LOG ]
-- 94,4 [6A3421AE] [A6E6F7F1] CRC32
01 94,4 [4FDA487D] [486B3051]
02 94,4 [17275CE8] [9ECC8045]
03 81,7 [738E577E] [574B80D4]
04 94,4 500FF47 [95A39133]
05 94,4 [F7A46AB5] [165A1257]
06 94,4 [DB4648D7] [12674B73]

Cerrone - Cerrone 3: Supernature (1977) [1997, Reissue]


Download Links:
(Premium Recommended)


All above links are interchangable. No password

Direct Download

Tags: Cerrone, Cerrone, Supernature, Reissue

Cerrone - Cerrone 3: Supernature (1977) [1997, Reissue] Download via Hotfile Rapidshare Fileserve Megaupload & FileSonic, Cerrone - Cerrone 3: Supernature (1977) [1997, Reissue] free torrent downloads included crack, serial, keygen.


#1 | Author: iceman666 | 3 August 2015 02:33
Cool...trying to track this one down...thanks

Attention!Information

Members of Guest cannot leave comments.