Various Artists - Old School Soul Party (2005) [4CD Set] {Shout! Factory}

Download Now


Various Artists - Old School Soul Party (2005) [4CD Set] {Shout! Factory}
Various Artists - Old School Soul Party (2005) [4CD Set] {Shout! Factory}
XLD rip (secure mode) | FLAC (tracks)+CUE+LOG -> 1.94 Gb | MP3 @320 -> 690 Mb
Full Artwork @ 300 dpi (jpg) -> 380 Mb | 5% repair rar
© 2005 Shout! Factory / TJL | DK 33717
Soul / R&B / Funk / Memphis Soul / Smooth Soul

"One can't venture very far into contemporary pop without hearing the echoes of '70s-'80's soul, funk and r&b; decades once mocked have seen their vibrant, groove-savvy music re-embraced -- often without a trace of kitsch-savvy irony. This triple-disc, 58 track collection may come anthologized with a slightly cheesy conceit--retro-party-soundtrack-in-a-box, with discs devoted to flavoring your soulful soiree's beginning, middle and end--but its potent collection of vintage, era-evoking favorites can't be denied. Disc one/"Kickin' It Off" wends its way from expected jams like Wild Cherry's "Play That Funky Music" and Gap Band's "You Dropped a Bomb on Me" through such funk-fueled grooves as James Brown's sweaty "Payback" and Donna Summer's urgent, torch-song-with-a beat "Last Dance." Disc two/"Getting' Into the Groove" does just that via Top 40 stalwarts like The Spinners, Four Tops and O'Jays, while making room for legends (Al Green, Isley Brothers) and newcomers like the Brothers Johnson and Kool & the Gang alike. The set's final act winds down into late-night sultriness via Marvin Gaye's "Sexual Heraling," Delfonics' "Didn't I Blow Your Mind," Pointer Sister's "Slow Hand" and other sexy charms."

Various Artists - Old School Soul Party (2005) [4CD Set] {Shout! Factory}

"Another entry in Shout! Factory's ongoing series of triple-CD box compilations promoted on PBS, this one is more cohesively presented. Sequenced to flow like a typical party, the discs of this predominantly '70s-era 58-track R&B collection are divided into three connected parts. Starting with the high-energy sounds of Wild Cherry's one-hit wonder "Play That Funky Music," disc one (subtitled "Kickin' It Off") continues with tough funk hits from Cameo, Rick James, Parliament, and James Brown. Mercifully dodging the disco bullet save for Donna Summer's "Last Dance," this nonstop funkathon platter is alone worth the price of admission. Adding different sounds such as the Undisputed Truth's slightly trippy "Smiling Faces Sometimes" and the Beginning of the End's tropical "Funky Nassau" successfully serves to shift the style but not the mood.

Various Artists - Old School Soul Party (2005) [4CD Set] {Shout! Factory}


Disc two ("Getting' into the Groove") lightens the groove moderately as melody and pop become more emphasized on Cheryl Lynn's "Got to Be Real," the Friends of Distinction's "Love or Let Me Be Lonely," Gene Chandler's "Groovy Situation," and Ashford & Simpson's "Solid." These are all well-chosen selections that were substantial hits, but not as ubiquitous as the Isley Brothers' "That Lady, Pts. 1-2," a tune that always seems to find its way onto '70s soul collections such as this. Disc three ("Dimmin' the Lights") moves into slow and sensual post-party fare with 19 quiet storm smooth jams from artists such as the Five Stairsteps ("O-o-h Child"), Minnie Riperton ("Lovin' You"),the Chi-Lites ("Have You Seen Her"), and Marvin Gaye ("Sexual Healing").

Various Artists - Old School Soul Party (2005) [4CD Set] {Shout! Factory}


The schlock factor is obviously higher here, but all the songs are Top Ten R&B and/or pop hits and will spark instant recognition from those this box is intended for. The remastered sound is crisp and sparkling throughout, bringing out these oldies' subtleties -- especially with percussion -- that you might not have heard before. While not definitive, the set accomplishes its mission of replaying the soundtrack to a colorful late-'70s urban shindig. More than a haphazard collection of oldies, this conceptual box boasts a well-defined focus, a unique programming flow, and of course lots of soul."


Various Artists - Old School Soul Party (2005) [4CD Set] {Shout! Factory}


Tracklist:
CD1

01 - Wild Cherry - Play That Funky Music
02 - Billy Preston - Will It Go Round In Circles
03 - Carl Carlton - She's A Bad Mama Jama
04 - Parliament - Give Up The Funk
05 - Chaka Khan - I Feel For You
06 - Rick James - You And I
07 - Cameo - Word Up
08 - The Gap Band - You Dropped A Bomb On Me
09 - James Brown - The Payback
10 - Ohio Players - Love Rollercoaster
11 - The Temptations - Papa Was A Rollin' Stone
12 - The Undisputed Truth - Smiling Faces Sometimes
13 - Slave - Slide
14 - Leon Haywood - Strokin'
15 - The Beginning Of The End - Funky Nassau
16 - Brick - Dazz
17 - War - Slippin' Into Darkness
18 - Donna Summer - Last Dance
19 - A Taste Of Honey - Sukiyaki

CD2
01 - Raydio - Jack And Jill
02 - Spinners - Could It Be I'm Falling In Love
03 - Four Tops - Ain't No Woman (Like The One I've Got)
04 - The Isley Brothers - That Lady (Parts I & II)
05 - Chic - I Want Your Love
06 - Cheryl Lynn - Got To Be Real
07 - Shalamar - The Second Time Around
08 - Kool & The Gang - Ladies Night
09 - Harold Melvin And The Blue Notes - Bad Luck (Parts I & II)
10 - The O'Jays - Back Stabbers
11 - The Whispers - And The Beat Goes On
12 - Bill Withers - Use Me
13 - Gene Chandler - Groovy Situation
14 - The Friends of Distinction - Love or Let Me Be Lonely
15 - The Crusaders feat. Randy Crawford - Street Life
16 - The Brothers Johnson - Strawberry Letter 23
17 - Ashford & Simpson - Solid
18 - Al Green - Sha-La-La (Make Me Happy)
19 - The Staple Singers - Let's Do It Again
20 - Maxine Nightingale - Lead Me On

Various Artists - Old School Soul Party (2005) [4CD Set] {Shout! Factory}


CD3
01 - Marvin Gaye - Sexual Healing
02 - The Manhattans - Shining Star
03 - Billy Preston & Syreeta - With You I'm Born Again
04 - The Delfonics - Didn't I (Blow Your Mind This Time)
05 - The 5 Stairsteps - O-O-H Child
06 - Eddie Holman - Hey There Lonely Girl
07 - Commodores - Three Times a Lady
08 - Gladys Knight & The Pips - Best Thing That Ever Happened To Me
09 - The Chi-Lites - Have You Seen Her
10 - Pointer Sisters - Slow Hand
11 - GQ - I Do Love You
12 - Luther Ingram - (If Loving You Is Wrong) I Don't Want to Be Right
13 - Patti Austin (with James Ingram) - Baby, Come To Me
14 - Natalie Cole - Our Love
15 - Atlantic Starr - Always
16 - Peabo Bryson & Roberta Flack - Tonight, I Celebrate My Love
17 - The Stylistics - You Are Everything
18 - Natural High - Natural High
19 - Minnie Riperton - Lovin' You

CD4
01 - Patti LaBelle - New Attitude
02 - Wilbert Hart - Didn't I (Blow Your Mind This Time)
03 - Russell Thompkins and The New Stylistics - You Are Everything
04 - Russell Thompkins and The New Stylistics - Betcha By Golly, Wow
05 - Isaac Hayes - Theme From Shaft
06 - Cuba Gooding Sr. and The Main Ingredient - Everybody Plays The Fool
07 - Cuba Gooding Sr. and The Main Ingredient - Just Don't Want To Be Lonely
08 - Rufus - Tell Me Something Good
09 - The Whispers - And The Beat Goes On
10 - The Whispers - Medley

Various Artists - Old School Soul Party (2005) [4CD Set] {Shout! Factory}



X Lossless Decoder version 20121027 (142.1)

XLD extraction logfile from 2013-03-21 14:06:33 -0700

Various Artists / Old School Soul Party Disc 1

Used drive : HL-DT-ST DVDRW GA32N (revision KE06)

Ripper mode : XLD Secure Ripper
Disable audio cache : OK for the drive with a cache less than 1375KiB
Make use of C2 pointers : NO
Read offset correction : 103
Max retry count : 100
Gap status : Analyzed, Appended (except HTOA)

TOC of the extracted CD
Track | Start | Length | Start sector | End sector
--1 | 00:00:00 | 04:57:55 | 0 | 22329 2 | 04:57:55 | 04:27:45 | 22330 | 42399 3 | 09:25:25 | 03:55:35 | 42400 | 60059 4 | 13:20:60 | 05:45:12 | 60060 | 85946 5 | 19:05:72 | 04:05:25 | 85947 | 104346 6 | 23:11:22 | 03:06:15 | 104347 | 118311 7 | 26:17:37 | 04:18:45 | 118312 | 137706 8 | 30:36:07 | 04:02:08 | 137707 | 155864 9 | 34:38:15 | 07:39:60 | 155865 | 190349
10 | 42:18:00 | 02:53:20 | 190350 | 203344
11 | 45:11:20 | 06:57:65 | 203345 | 234684
12 | 52:09:10 | 03:14:72 | 234685 | 249306
13 | 55:24:07 | 03:22:33 | 249307 | 264489
14 | 58:46:40 | 03:46:67 | 264490 | 281506
15 | 62:33:32 | 03:12:00 | 281507 | 295906
16 | 65:45:32 | 03:23:15 | 295907 | 311146
17 | 69:08:47 | 03:46:20 | 311147 | 328116
18 | 72:54:67 | 03:17:73 | 328117 | 342964
19 | 76:12:65 | 03:43:20 | 342965 | 359709

AccurateRip Summary (DiscID: 0039ced2-032210c6-2112bc13)
Track 01 : Not Found
Track 02 : Not Found
Track 03 : Not Found
Track 04 : Not Found
Track 05 : Not Found
Track 06 : Not Found
Track 07 : Not Found
Track 08 : Not Found
Track 09 : Not Found
Track 10 : Not Found
Track 11 : Not Found
Track 12 : Not Found
Track 13 : Not Found
Track 14 : Not Found
Track 15 : Not Found
Track 16 : Not Found
Track 17 : Not Found
Track 18 : Not Found
Track 19 : Not Found->0 track accurately ripped, 19 tracks not found

All Tracks
Album gain : -6.77 dB
Peak : 0.997681
StatisticsRead error : 0Jitter error (maybe fixed) : 0Retry sector count : 0Damaged sector count : 0

Track 01
Filename : /Volumes/OWC Mercury Elite Pro - #2/Various Artists - Old School Soul Party (2005) [FLAC] {4cd set}/CD1/01 - Wild Cherry - Play That Funky Music.flac
Pre-gap length : 00:02:00 Track gain : -6.17 dB
Peak : 0.988556
CRC32 hash (test run) : 8ADC71C0
CRC32 hash : 8ADC71C0
CRC32 hash (skip zero) : 13D7CF61
AccurateRip v1 signature : F0884DA0
AccurateRip v2 signature : A20666CA->Track not present in AccurateRip database.
StatisticsRead error : 0Jitter error (maybe fixed) : 0Retry sector count : 0Damaged sector count : 0

Track 02
Filename : /Volumes/OWC Mercury Elite Pro - #2/Various Artists - Old School Soul Party (2005) [FLAC] {4cd set}/CD1/02 - Billy Preston - Will It Go Round In Circles.flac Track gain : -6.87 dB
Peak : 0.988556
CRC32 hash (test run) : 8D0C9C78
CRC32 hash : 8D0C9C78
CRC32 hash (skip zero) : 3D38D525
AccurateRip v1 signature : B315A305
AccurateRip v2 signature : 820FE807->Track not present in AccurateRip database.
StatisticsRead error : 0Jitter error (maybe fixed) : 0Retry sector count : 0Damaged sector count : 0

Track 03
Filename : /Volumes/OWC Mercury Elite Pro - #2/Various Artists - Old School Soul Party (2005) [FLAC] {4cd set}/CD1/03 - Carl Carlton - She's A Bad Mama Jama.flac Track gain : -6.62 dB
Peak : 0.988556
CRC32 hash (test run) : C2B51E23
CRC32 hash : C2B51E23
CRC32 hash (skip zero) : 26F4B89D
AccurateRip v1 signature : A5353B83
AccurateRip v2 signature : 0D143C35->Track not present in AccurateRip database.
StatisticsRead error : 0Jitter error (maybe fixed) : 0Retry sector count : 0Damaged sector count : 0

Track 04
Filename : /Volumes/OWC Mercury Elite Pro - #2/Various Artists - Old School Soul Party (2005) [FLAC] {4cd set}/CD1/04 - Parliament - Give Up The Funk.flac Track gain : -6.23 dB
Peak : 0.997681
CRC32 hash (test run) : 3A6B7E71
CRC32 hash : 3A6B7E71
CRC32 hash (skip zero) : A9644D9C
AccurateRip v1 signature : 586F8AC1
AccurateRip v2 signature : A9D4AB59->Track not present in AccurateRip database.
StatisticsRead error : 0Jitter error (maybe fixed) : 0Retry sector count : 0Damaged sector count : 0

Track 05
Filename : /Volumes/OWC Mercury Elite Pro - #2/Various Artists - Old School Soul Party (2005) [FLAC] {4cd set}/CD1/05 - Chaka Khan - I Feel For You.flac Track gain : -6.96 dB
Peak : 0.988556
CRC32 hash (test run) : B200779C
CRC32 hash : B200779C
CRC32 hash (skip zero) : 786C37FB
AccurateRip v1 signature : 0BDAF162
AccurateRip v2 signature : 3B76F28B->Track not present in AccurateRip database.
StatisticsRead error : 0Jitter error (maybe fixed) : 0Retry sector count : 0Damaged sector count : 0

Track 06
Filename : /Volumes/OWC Mercury Elite Pro - #2/Various Artists - Old School Soul Party (2005) [FLAC] {4cd set}/CD1/06 - Rick James - You And I.flac Track gain : -6.74 dB
Peak : 0.995453
CRC32 hash (test run) : 9EA09049
CRC32 hash : 9EA09049
CRC32 hash (skip zero) : B5435B15
AccurateRip v1 signature : CBAAED2D
AccurateRip v2 signature : B37E321D->Track not present in AccurateRip database.
StatisticsRead error : 0Jitter error (maybe fixed) : 0Retry sector count : 0Damaged sector count : 0

Track 07
Filename : /Volumes/OWC Mercury Elite Pro - #2/Various Artists - Old School Soul Party (2005) [FLAC] {4cd set}/CD1/07 - Cameo - Word Up.flac Track gain : -5.58 dB
Peak : 0.988556
CRC32 hash (test run) : 36F7C492
CRC32 hash : 36F7C492
CRC32 hash (skip zero) : 34DCE714
AccurateRip v1 signature : 59FAB45F
AccurateRip v2 signature : D6E32E63->Track not present in AccurateRip database.
StatisticsRead error : 0Jitter error (maybe fixed) : 0Retry sector count : 0Damaged sector count : 0

Track 08
Filename : /Volumes/OWC Mercury Elite Pro - #2/Various Artists - Old School Soul Party (2005) [FLAC] {4cd set}/CD1/08 - The Gap Band - You Dropped A Bomb On Me.flac Track gain : -7.88 dB
Peak : 0.994751
CRC32 hash (test run) : 8EBB8CC0
CRC32 hash : 8EBB8CC0
CRC32 hash (skip zero) : 81DE45E9
AccurateRip v1 signature : AC0151F8
AccurateRip v2 signature : B05AA509->Track not present in AccurateRip database.
StatisticsRead error : 0Jitter error (maybe fixed) : 0Retry sector count : 0Damaged sector count : 0

Track 09
Filename : /Volumes/OWC Mercury Elite Pro - #2/Various Artists - Old School Soul Party (2005) [FLAC] {4cd set}/CD1/09 - James Brown - The Payback.flac Track gain : -9.33 dB
Peak : 0.802460
CRC32 hash (test run) : DB854F54
CRC32 hash : DB854F54
CRC32 hash (skip zero) : DF301573
AccurateRip v1 signature : EB44CEA4
AccurateRip v2 signature : FE83C78B->Track not present in AccurateRip database.
StatisticsRead error : 0Jitter error (maybe fixed) : 0Retry sector count : 0Damaged sector count : 0

Track 10
Filename : /Volumes/OWC Mercury Elite Pro - #2/Various Artists - Old School Soul Party (2005) [FLAC] {4cd set}/CD1/10 - Ohio Players - Love Rollercoaster.flac Track gain : -7.03 dB
Peak : 0.988556
CRC32 hash (test run) : E9F93532
CRC32 hash : E9F93532
CRC32 hash (skip zero) : 10C5B94E
AccurateRip v1 signature : D05B8EA5
AccurateRip v2 signature : 7D9CF2A5->Track not present in AccurateRip database.
StatisticsRead error : 0Jitter error (maybe fixed) : 0Retry sector count : 0Damaged sector count : 0

Track 11
Filename : /Volumes/OWC Mercury Elite Pro - #2/Various Artists - Old School Soul Party (2005) [FLAC] {4cd set}/CD1/11 - The Temptations - Papa Was A Rollin' Stone.flac
Pre-gap length : 00:01:13 Track gain : -3.76 dB
Peak : 0.829376
CRC32 hash (test run) : 55906C83
CRC32 hash : 55906C83
CRC32 hash (skip zero) : 44B43B32
AccurateRip v1 signature : 3E400B39
AccurateRip v2 signature : AB0E9D7B->Track not present in AccurateRip database.
StatisticsRead error : 0Jitter error (maybe fixed) : 0Retry sector count : 0Damaged sector count : 0

Track 12
Filename : /Volumes/OWC Mercury Elite Pro - #2/Various Artists - Old School Soul Party (2005) [FLAC] {4cd set}/CD1/12 - The Undisputed Truth - Smiling Faces Sometimes.flac
Pre-gap length : 00:01:08 Track gain : -4.88 dB
Peak : 0.988556
CRC32 hash (test run) : 977A2B1C
CRC32 hash : 977A2B1C
CRC32 hash (skip zero) : 8FAB846D
AccurateRip v1 signature : DCF02ABB
AccurateRip v2 signature : ADC93EE5->Track not present in AccurateRip database.
StatisticsRead error : 0Jitter error (maybe fixed) : 0Retry sector count : 0Damaged sector count : 0

Track 13
Filename : /Volumes/OWC Mercury Elite Pro - #2/Various Artists - Old School Soul Party (2005) [FLAC] {4cd set}/CD1/13 - Slave - Slide.flac Track gain : -6.93 dB
Peak : 0.918488
CRC32 hash (test run) : B9454DC1
CRC32 hash : B9454DC1
CRC32 hash (skip zero) : 478C8732
AccurateRip v1 signature : 1AD422C3
AccurateRip v2 signature : 0D7AD382->Track not present in AccurateRip database.
StatisticsRead error : 0Jitter error (maybe fixed) : 0Retry sector count : 0Damaged sector count : 0

Track 14
Filename : /Volumes/OWC Mercury Elite Pro - #2/Various Artists - Old School Soul Party (2005) [FLAC] {4cd set}/CD1/14 - Leon Haywood - Strokin'.flac Track gain : -6.17 dB
Peak : 0.988556
CRC32 hash (test run) : 240B549B
CRC32 hash : 240B549B
CRC32 hash (skip zero) : 6C7F521C
AccurateRip v1 signature : A7D8C244
AccurateRip v2 signature : AE6BE14F->Track not present in AccurateRip database.
StatisticsRead error : 0Jitter error (maybe fixed) : 0Retry sector count : 0Damaged sector count : 0

Track 15
Filename : /Volumes/OWC Mercury Elite Pro - #2/Various Artists - Old School Soul Party (2005) [FLAC] {4cd set}/CD1/15 - The Beginning Of The End - Funky Nassau.flac Track gain : -4.69 dB
Peak : 0.988556
CRC32 hash (test run) : 1B5CBEC7
CRC32 hash : 1B5CBEC7
CRC32 hash (skip zero) : 209CA010
AccurateRip v1 signature : 22DA1529
AccurateRip v2 signature : F8B02AA3->Track not present in AccurateRip database.
StatisticsRead error : 0Jitter error (maybe fixed) : 0Retry sector count : 0Damaged sector count : 0

Track 16
Filename : /Volumes/OWC Mercury Elite Pro - #2/Various Artists - Old School Soul Party (2005) [FLAC] {4cd set}/CD1/16 - Brick - Dazz.flac Track gain : -5.80 dB
Peak : 0.891235
CRC32 hash (test run) : 29737A38
CRC32 hash : 29737A38
CRC32 hash (skip zero) : 5C107649
AccurateRip v1 signature : 1842DC65
AccurateRip v2 signature : CD5021BC->Track not present in AccurateRip database.
StatisticsRead error : 0Jitter error (maybe fixed) : 0Retry sector count : 0Damaged sector count : 0

Track 17
Filename : /Volumes/OWC Mercury Elite Pro - #2/Various Artists - Old School Soul Party (2005) [FLAC] {4cd set}/CD1/17 - War - Slippin' Into Darkness.flac Track gain : -4.51 dB
Peak : 0.988556
CRC32 hash (test run) : 4220484F
CRC32 hash : 4220484F
CRC32 hash (skip zero) : D0F992EF
AccurateRip v1 signature : 1224ABE7
AccurateRip v2 signature : 9D85CF78->Track not present in AccurateRip database.
StatisticsRead error : 0Jitter error (maybe fixed) : 0Retry sector count : 0Damaged sector count : 0

Track 18
Filename : /Volumes/OWC Mercury Elite Pro - #2/Various Artists - Old School Soul Party (2005) [FLAC] {4cd set}/CD1/18 - Donna Summer - Last Dance.flac Track gain : -7.56 dB
Peak : 0.982208
CRC32 hash (test run) : 92E65B6E
CRC32 hash : 92E65B6E
CRC32 hash (skip zero) : 1979FB6D
AccurateRip v1 signature : 605EE984
AccurateRip v2 signature : 0FAF4929->Track not present in AccurateRip database.
StatisticsRead error : 0Jitter error (maybe fixed) : 0Retry sector count : 0Damaged sector count : 0

Track 19
Filename : /Volumes/OWC Mercury Elite Pro - #2/Various Artists - Old School Soul Party (2005) [FLAC] {4cd set}/CD1/19 - A Taste Of Honey - Sukiyaki.flac Track gain : -5.17 dB
Peak : 0.822296
CRC32 hash (test run) : 8AFB8C48
CRC32 hash : 8AFB8C48
CRC32 hash (skip zero) : 44484F1A
AccurateRip v1 signature : B12D9AC9
AccurateRip v2 signature : 68A1EF37->Track not present in AccurateRip database.
StatisticsRead error : 0Jitter error (maybe fixed) : 0Retry sector count : 0Damaged sector count : 0

No errors occurred

End of status report

X Lossless Decoder version 20121027 (142.1)

XLD extraction logfile from 2013-03-21 14:52:23 -0700

Various Artists / Old School Soul Party Disc 2

Used drive : HL-DT-ST DVDRW GA32N (revision KE06)

Ripper mode : XLD Secure Ripper
Disable audio cache : OK for the drive with a cache less than 1375KiB
Make use of C2 pointers : NO
Read offset correction : 103
Max retry count : 100
Gap status : Analyzed, Appended (except HTOA)

TOC of the extracted CD
Track | Start | Length | Start sector | End sector
--1 | 00:00:00 | 04:34:30 | 0 | 20579 2 | 04:34:30 | 04:12:17 | 20580 | 39496 3 | 08:46:47 | 03:03:18 | 39497 | 53239 4 | 11:49:65 | 05:36:02 | 53240 | 78441 5 | 17:25:67 | 03:31:28 | 78442 | 94294 6 | 20:57:20 | 03:49:00 | 94295 | 111469 7 | 24:46:20 | 03:43:12 | 111470 | 128206 8 | 28:29:32 | 03:27:65 | 128207 | 143796 9 | 31:57:22 | 03:14:58 | 143797 | 158404
10 | 35:12:05 | 03:03:15 | 158405 | 172144
11 | 38:15:20 | 04:52:72 | 172145 | 194116
12 | 43:08:17 | 03:43:48 | 194117 | 210889
13 | 46:51:65 | 03:13:40 | 210890 | 225404
14 | 50:05:30 | 03:20:42 | 225405 | 240446
15 | 53:25:72 | 05:30:35 | 240447 | 265231
16 | 58:56:32 | 04:59:65 | 265232 | 287721
17 | 63:56:22 | 05:07:53 | 287722 | 310799
18 | 69:04:00 | 02:57:62 | 310800 | 324136
19 | 72:01:62 | 03:27:43 | 324137 | 339704
20 | 75:29:30 | 02:45:20 | 339705 | 352099

AccurateRip Summary (DiscID: 00393ae9-03447466-1b125614)
Track 01 : Not Found
Track 02 : Not Found
Track 03 : Not Found
Track 04 : Not Found
Track 05 : Not Found
Track 06 : Not Found
Track 07 : Not Found
Track 08 : Not Found
Track 09 : Not Found
Track 10 : Not Found
Track 11 : Not Found
Track 12 : Not Found
Track 13 : Not Found
Track 14 : Not Found
Track 15 : Not Found
Track 16 : Not Found
Track 17 : Not Found
Track 18 : Not Found
Track 19 : Not Found
Track 20 : Not Found->0 track accurately ripped, 20 tracks not found

All Tracks
Album gain : -5.81 dB
Peak : 0.999939
StatisticsRead error : 0Jitter error (maybe fixed) : 0Retry sector count : 0Damaged sector count : 0

Track 01
Filename : /Volumes/OWC Mercury Elite Pro - #2/Various Artists - Old School Soul Party (2005) [FLAC] {4cd set}/CD2/01 - Raydio - Jack And Jill.flac
Pre-gap length : 00:02:00 Track gain : -5.42 dB
Peak : 0.954987
CRC32 hash (test run) : E67D4E36
CRC32 hash : E67D4E36
CRC32 hash (skip zero) : AF66BCF1
AccurateRip v1 signature : 7912706B
AccurateRip v2 signature : D8399EFF->Track not present in AccurateRip database.
StatisticsRead error : 0Jitter error (maybe fixed) : 0Retry sector count : 0Damaged sector count : 0

Track 02
Filename : /Volumes/OWC Mercury Elite Pro - #2/Various Artists - Old School Soul Party (2005) [FLAC] {4cd set}/CD2/02 - Spinners - Could It Be I'm Falling In Love.flac Track gain : -6.33 dB
Peak : 0.954987
CRC32 hash (test run) : 88E88417
CRC32 hash : 88E88417
CRC32 hash (skip zero) : B60AAE6D
AccurateRip v1 signature : DE7FDD76
AccurateRip v2 signature : E8B99A92->Track not present in AccurateRip database.
StatisticsRead error : 0Jitter error (maybe fixed) : 0Retry sector count : 0Damaged sector count : 0

Track 03
Filename : /Volumes/OWC Mercury Elite Pro - #2/Various Artists - Old School Soul Party (2005) [FLAC] {4cd set}/CD2/03 - Four Tops - Ain't No Woman (Like The One I've Got).flac Track gain : -6.17 dB
Peak : 0.954987
CRC32 hash (test run) : 3F50E235
CRC32 hash : 3F50E235
CRC32 hash (skip zero) : 2BDA44AE
AccurateRip v1 signature : D9556AFC
AccurateRip v2 signature : B35D1C82->Track not present in AccurateRip database.
StatisticsRead error : 0Jitter error (maybe fixed) : 0Retry sector count : 0Damaged sector count : 0

Track 04
Filename : /Volumes/OWC Mercury Elite Pro - #2/Various Artists - Old School Soul Party (2005) [FLAC] {4cd set}/CD2/04 - The Isley Brothers - That Lady (Parts I & II).flac Track gain : -5.16 dB
Peak : 0.954987
CRC32 hash (test run) : 8D5B973B
CRC32 hash : 8D5B973B
CRC32 hash (skip zero) : 118723DD
AccurateRip v1 signature : 03A66E4C
AccurateRip v2 signature : C74BF45F->Track not present in AccurateRip database.
StatisticsRead error : 0Jitter error (maybe fixed) : 0Retry sector count : 0Damaged sector count : 0

Track 05
Filename : /Volumes/OWC Mercury Elite Pro - #2/Various Artists - Old School Soul Party (2005) [FLAC] {4cd set}/CD2/05 - Chic - I Want Your Love.flac
Pre-gap length : 00:01:35 Track gain : -4.76 dB
Peak : 0.966064
CRC32 hash (test run) : C9F3F1DF
CRC32 hash : C9F3F1DF
CRC32 hash (skip zero) : 21B77160
AccurateRip v1 signature : 33C28BC6
AccurateRip v2 signature : 37CBC7A8->Track not present in AccurateRip database.
StatisticsRead error : 0Jitter error (maybe fixed) : 0Retry sector count : 0Damaged sector count : 0

Track 06
Filename : /Volumes/OWC Mercury Elite Pro - #2/Various Artists - Old School Soul Party (2005) [FLAC] {4cd set}/CD2/06 - Cheryl Lynn - Got To Be Real.flac
Pre-gap length : 00:01:13 Track gain : -6.40 dB
Peak : 0.988556
CRC32 hash (test run) : BBE70490
CRC32 hash : BBE70490
CRC32 hash (skip zero) : 2FCEC81F
AccurateRip v1 signature : 867373B0
AccurateRip v2 signature : 55F96951->Track not present in AccurateRip database.
StatisticsRead error : 0Jitter error (maybe fixed) : 0Retry sector count : 0Damaged sector count : 0

Track 07
Filename : /Volumes/OWC Mercury Elite Pro - #2/Various Artists - Old School Soul Party (2005) [FLAC] {4cd set}/CD2/07 - Shalamar - The Second Time Around.flac Track gain : -5.25 dB
Peak : 0.999939
CRC32 hash (test run) : 17F252B6
CRC32 hash : 17F252B6
CRC32 hash (skip zero) : 7E4A0070
AccurateRip v1 signature : B6AB7504
AccurateRip v2 signature : 17ABA6F3->Track not present in AccurateRip database.
StatisticsRead error : 0Jitter error (maybe fixed) : 0Retry sector count : 0Damaged sector count : 0

Track 08
Filename : /Volumes/OWC Mercury Elite Pro - #2/Various Artists - Old School Soul Party (2005) [FLAC] {4cd set}/CD2/08 - Kool & The Gang - Ladies Night.flac Track gain : -5.36 dB
Peak : 0.997650
CRC32 hash (test run) : 8467D89D
CRC32 hash : 8467D89D
CRC32 hash (skip zero) : FC6B9969
AccurateRip v1 signature : 82983D73
AccurateRip v2 signature : DE211AFE->Track not present in AccurateRip database.
StatisticsRead error : 0Jitter error (maybe fixed) : 0Retry sector count : 0Damaged sector count : 0

Track 09
Filename : /Volumes/OWC Mercury Elite Pro - #2/Various Artists - Old School Soul Party (2005) [FLAC] {4cd set}/CD2/09 - Harold Melvin And The Blue Notes - Bad Luck (Parts I & II).flac
Pre-gap length : 00:01:22 Track gain : -7.21 dB
Peak : 0.988556
CRC32 hash (test run) : F37ABA02
CRC32 hash : F37ABA02
CRC32 hash (skip zero) : 0A9EEE8A
AccurateRip v1 signature : 0F277682
AccurateRip v2 signature : AB4B81B2->Track not present in AccurateRip database.
StatisticsRead error : 0Jitter error (maybe fixed) : 0Retry sector count : 0Damaged sector count : 0

Track 10
Filename : /Volumes/OWC Mercury Elite Pro - #2/Various Artists - Old School Soul Party (2005) [FLAC] {4cd set}/CD2/10 - The O'Jays - Back Stabbers.flac Track gain : -6.39 dB
Peak : 0.954987
CRC32 hash (test run) : DEB12C25
CRC32 hash : DEB12C25
CRC32 hash (skip zero) : 196DE89F
AccurateRip v1 signature : 54F5F3A8
AccurateRip v2 signature : 9F1A05F3->Track not present in AccurateRip database.
StatisticsRead error : 0Jitter error (maybe fixed) : 0Retry sector count : 0Damaged sector count : 0

Track 11
Filename : /Volumes/OWC Mercury Elite Pro - #2/Various Artists - Old School Soul Party (2005) [FLAC] {4cd set}/CD2/11 - The Whispers - And The Beat Goes On.flac Track gain : -5.82 dB
Peak : 0.853210
CRC32 hash (test run) : D0BA9560
CRC32 hash : D0BA9560
CRC32 hash (skip zero) : 16C5FCF3
AccurateRip v1 signature : EC6D830C
AccurateRip v2 signature : 3C3F6266->Track not present in AccurateRip database.
StatisticsRead error : 0Jitter error (maybe fixed) : 0Retry sector count : 0Damaged sector count : 0

Track 12
Filename : /Volumes/OWC Mercury Elite Pro - #2/Various Artists - Old School Soul Party (2005) [FLAC] {4cd set}/CD2/12 - Bill Withers - Use Me.flac Track gain : -5.14 dB
Peak : 0.922607
CRC32 hash (test run) : FF14B13E
CRC32 hash : FF14B13E
CRC32 hash (skip zero) : BE62A311
AccurateRip v1 signature : 487C8952
AccurateRip v2 signature : E96E819F->Track not present in AccurateRip database.
StatisticsRead error : 0Jitter error (maybe fixed) : 0Retry sector count : 0Damaged sector count : 0

Track 13
Filename : /Volumes/OWC Mercury Elite Pro - #2/Various Artists - Old School Soul Party (2005) [FLAC] {4cd set}/CD2/13 - Gene Chandler - Groovy Situation.flac
Pre-gap length : 00:02:03 Track gain : -6.77 dB
Peak : 0.988556
CRC32 hash (test run) : 73884A6B
CRC32 hash : 73884A6B
CRC32 hash (skip zero) : FB5E454E
AccurateRip v1 signature : 1B3EC2BA
AccurateRip v2 signature : 2210BF0A->Track not present in AccurateRip database.
StatisticsRead error : 0Jitter error (maybe fixed) : 0Retry sector count : 0Damaged sector count : 0

Track 14
Filename : /Volumes/OWC Mercury Elite Pro - #2/Various Artists - Old School Soul Party (2005) [FLAC] {4cd set}/CD2/14 - The Friends of Distinction - Love or Let Me Be Lonely.flac
Pre-gap length : 00:01:45 Track gain : -3.79 dB
Peak : 0.988556
CRC32 hash (test run) : 00A449EB
CRC32 hash : 00A449EB
CRC32 hash (skip zero) : A1BC5B6D
AccurateRip v1 signature : 29DF2C52
AccurateRip v2 signature : 850F57E1->Track not present in AccurateRip database.
StatisticsRead error : 0Jitter error (maybe fixed) : 0Retry sector count : 0Damaged sector count : 0

Track 15
Filename : /Volumes/OWC Mercury Elite Pro - #2/Various Artists - Old School Soul Party (2005) [FLAC] {4cd set}/CD2/15 - The Crusaders feat. Randy Crawford - Street Life.flac Track gain : -4.73 dB
Peak : 0.988556
CRC32 hash (test run) : DB7C4903
CRC32 hash : DB7C4903
CRC32 hash (skip zero) : 8648C4BA
AccurateRip v1 signature : 46296E04
AccurateRip v2 signature : 01CF0048->Track not present in AccurateRip database.
StatisticsRead error : 0Jitter error (maybe fixed) : 0Retry sector count : 0Damaged sector count : 0

Track 16
Filename : /Volumes/OWC Mercury Elite Pro - #2/Various Artists - Old School Soul Party (2005) [FLAC] {4cd set}/CD2/16 - The Brothers Johnson - Strawberry Letter 23.flac Track gain : -5.92 dB
Peak : 0.660858
CRC32 hash (test run) : 8EA33A3F
CRC32 hash : 8EA33A3F
CRC32 hash (skip zero) : C1EE8E10
AccurateRip v1 signature : E26DFB26
AccurateRip v2 signature : 8B8B63AA->Track not present in AccurateRip database.
StatisticsRead error : 0Jitter error (maybe fixed) : 0Retry sector count : 0Damaged sector count : 0

Track 17
Filename : /Volumes/OWC Mercury Elite Pro - #2/Various Artists - Old School Soul Party (2005) [FLAC] {4cd set}/CD2/17 - Ashford & Simpson - Solid.flac
Pre-gap length : 00:01:15 Track gain : -6.16 dB
Peak : 0.854675
CRC32 hash (test run) : A5037A7A
CRC32 hash : A5037A7A
CRC32 hash (skip zero) : E42D9CA1
AccurateRip v1 signature : C029A93C
AccurateRip v2 signature : 43371CA2->Track not present in AccurateRip database.
StatisticsRead error : 0Jitter error (maybe fixed) : 0Retry sector count : 0Damaged sector count : 0

Track 18
Filename : /Volumes/OWC Mercury Elite Pro - #2/Various Artists - Old School Soul Party (2005) [FLAC] {4cd set}/CD2/18 - Al Green - Sha-La-La (Make Me Happy).flac Track gain : -5.64 dB
Peak : 0.966064
CRC32 hash (test run) : FDED2CB8
CRC32 hash : FDED2CB8
CRC32 hash (skip zero) : 967B2C4F
AccurateRip v1 signature : 1962B4D1
AccurateRip v2 signature : 7B5C2917->Track not present in AccurateRip database.
StatisticsRead error : 0Jitter error (maybe fixed) : 0Retry sector count : 0Damaged sector count : 0

Track 19
Filename : /Volumes/OWC Mercury Elite Pro - #2/Various Artists - Old School Soul Party (2005) [FLAC] {4cd set}/CD2/19 - The Staple Singers - Let's Do It Again.flac Track gain : -4.97 dB
Peak : 0.988556
CRC32 hash (test run) : F7DBA5E8
CRC32 hash : F7DBA5E8
CRC32 hash (skip zero) : BED5004A
AccurateRip v1 signature : BD934217
AccurateRip v2 signature : 54D0F0CF->Track not present in AccurateRip database.
StatisticsRead error : 0Jitter error (maybe fixed) : 0Retry sector count : 0Damaged sector count : 0

Track 20
Filename : /Volumes/OWC Mercury Elite Pro - #2/Various Artists - Old School Soul Party (2005) [FLAC] {4cd set}/CD2/20 - Maxine Nightingale - Lead Me On.flac Track gain : -6.19 dB
Peak : 0.988556
CRC32 hash (test run) : 955594B0
CRC32 hash : 955594B0
CRC32 hash (skip zero) : 8CBFC788
AccurateRip v1 signature : BED09C0F
AccurateRip v2 signature : 527183A9->Track not present in AccurateRip database.
StatisticsRead error : 0Jitter error (maybe fixed) : 0Retry sector count : 0Damaged sector count : 0

No errors occurred

End of status report

X Lossless Decoder version 20121027 (142.1)

XLD extraction logfile from 2013-03-21 15:37:16 -0700

Various Artists / Old School Soul Party Disc 3

Used drive : HL-DT-ST DVDRW GA32N (revision KE06)

Ripper mode : XLD Secure Ripper
Disable audio cache : OK for the drive with a cache less than 1375KiB
Make use of C2 pointers : NO
Read offset correction : 103
Max retry count : 100
Gap status : Analyzed, Appended (except HTOA)

TOC of the extracted CD
Track | Start | Length | Start sector | End sector
--1 | 00:00:00 | 04:00:20 | 0 | 18019 2 | 04:00:20 | 04:41:57 | 18020 | 39151 3 | 08:42:02 | 03:38:15 | 39152 | 55516 4 | 12:20:17 | 03:21:08 | 55517 | 70599 5 | 15:41:25 | 03:17:32 | 70600 | 85406 6 | 18:58:57 | 03:34:55 | 85407 | 101511 7 | 22:33:37 | 06:39:68 | 101512 | 131504 8 | 29:13:30 | 03:44:47 | 131505 | 148351 9 | 32:58:02 | 05:09:18 | 148352 | 171544
10 | 38:07:20 | 03:55:47 | 171545 | 189216
11 | 42:02:67 | 04:50:40 | 189217 | 211006
12 | 46:53:32 | 03:26:70 | 211007 | 226526
13 | 50:20:27 | 03:35:25 | 226527 | 242676
14 | 53:55:52 | 05:26:45 | 242677 | 267171
15 | 59:22:22 | 04:47:10 | 267172 | 288706
16 | 64:09:32 | 03:30:18 | 288707 | 304474
17 | 67:39:50 | 02:56:27 | 304475 | 317701
18 | 70:36:02 | 04:01:30 | 317702 | 335806
19 | 74:37:32 | 03:22:33 | 335807 | 350989

AccurateRip Summary (DiscID: 00364233-02f9e609-0a124713)
Track 01 : Not Found
Track 02 : Not Found
Track 03 : Not Found
Track 04 : Not Found
Track 05 : Not Found
Track 06 : Not Found
Track 07 : Not Found
Track 08 : Not Found
Track 09 : Not Found
Track 10 : Not Found
Track 11 : Not Found
Track 12 : Not Found
Track 13 : Not Found
Track 14 : Not Found
Track 15 : Not Found
Track 16 : Not Found
Track 17 : Not Found
Track 18 : Not Found
Track 19 : Not Found->0 track accurately ripped, 19 tracks not found

All Tracks
Album gain : -5.90 dB
Peak : 0.988556
StatisticsRead error : 0Jitter error (maybe fixed) : 0Retry sector count : 0Damaged sector count : 0

Track 01
Filename : /Volumes/OWC Mercury Elite Pro - #2/Various Artists - Old School Soul Party (2005) [FLAC] {4cd set}/CD3/01 - Marvin Gaye - Sexual Healing.flac
Pre-gap length : 00:02:00 Track gain : -4.41 dB
Peak : 0.988556
CRC32 hash (test run) : C9CE5F37
CRC32 hash : C9CE5F37
CRC32 hash (skip zero) : BD6DEAE6
AccurateRip v1 signature : 31B29782
AccurateRip v2 signature : AD65AD63->Track not present in AccurateRip database.
StatisticsRead error : 0Jitter error (maybe fixed) : 0Retry sector count : 0Damaged sector count : 0

Track 02
Filename : /Volumes/OWC Mercury Elite Pro - #2/Various Artists - Old School Soul Party (2005) [FLAC] {4cd set}/CD3/02 - The Manhattans - Shining Star.flac Track gain : -4.71 dB
Peak : 0.988556
CRC32 hash (test run) : E933D23D
CRC32 hash : E933D23D
CRC32 hash (skip zero) : 51FE01C4
AccurateRip v1 signature : 246CE42C
AccurateRip v2 signature : 31CEF4C5->Track not present in AccurateRip database.
StatisticsRead error : 0Jitter error (maybe fixed) : 0Retry sector count : 0Damaged sector count : 0

Track 03
Filename : /Volumes/OWC Mercury Elite Pro - #2/Various Artists - Old School Soul Party (2005) [FLAC] {4cd set}/CD3/03 - Billy Preston & Syreeta - With You I'm Born Again.flac Track gain : -6.19 dB
Peak : 0.988556
CRC32 hash (test run) : 5D88E840
CRC32 hash : 5D88E840
CRC32 hash (skip zero) : DB674E2C
AccurateRip v1 signature : 13FAA85C
AccurateRip v2 signature : 4BC8CE60->Track not present in AccurateRip database.
StatisticsRead error : 0Jitter error (maybe fixed) : 0Retry sector count : 0Damaged sector count : 0

Track 04
Filename : /Volumes/OWC Mercury Elite Pro - #2/Various Artists - Old School Soul Party (2005) [FLAC] {4cd set}/CD3/04 - The Delfonics - Didn't I (Blow Your Mind This Time).flac Track gain : -5.97 dB
Peak : 0.988556
CRC32 hash (test run) : 19F122E5
CRC32 hash : 19F122E5
CRC32 hash (skip zero) : B511E34C
AccurateRip v1 signature : 5AE6B6C7
AccurateRip v2 signature : B357C662->Track not present in AccurateRip database.
StatisticsRead error : 0Jitter error (maybe fixed) : 0Retry sector count : 0Damaged sector count : 0

Track 05
Filename : /Volumes/OWC Mercury Elite Pro - #2/Various Artists - Old School Soul Party (2005) [FLAC] {4cd set}/CD3/05 - The 5 Stairsteps - O-O-H Child.flac
Pre-gap length : 00:01:08 Track gain : -6.33 dB
Peak : 0.988556
CRC32 hash (test run) : CF3BE2AD
CRC32 hash : CF3BE2AD
CRC32 hash (skip zero) : EC53973E
AccurateRip v1 signature : 713BF16C
AccurateRip v2 signature : A6A6CD2F->Track not present in AccurateRip database.
StatisticsRead error : 0Jitter error (maybe fixed) : 0Retry sector count : 0Damaged sector count : 0

Track 06
Filename : /Volumes/OWC Mercury Elite Pro - #2/Various Artists - Old School Soul Party (2005) [FLAC] {4cd set}/CD3/06 - Eddie Holman - Hey There Lonely Girl.flac
Pre-gap length : 00:01:25 Track gain : -5.55 dB
Peak : 0.988556
CRC32 hash (test run) : 42411CEF
CRC32 hash : 42411CEF
CRC32 hash (skip zero) : E781249E
AccurateRip v1 signature : 5C945A63
AccurateRip v2 signature : 53F7B32F->Track not present in AccurateRip database.
StatisticsRead error : 0Jitter error (maybe fixed) : 0Retry sector count : 0Damaged sector count : 0

Track 07
Filename : /Volumes/OWC Mercury Elite Pro - #2/Various Artists - Old School Soul Party (2005) [FLAC] {4cd set}/CD3/07 - Commodores - Three Times a Lady.flac Track gain : -3.65 dB
Peak : 0.988556
CRC32 hash (test run) : 2C9704E1
CRC32 hash : 2C9704E1
CRC32 hash (skip zero) : A283AEE3
AccurateRip v1 signature : 49EE3643
AccurateRip v2 signature : 53A2852A->Track not present in AccurateRip database.
StatisticsRead error : 0Jitter error (maybe fixed) : 0Retry sector count : 0Damaged sector count : 0

Track 08
Filename : /Volumes/OWC Mercury Elite Pro - #2/Various Artists - Old School Soul Party (2005) [FLAC] {4cd set}/CD3/08 - Gladys Knight & The Pips - Best Thing That Ever Happened To Me.flac Track gain : -4.83 dB
Peak : 0.988556
CRC32 hash (test run) : 11259DCB
CRC32 hash : 11259DCB
CRC32 hash (skip zero) : 2D8149FA
AccurateRip v1 signature : 2664F770
AccurateRip v2 signature : 7D70B4DC->Track not present in AccurateRip database.
StatisticsRead error : 0Jitter error (maybe fixed) : 0Retry sector count : 0Damaged sector count : 0

Track 09
Filename : /Volumes/OWC Mercury Elite Pro - #2/Various Artists - Old School Soul Party (2005) [FLAC] {4cd set}/CD3/09 - The Chi-Lites - Have You Seen Her.flac Track gain : -3.37 dB
Peak : 0.988525
CRC32 hash (test run) : 78AE510B
CRC32 hash : 78AE510B
CRC32 hash (skip zero) : A49A160D
AccurateRip v1 signature : BFB1DF36
AccurateRip v2 signature : 23F78F60->Track not present in AccurateRip database.
StatisticsRead error : 0Jitter error (maybe fixed) : 0Retry sector count : 0Damaged sector count : 0

Track 10
Filename : /Volumes/OWC Mercury Elite Pro - #2/Various Artists - Old School Soul Party (2005) [FLAC] {4cd set}/CD3/10 - Pointer Sisters - Slow Hand.flac
Pre-gap length : 00:02:38 Track gain : -3.76 dB
Peak : 0.988556
CRC32 hash (test run) : A29BCF4A
CRC32 hash : A29BCF4A
CRC32 hash (skip zero) : F3860687
AccurateRip v1 signature : 009E8C29
AccurateRip v2 signature : 05E8BF9B->Track not present in AccurateRip database.
StatisticsRead error : 0Jitter error (maybe fixed) : 0Retry sector count : 0Damaged sector count : 0

Track 11
Filename : /Volumes/OWC Mercury Elite Pro - #2/Various Artists - Old School Soul Party (2005) [FLAC] {4cd set}/CD3/11 - GQ - I Do Love You.flac
Pre-gap length : 00:01:22 Track gain : -6.71 dB
Peak : 0.988556
CRC32 hash (test run) : 9EDA0962
CRC32 hash : 9EDA0962
CRC32 hash (skip zero) : F97F3695
AccurateRip v1 signature : 2A34D7E7
AccurateRip v2 signature : ED564CEC->Track not present in AccurateRip database.
StatisticsRead error : 0Jitter error (maybe fixed) : 0Retry sector count : 0Damaged sector count : 0

Track 12
Filename : /Volumes/OWC Mercury Elite Pro - #2/Various Artists - Old School Soul Party (2005) [FLAC] {4cd set}/CD3/12 - Luther Ingram - (If Loving You Is Wrong) I Don't Want to Be Right.flac
Pre-gap length : 00:01:02 Track gain : -6.18 dB
Peak : 0.988556
CRC32 hash (test run) : B6618089
CRC32 hash : B6618089
CRC32 hash (skip zero) : F4F668C7
AccurateRip v1 signature : D51BB511
AccurateRip v2 signature : C8AB3032->Track not present in AccurateRip database.
StatisticsRead error : 0Jitter error (maybe fixed) : 0Retry sector count : 0Damaged sector count : 0

Track 13
Filename : /Volumes/OWC Mercury Elite Pro - #2/Various Artists - Old School Soul Party (2005) [FLAC] {4cd set}/CD3/13 - Patti Austin (with James Ingram) - Baby, Come To Me.flac
Pre-gap length : 00:01:37 Track gain : -6.91 dB
Peak : 0.988556
CRC32 hash (test run) : 9841AB3A
CRC32 hash : 9841AB3A
CRC32 hash (skip zero) : 692EAB8D
AccurateRip v1 signature : 59E77FA4
AccurateRip v2 signature : 1A42E4FC->Track not present in AccurateRip database.
StatisticsRead error : 0Jitter error (maybe fixed) : 0Retry sector count : 0Damaged sector count : 0

Track 14
Filename : /Volumes/OWC Mercury Elite Pro - #2/Various Artists - Old School Soul Party (2005) [FLAC] {4cd set}/CD3/14 - Natalie Cole - Our Love.flac Track gain : -7.23 dB
Peak : 0.988556
CRC32 hash (test run) : 0CF8B43D
CRC32 hash : 0CF8B43D
CRC32 hash (skip zero) : 9D9E0C6F
AccurateRip v1 signature : C8083595
AccurateRip v2 signature : 205978ED->Track not present in AccurateRip database.
StatisticsRead error : 0Jitter error (maybe fixed) : 0Retry sector count : 0Damaged sector count : 0

Track 15
Filename : /Volumes/OWC Mercury Elite Pro - #2/Various Artists - Old School Soul Party (2005) [FLAC] {4cd set}/CD3/15 - Atlantic Starr - Always.flac
Pre-gap length : 00:01:55 Track gain : -4.95 dB
Peak : 0.988556
CRC32 hash (test run) : 4C1DC4C6
CRC32 hash : 4C1DC4C6
CRC32 hash (skip zero) : 48E0FC2C
AccurateRip v1 signature : 73C185CD
AccurateRip v2 signature : 044A4A52->Track not present in AccurateRip database.
StatisticsRead error : 0Jitter error (maybe fixed) : 0Retry sector count : 0Damaged sector count : 0

Track 16
Filename : /Volumes/OWC Mercury Elite Pro - #2/Various Artists - Old School Soul Party (2005) [FLAC] {4cd set}/CD3/16 - Peabo Bryson & Roberta Flack - Tonight, I Celebrate My Love.flac
Pre-gap length : 00:01:05 Track gain : -5.82 dB
Peak : 0.988556
CRC32 hash (test run) : 1AE4136D
CRC32 hash : 1AE4136D
CRC32 hash (skip zero) : 49B9E2DD
AccurateRip v1 signature : C37F7C92
AccurateRip v2 signature : 521877AA->Track not present in AccurateRip database.
StatisticsRead error : 0Jitter error (maybe fixed) : 0Retry sector count : 0Damaged sector count : 0

Track 17
Filename : /Volumes/OWC Mercury Elite Pro - #2/Various Artists - Old School Soul Party (2005) [FLAC] {4cd set}/CD3/17 - The Stylistics - You Are Everything.flac Track gain : -5.97 dB
Peak : 0.890930
CRC32 hash (test run) : 07AD401A
CRC32 hash : 07AD401A
CRC32 hash (skip zero) : 25F30EBD
AccurateRip v1 signature : 5AF98718
AccurateRip v2 signature : 6EA0F34E->Track not present in AccurateRip database.
StatisticsRead error : 0Jitter error (maybe fixed) : 0Retry sector count : 0Damaged sector count : 0

Track 18
Filename : /Volumes/OWC Mercury Elite Pro - #2/Various Artists - Old School Soul Party (2005) [FLAC] {4cd set}/CD3/18 - Natural High - Natural High.flac
Pre-gap length : 00:01:50 Track gain : -7.20 dB
Peak : 0.988556
CRC32 hash (test run) : 607D5A3F
CRC32 hash : 607D5A3F
CRC32 hash (skip zero) : B619F749
AccurateRip v1 signature : A0AE2822
AccurateRip v2 signature : 8E2E7D88->Track not present in AccurateRip database.
StatisticsRead error : 0Jitter error (maybe fixed) : 0Retry sector count : 0Damaged sector count : 0

Track 19
Filename : /Volumes/OWC Mercury Elite Pro - #2/Various Artists - Old School Soul Party (2005) [FLAC] {4cd set}/CD3/19 - Minnie Riperton - Lovin' You.flac
Pre-gap length : 00:01:35 Track gain : -5.82 dB
Peak : 0.988556
CRC32 hash (test run) : E7B31A53
CRC32 hash : E7B31A53
CRC32 hash (skip zero) : CFBEF4A9
AccurateRip v1 signature : F012D4BF
AccurateRip v2 signature : 532E2D4B->Track not present in AccurateRip database.
StatisticsRead error : 0Jitter error (maybe fixed) : 0Retry sector count : 0Damaged sector count : 0

No errors occurred

End of status report

X Lossless Decoder version 20121027 (142.1)

XLD extraction logfile from 2013-03-21 16:28:19 -0700

Various Artists / Old School Soul Party - Live

Used drive : HL-DT-ST DVDRW GA32N (revision KE06)

Ripper mode : XLD Secure Ripper
Disable audio cache : OK for the drive with a cache less than 1375KiB
Make use of C2 pointers : NO
Read offset correction : 103
Max retry count : 100
Gap status : Analyzed, Appended (except HTOA)

TOC of the extracted CD
Track | Start | Length | Start sector | End sector
--1 | 00:00:00 | 05:38:47 | 0 | 25396 2 | 05:38:47 | 05:04:25 | 25397 | 48221 3 | 10:42:72 | 03:09:40 | 48222 | 62436 4 | 13:52:37 | 04:18:23 | 62437 | 81809 5 | 18:10:60 | 06:27:25 | 81810 | 110859 6 | 24:38:10 | 03:36:72 | 110860 | 127131 7 | 28:15:07 | 05:05:68 | 127132 | 150074 8 | 33:21:00 | 04:18:05 | 150075 | 169429 9 | 37:39:05 | 08:08:20 | 169430 | 206049
10 | 45:47:25 | 07:22:00 | 206050 | 239199

AccurateRip Summary
Disc not found in AccurateRip DB.

All Tracks
Album gain : -5.12 dB
Peak : 0.988556
StatisticsRead error : 0Jitter error (maybe fixed) : 0Retry sector count : 0Damaged sector count : 0

Track 01
Filename : /Volumes/OWC Mercury Elite Pro - #2/Various Artists - Old School Soul Party (2005) [FLAC] {4cd set}/CD4/01 - Patti LaBelle - New Attitude.flac
Pre-gap length : 00:02:00 Track gain : -5.14 dB
Peak : 0.988556
CRC32 hash (test run) : 816B9ED3
CRC32 hash : 816B9ED3
CRC32 hash (skip zero) : BA98A2A7
AccurateRip v1 signature : F1E151F2
AccurateRip v2 signature : 23D553F2->Track not present in AccurateRip database.
StatisticsRead error : 0Jitter error (maybe fixed) : 0Retry sector count : 0Damaged sector count : 0

Track 02
Filename : /Volumes/OWC Mercury Elite Pro - #2/Various Artists - Old School Soul Party (2005) [FLAC] {4cd set}/CD4/02 - Wilbert Hart - Didn't I (Blow Your Mind This Time).flac Track gain : -6.02 dB
Peak : 0.988556
CRC32 hash (test run) : B54AE626
CRC32 hash : B54AE626
CRC32 hash (skip zero) : D61E389A
AccurateRip v1 signature : 37A96D7C
AccurateRip v2 signature : 68CE6B8A->Track not present in AccurateRip database.
StatisticsRead error : 0Jitter error (maybe fixed) : 0Retry sector count : 0Damaged sector count : 0

Track 03
Filename : /Volumes/OWC Mercury Elite Pro - #2/Various Artists - Old School Soul Party (2005) [FLAC] {4cd set}/CD4/03 - Russell Thompkins and The New Stylistics - You Are Everything.flac Track gain : -4.81 dB
Peak : 0.988556
CRC32 hash (test run) : 3CCEDFC7
CRC32 hash : 3CCEDFC7
CRC32 hash (skip zero) : 279A3E3A
AccurateRip v1 signature : 6BC768DB
AccurateRip v2 signature : 0E4C6D87->Track not present in AccurateRip database.
StatisticsRead error : 0Jitter error (maybe fixed) : 0Retry sector count : 0Damaged sector count : 0

Track 04
Filename : /Volumes/OWC Mercury Elite Pro - #2/Various Artists - Old School Soul Party (2005) [FLAC] {4cd set}/CD4/04 - VariousRussell Thompkins and The New Stylistics - Betcha By Golly, Wow.flac Track gain : -3.83 dB
Peak : 0.988556
CRC32 hash (test run) : DE803DB9
CRC32 hash : DE803DB9
CRC32 hash (skip zero) : 5CB46698
AccurateRip v1 signature : AFEB21EA
AccurateRip v2 signature : 9F32C4F4->Track not present in AccurateRip database.
StatisticsRead error : 0Jitter error (maybe fixed) : 0Retry sector count : 0Damaged sector count : 0

Track 05
Filename : /Volumes/OWC Mercury Elite Pro - #2/Various Artists - Old School Soul Party (2005) [FLAC] {4cd set}/CD4/05 - Isaac Hayes - Theme From Shaft.flac Track gain : -2.93 dB
Peak : 0.988556
CRC32 hash (test run) : EE6CB386
CRC32 hash : EE6CB386
CRC32 hash (skip zero) : 1BA77EA8
AccurateRip v1 signature : 435BCBE6
AccurateRip v2 signature : D74B42B7->Track not present in AccurateRip database.
StatisticsRead error : 0Jitter error (maybe fixed) : 0Retry sector count : 0Damaged sector count : 0

Track 06
Filename : /Volumes/OWC Mercury Elite Pro - #2/Various Artists - Old School Soul Party (2005) [FLAC] {4cd set}/CD4/06 - Cuba Gooding Sr. and The Main Ingredient - Everybody Plays The Fool.flac Track gain : -4.87 dB
Peak : 0.988556
CRC32 hash (test run) : 7734FEA8
CRC32 hash : 7734FEA8
CRC32 hash (skip zero) : ED5A5AC4
AccurateRip v1

Direct Download

Tags: Various, Artists, School, Factory

Various Artists - Old School Soul Party (2005) [4CD Set] {Shout! Factory} Download via Hotfile Rapidshare Fileserve Megaupload & FileSonic, Various Artists - Old School Soul Party (2005) [4CD Set] {Shout! Factory} free torrent downloads included crack, serial, keygen.


Attention!Information

Members of Guest cannot leave comments.