Slayer - God Send Death (2011)

Download Now

Slayer - God Send Death (2011)

Slayer - God Send Death (2011)
EAC | Flac(Image) + Cue + Log & MP3 CBR 320Kbps
Abyss, SYA-12112907 | Russia | Bootleg | ~ 449 or 164 Mb | Scans Included
Thrash Metal

~ Olimpiyskiy, Moscow, Russia, 15.03.2011 ~


Slayer - God Send Death (2011)

Slayer at Wiki | Slayer at Discogs | Slayer at Allmusic | Slayer HomePage

***********
Slayer - God Send Death (2011):

Slayer - God Send Death (2011)

Tracklist:

01. World Painted Blood (6:38)
02. Hate Worldwide (3:30)
03. War Ensemble (5:41)
04. Postmortem (3:43)
05. Hallowed Point (3:59)
06. Dead Skin Mask (5:53)
07. Silent Scream (3:19)
08. The Antichrist (3:54)
09. Americon (3:39)
10. Payback (3:42)
11. Mandatory Suicide (4:10)
12. Temptation (4:13)
13. South Of Heaven (4:38)
14. Raining Blood (2:54)
15. Black Magic (4:01)
16. Angel Of Death (5:50)

Exact Audio Copy V1.0 beta 3 from 29. August 2011

EAC extraction logfile from 30. July 2015, 17:15

Slayer / God Send Death (Moscow, Russia, Olimpiyskiy 2011.03.15)

Used drive : PIONEER DVD-RW DVR-215 Adapter: 0 ID: 0

Read mode : Secure
Utilize accurate stream : Yes
Defeat audio cache : Yes
Make use of C2 pointers : No

Read offset correction

: 48
Overread into Lead-In and Lead-Out : No
Fill up missing offset samples with silence : Yes
Delete leading and trailing silent blocks : No
Null samples used in CRC calculations : Yes
Used interface
: Native Win32 interface for Win NT & 2000

Used output format : User Defined Encoder
Selected bitrate : 1024 kBit/s
Quality : High
Add ID3 tag : No
Command line compressor : C:\Program Files (x86)\Exact Audio Copy\Flac\flac.exe
Additional command line options : -V -8 -T "Date=%year%" -T "Genre=%genre%" %source%

TOC of the extracted CD Track | Start | Length | Start sector | End sector
--1 | 0:00.00 | 6:38.27 | 0 | 29876 2 | 6:38.27 | 3:29.72 | 29877 | 45623 3 | 10:08.24 | 5:41.04 | 45624 | 71202 4 | 15:49.28 | 3:43.07 | 71203 | 87934 5 | 19:32.35 | 3:59.15 | 87935 | 105874 6 | 23:31.50 | 5:53.35 | 105875 | 132384 7 | 29:25.10 | 3:18.65 | 132385 | 147299 8 | 32:44.00 | 3:54.23 | 147300 | 164872 9 | 36:38.23 | 3:39.17 | 164873 | 181314
10 | 40:17.40 | 3:41.55 | 181315 | 197944
11 | 43:59.20 | 4:09.55 | 197945 | 216674
12 | 48:09.00 | 4:13.09 | 216675 | 235658
13 | 52:22.09 | 4:37.60 | 235659 | 256493
14 | 56:59.69 | 2:53.45 | 256494 | 269513
15 | 59:53.39 | 4:00.67 | 269514 | 287580
16 | 63:54.31 | 5:50.14 | 287581 | 313844

Range status and errors

Selected range Filename F:\bki71\Slayer\Slayer - God Send Death (Moscow, Russia, Olimpiyskiy 2011.03.15).wav Peak level 97.6 %
Extraction speed 7.7 X
Range quality 100.0 %
Test CRC A02D5FDA
Copy CRC A02D5FDA
Copy OK

No errors occurred


AccurateRip summary

Track 1 not present in database
Track 2 not present in database
Track 3 not present in database
Track 4 not present in database
Track 5 not present in database
Track 6 not present in database
Track 7 not present in database
Track 8 not present in database
Track 9 not present in database
Track 10 not present in database
Track 11 not present in database
Track 12 not present in database
Track 13 not present in database
Track 14 not present in database
Track 15 not present in database
Track 16 not present in database

None of the tracks are present in the AccurateRip database

End of status report

==== Log checksum 393138CDD947F186CF948658ABC121C17A10E4ED400A9121F658C47E769D8D76 ====

foobar2000 1.2.9 / Dynamic Range Meter 1.1.1
log date: 2015-07-31 23:49:15

Analyzed: Slayer / God Send Death (Moscow, Russia, Olimpiyskiy 2011.03.15)

DR Peak RMS Duration Track

DR9 -0.23 dB -12.09 dB 6:38 01-World Painted Blood
DR10 -0.22 dB -12.15 dB 3:30 02-Hate Worldwide
DR10 -0.21 dB -11.60 dB 5:41 03-War Ensemble
DR9 -0.21 dB -11.15 dB 3:43 04-Postmortem
DR10 -0.21 dB -11.55 dB 3:59 05-Hallowed Point
DR10 -0.22 dB -11.40 dB 5:53 06-Dead Skin Mask
DR10 -0.23 dB -11.27 dB 3:19 07-Silent Scream
DR10 -0.22 dB -12.83 dB 3:54 08-The Antichrist
DR8 -0.22 dB -10.82 dB 3:39 09-Americon
DR9 -0.22 dB -11.37 dB 3:42 10-Payback
DR9 -0.22 dB -10.96 dB 4:10 11-Mandatory Suicide
DR10 -0.21 dB -11.90 dB 4:13 12-Temptation
DR10 -0.21 dB -11.94 dB 4:38 13-South Of Heaven
DR10 -0.22 dB -11.26 dB 2:54 14-Raining Blood
DR10 -0.23 dB -12.23 dB 4:01 15-Black Magic
DR10 -0.23 dB -12.24 dB 5:50 16-Angel Of Death

Number of tracks: 16
Official DR value: DR10

Samplerate: 44100 Hz
Channels: 2
Bits per sample: 16
Bitrate: 858 kbps
Codec: FLAC

[CUETools log; Date: 31.07.2015 23:43:36; Version: 2.1.4]
[CTDB TOCID: M9nAM9IuW_DtETANK6qQ0cAg.Vk-] disk not present in database.
[AccurateRip ID: 0029df24-01edec97-d2105810] disk not present in database.

Track Peak [ CRC32 ] [W/O NULL] [ LOG ]
-- 97,6 [A02D5FDA] [FAF59789] CRC32
01 97,4 [3D623583] [165B9699]
02 97,4 [0C75989C] [512BD828]
03 97,5 [8F57E4BA] [8CFF5579]
04 97,6 [1640B775] [6D5D5145]
05 97,5 [7BD65C31] [C7788FE7]
06 97,4 [D425A809] [6590F193]
07 97,3 [16901C9D] [43921899]
08 97,5 [0A593362] [82AE6E59]
09 97,5 [02BBC2F8] [A3EC51A8]
10 97,5 [85A48414] [DA838491]
11 97,5 [C321EC0E] [3EFCF9EA]
12 97,6 [F212C89C] [62B3540B]
13 97,6 [132002C1] [AACC6969]
14 97,4 [A537D7C8] [31FFDA7E]
15 97,4 [FDD91AE1] [7F3D08CC]
16 97,3 [01A5EF8F] [72D26B8B]

Slayer - God Send Death (2011)

DOWNLOAD
(Premium Recommended)


All above links are interchangable. No password

Direct Download

Tags: Slayer

Slayer - God Send Death (2011) Download via Hotfile Rapidshare Fileserve Megaupload & FileSonic, Slayer - God Send Death (2011) free torrent downloads included crack, serial, keygen.


Attention!Information

Members of Guest cannot leave comments.