Rossini - Elisabetta, Regina d'Inghilterra (Gianfranco Masini, M.Caballe, J.Carreras, V.Masterson) [1992]

Download Now

Rossini - Elisabetta, Regina d'Inghilterra (Gianfranco Masini, M.Caballe, J.Carreras, V.Masterson) [1992]


Rossini - Elisabetta, Regina d'Inghilterra (Gianfranco Masini, M.Caballé, J.Carreras, V.Masterson) [1992]
EAC Rip | FLAC, IMG+CUE, LOG | Covers | 2cd, 547.43 MB
Classical | Label: Philips | Catalog Number: 432 453-2 | Total time : 2.21'20''

" Caballé is regal, and her final scene is a miracle of soft sweet inwardness.
The Naples years, 1815 to 1822, are at the very centre of Rossini's creative life. It is here that genius-''I had facility and lots of instinct''-was put to school. And firmly so: the serious masterpieces of the Naples years take as their subjects the Bible and Shakespeare, Scott and Racine, Tasso and English historical romance.
-- Richard Osborne, Gramophone [12/1992]
"

Performer:
Elisabetta - Montserrat Caballé
Leicester - José Carreras
Matilde - Valerie Masterson
Enrico - Rosanne Creffield
Norfolk - Ugo Benelli
Guglielmo - Neil Jenkins
Ambrosian Singers
London Symphony Orchestra
Conductor - Gianfranco Masini

Tracklisting:
CD1
01. Ouverture
02. Atto I. Introduzione: Più lieta, più bella
03. Recitativo: Nel giubilo comun, signore - Coro e Cavatina: Esulta, Elisa, omai
04. Quant'è grato all'alma mia
05. Questo cor ben lo comprende
06. Recitativo e Coro: Grandi del regno
07. Vieni, o prode
08. Recitativo: Alta Regina
09. Duetto: Incauta, che festi!
10. Recitativo ed Aria: Sconsigliata!
11. Sento un'interna voce
12. Recitativo: Che intesi!
13. Recitativo e Duetto: Colmo il duol
14. Perché mai, destin crudele
15. Misera! A quale stato
16. Recitativo: Guglielmo, ascolta
17. Finale I: Che penso
18. Se mi serbasti il soglio
19. Qual colpo inaspettato
20. Duce, in tal guisa
CD2
01. Atto II. Recitativo e Duetto: Dov'è Matilde?
02. Pens ache sol per poco
03. Non bastan quelle lagrime
04. Terzetto : Misero me!... La sposa
05. L'avverso mio destino
06. Ah! Fra poco, in faccia a morte
07. Recitativo: Chiede Norfolk a te l'accesso
08. Coro: Qui soffermiamo il piè
09. Aria: Che intesi!... Oh annunzio!
10. Deh! Troncate i ceppi suoi
11. Recitativo ed Aria: Della cieca fortuna
12. Sposa amata
13. Recitativo e Duetto: E l'adorata sposa
14. Deh! Scusa I trasporti
15. Recitativo, Aria e Rondò finale: Tu, regina! ... deh! come
16. Fellon, la pena avrai
17. Bell'alme generose
18. Leicester!

Exact Audio Copy V1.0 beta 1 from 15. November 2010

EAC extraction logfile from 22. August 2012, 17:01

Gianfranco Masini, M.Caballé, J.Carreras, V.Masterson, U.Benelli / Rossini - Elisabetta, Regina d'Inghilterra CD1

Used drive : PIONEER DVD-RW DVR-218L Adapter: 1 ID: 0

Read mode : Secure
Utilize accurate stream : Yes
Defeat audio cache : Yes
Make use of C2 pointers : No

Read offset correction

: 6
Overread into Lead-In and Lead-Out : No
Fill up missing offset samples with silence : Yes
Delete leading and trailing silent blocks : No
Null samples used in CRC calculations : Yes
Used interface
: Native Win32 interface for Win NT & 2000

Used output format : User Defined Encoder
Selected bitrate : 192 kBit/s
Quality : High
Add ID3 tag : No
Command line compressor : C:\Program Files\Exact Audio Copy\Flac\flac.exe
Additional command line options : -T "DATE=%y" -T "GENRE=%m" -8 -V %s

TOC of the extracted CD Track | Start | Length | Start sector | End sector
--1 | 0:00.33 | 7:19.00 | 33 | 32957 2 | 7:19.33 | 6:47.02 | 32958 | 63484 3 | 14:06.35 | 2:26.28 | 63485 | 74462 4 | 16:32.63 | 3:27.07 | 74463 | 89994 5 | 19:59.70 | 3:03.38 | 89995 | 103757 6 | 23:03.33 | 1:09.37 | 103758 | 108969 7 | 24:12.70 | 2:32.15 | 108970 | 120384 8 | 26:45.10 | 2:57.73 | 120385 | 133732 9 | 29:43.08 | 4:33.32 | 133733 | 154239
10 | 34:16.40 | 2:47.25 | 154240 | 166789
11 | 37:03.65 | 6:37.05 | 166790 | 196569
12 | 43:40.70 | 3:09.05 | 196570 | 210749
13 | 46:50.00 | 2:11.43 | 210750 | 220617
14 | 49:01.43 | 3:12.10 | 220618 | 235027
15 | 52:13.53 | 5:37.62 | 235028 | 260364
16 | 57:51.40 | 0:42.00 | 260365 | 263514
17 | 58:33.40 | 3:59.38 | 263515 | 281477
18 | 62:33.03 | 5:07.15 | 281478 | 304517
19 | 67:40.18 | 3:45.65 | 304518 | 321457
20 | 71:26.08 | 4:37.25 | 321458 | 342257

Range status and errors

Selected range Filename C:\Rossini - Elisabetta, Regina d'Inghilterra CD1.wav Peak level 100.0 %
Extraction speed 0.1 X
Range quality 99.9 %
Test CRC E50C02F7
Copy CRC E50C02F7
Copy OK

No errors occurred


AccurateRip summary

Track 1 accurately ripped (confidence 2) [9C2BC358]
Track 2 accurately ripped (confidence 3) [FBE4436A]
Track 3 accurately ripped (confidence 3) [CF8FA641]
Track 4 accurately ripped (confidence 3) [D6B3CCD9]
Track 5 accurately ripped (confidence 3) [DE7A0A36]
Track 6 accurately ripped (confidence 3) [12E9E67A]
Track 7 accurately ripped (confidence 3) [66137F9B]
Track 8 accurately ripped (confidence 3) [E7E83F24]
Track 9 accurately ripped (confidence 3) [CA310797]
Track 10 accurately ripped (confidence 3) [796C9CC9]
Track 11 accurately ripped (confidence 3) [87B3A042]
Track 12 accurately ripped (confidence 3) [076190C3]
Track 13 accurately ripped (confidence 3) [C5ED947E]
Track 14 accurately ripped (confidence 3) [A91292C7]
Track 15 accurately ripped (confidence 3) [1724BCAE]
Track 16 accurately ripped (confidence 3) [4CD0B229]
Track 17 accurately ripped (confidence 3) [F05497D3]
Track 18 accurately ripped (confidence 3) [0EFED361]
Track 19 accurately ripped (confidence 3) [E3C1BA87]
Track 20 accurately ripped (confidence 2) [2EE77A6A]

All tracks accurately ripped

End of status report

==== Log checksum 0FB0C9885D37DE4A2AE8FF2543283D3E19413204A9DA6EA8AC5FA5422BFA9B7A ====



Exact Audio Copy V1.0 beta 1 from 15. November 2010

EAC extraction logfile from 22. August 2012, 18:30

Gianfranco Masini, M.Caballé, J.Carreras, V.Masterson, U.Benelli / Rossini - Elisabetta, Regina d'Inghilterra CD2

Used drive : PIONEER DVD-RW DVR-218L Adapter: 1 ID: 0

Read mode : Secure
Utilize accurate stream : Yes
Defeat audio cache : Yes
Make use of C2 pointers : No

Read offset correction

: 6
Overread into Lead-In and Lead-Out : No
Fill up missing offset samples with silence : Yes
Delete leading and trailing silent blocks : No
Null samples used in CRC calculations : Yes
Used interface
: Native Win32 interface for Win NT & 2000

Used output format : User Defined Encoder
Selected bitrate : 192 kBit/s
Quality : High
Add ID3 tag : No
Command line compressor : C:\Program Files\Exact Audio Copy\Flac\flac.exe
Additional command line options : -T "DATE=%y" -T "GENRE=%m" -8 -V %s

TOC of the extracted CD Track | Start | Length | Start sector | End sector
--1 | 0:00.33 | 4:18.32 | 33 | 19414 2 | 4:18.65 | 3:13.30 | 19415 | 33919 3 | 7:32.20 | 3:38.68 | 33920 | 50337 4 | 11:11.13 | 1:24.52 | 50338 | 56689 5 | 12:35.65 | 3:28.38 | 56690 | 72327 6 | 16:04.28 | 2:16.07 | 72328 | 82534 7 | 18:20.35 | 0:56.10 | 82535 | 86744 8 | 19:16.45 | 4:00.63 | 86745 | 104807 9 | 23:17.33 | 4:39.50 | 104808 | 125782
10 | 27:57.08 | 5:16.25 | 125783 | 149507
11 | 33:13.33 | 4:54.00 | 149508 | 171557
12 | 38:07.33 | 5:40.00 | 171558 | 197057
13 | 43:47.33 | 1:53.57 | 197058 | 205589
14 | 45:41.15 | 4:22.68 | 205590 | 225307
15 | 50:04.08 | 4:23.70 | 225308 | 245102
16 | 54:28.03 | 3:01.42 | 245103 | 258719
17 | 57:29.45 | 4:42.73 | 258720 | 279942
18 | 62:12.43 | 3:04.65 | 279943 | 293807

Range status and errors

Selected range Filename C:\Rossini - Elisabetta, Regina d'Inghilterra CD2.wav Peak level 99.3 %
Extraction speed 0.0 X
Range quality 99.9 %
Test CRC B1EE3672
Copy CRC B1EE3672
Copy OK

No errors occurred


AccurateRip summary

Track 1 accurately ripped (confidence 2) [19F7B10B]
Track 2 accurately ripped (confidence 2) [6D15F3C1]
Track 3 accurately ripped (confidence 2) [E61741D9]
Track 4 accurately ripped (confidence 2) [D0458DBB]
Track 5 accurately ripped (confidence 2) [4D7013D3]
Track 6 accurately ripped (confidence 2) 7BEB269
Track 7 accurately ripped (confidence 2) [031D5725]
Track 8 accurately ripped (confidence 2) [CEBC40A2]
Track 9 accurately ripped (confidence 2) [DF1858DF]
Track 10 accurately ripped (confidence 2) [C8F168D1]
Track 11 accurately ripped (confidence 2) [0AB56E46]
Track 12 accurately ripped (confidence 2) [CBAE88C0]
Track 13 accurately ripped (confidence 2) [1239EFEF]
Track 14 accurately ripped (confidence 2) [2AAADB7C]
Track 15 accurately ripped (confidence 2) [35E5D8AC]
Track 16 accurately ripped (confidence 2) DE89BC7
Track 17 accurately ripped (confidence 2) [A907322E]
Track 18 accurately ripped (confidence 2) [7E28BAD1]

All tracks accurately ripped

End of status report

==== Log checksum B76E0D4CFDDD673863F7FB195D5B8F97E7AD1F7AB11386A1F6E8DFDC3518A869 ====
Download Links:
(Premium Recommended)


All above links are interchangable. No password

Direct Download

Tags: Rossini, Elisabetta, Regina, Inghilterra, Gianfranco, Masini, Caballe, Carreras, Masterson

Rossini - Elisabetta, Regina d'Inghilterra (Gianfranco Masini, M.Caballe, J.Carreras, V.Masterson) [1992] Download via Hotfile Rapidshare Fileserve Megaupload & FileSonic, Rossini - Elisabetta, Regina d'Inghilterra (Gianfranco Masini, M.Caballe, J.Carreras, V.Masterson) [1992] free torrent downloads included crack, serial, keygen.


Attention!Information

Members of Guest cannot leave comments.