Marcel Dupré - Ben van Oosten - Organ Works Vol. 9 (2008, MDG "Gold" # 316 1291-2) [RE-UP]

Download Now


Marcel Dupré - Ben van Oosten - Organ Works Vol. 9 (2008, MDG "Gold" # 316 1291-2) [RE-UP]
Marcel Dupré - Ben van Oosten - Organ Works Vol. 9
Organ of Saint-Étienne-du-Mont, Paris
EAC+LOG+CUE | FLAC: 231 MB | Full Artwork: 117 MB | 5% Recovery Info
Label/Cat#: MDG "Gold" # 316 1291-2 | Country/Year: Germany 2008
Genre: Classical | Style: Style: 20th Century, Organ

""...In many ways Dupré may be viewed as a 'Paganini' of the organ - being a virtuoso of the highest order, he contributed extensively to the development of technique (both in his organ music and in his pedagogical works) although, like Paganini, his music is relatively unknown to musicians other than those who play the instrument for which the music was written. A fair and objective critique of his music should take into account the fact that, occasionally, the emphasis on virtuosity and technique can be detrimental to the musical content and substance. However, his more successful works combine this virtuosity with a high degree of musical integrity, qualities found in works such as the Symphonie-Passion, the Chemin de la Croix, the Preludes and Fugues, the Esquisses and Évocation, and the Cortège et Litanie..." ~wikipedia"



Marcel Dupré - Ben van Oosten - Organ Works Vol. 9 (2008, MDG "Gold" # 316 1291-2) [RE-UP]



Exact Audio Copy V1.0 beta 3 from 29. August 2011

EAC extraction logfile from 5. June 2013, 19:27

Ben van Oosten / Dupré: Organ Works Vol. 9

Used drive : PIONEER BD-RW BDR-206 Adapter: 0 ID: 2

Read mode : Secure
Utilize accurate stream : Yes
Defeat audio cache : Yes
Make use of C2 pointers : No

Read offset correction

: 667
Overread into Lead-In and Lead-Out : No
Fill up missing offset samples with silence : Yes
Delete leading and trailing silent blocks : No
Null samples used in CRC calculations : Yes
Used interface
: Native Win32 interface for Win NT & 2000

Used output format : User Defined Encoder
Selected bitrate : 1024 kBit/s
Quality : High
Add ID3 tag : Yes
Command line compressor : C:\Program Files\FLAC\flac.exe
Additional command line options : -5 -T "Artist=%artist%" -T "Title=%title%" -T "Album=%albumtitle%" -T "Date=%year%" -T "Tracknumber=%tracknr%" -T "Genre=%genre%" %source% -o %dest%

TOC of the extracted CD Track | Start | Length | Start sector | End sector
--1 | 0:00.00 | 1:11.20 | 0 | 5344 2 | 1:11.20 | 3:12.09 | 5345 | 19753 3 | 4:23.29 | 1:45.42 | 19754 | 27670 4 | 6:08.71 | 1:50.38 | 27671 | 35958 5 | 7:59.34 | 1:49.71 | 35959 | 44204 6 | 9:49.30 | 1:34.40 | 44205 | 51294 7 | 11:23.70 | 1:58.68 | 51295 | 60212 8 | 13:22.63 | 1:42.55 | 60213 | 67917 9 | 15:05.43 | 1:44.59 | 67918 | 75776
10 | 16:50.27 | 1:19.04 | 75777 | 81705
11 | 18:09.31 | 3:33.63 | 81706 | 97743
12 | 21:43.19 | 1:20.47 | 97744 | 103790
13 | 23:03.66 | 1:12.41 | 103791 | 109231
14 | 24:16.32 | 1:39.61 | 109232 | 116717
15 | 25:56.18 | 3:01.46 | 116718 | 130338
16 | 28:57.64 | 1:51.17 | 130339 | 138680
17 | 30:49.06 | 2:11.54 | 138681 | 148559
18 | 33:00.60 | 1:28.52 | 148560 | 155211
19 | 34:29.37 | 3:02.06 | 155212 | 168867
20 | 37:31.43 | 1:22.16 | 168868 | 175033
21 | 38:53.59 | 2:12.13 | 175034 | 184946
22 | 41:05.72 | 2:15.33 | 184947 | 195104
23 | 43:21.30 | 1:31.42 | 195105 | 201971
24 | 44:52.72 | 2:10.28 | 201972 | 211749
25 | 47:03.25 | 10:08.29 | 211750 | 257378
26 | 57:11.54 | 4:41.48 | 257379 | 278501
27 | 61:53.27 | 5:29.15 | 278502 | 303191

Range status and errors

Selected range Filename F:\=== VINYL RIPS ===\=== EAC===\X FRESH RIP\Ben van Oosten - Dupré- Organ Works Vol. 9.wav Peak level 98.8 %
Extraction speed 7.9 X
Range quality 100.0 %
Copy CRC 07FC1C95
Copy OK

No errors occurred


AccurateRip summary

Track 1 accurately ripped (confidence 2) [FF201C41] (AR v1)
Track 2 accurately ripped (confidence 2) [3B799076] (AR v1)
Track 3 accurately ripped (confidence 2) [2F4B7092] (AR v1)
Track 4 accurately ripped (confidence 2) [E03E5FE2] (AR v1)
Track 5 accurately ripped (confidence 2) [D43D8A32] (AR v1)
Track 6 accurately ripped (confidence 2) [17220287] (AR v1)
Track 7 accurately ripped (confidence 2) [268A24EC] (AR v1)
Track 8 accurately ripped (confidence 2) [D9A73D61] (AR v1)
Track 9 accurately ripped (confidence 2) [2ED23CA1] (AR v1)
Track 10 accurately ripped (confidence 2) [52A24B94] (AR v1)
Track 11 accurately ripped (confidence 2) [74220269] (AR v1)
Track 12 accurately ripped (confidence 2) [47C9F5A9] (AR v1)
Track 13 accurately ripped (confidence 2) [F5CAB43D] (AR v1)
Track 14 accurately ripped (confidence 2) [F2D0530F] (AR v1)
Track 15 accurately ripped (confidence 2) [6DEFF098] (AR v1)
Track 16 accurately ripped (confidence 2) [29AA2EEA] (AR v1)
Track 17 accurately ripped (confidence 2) [336EF096] (AR v1)
Track 18 accurately ripped (confidence 2) [59647960] (AR v1)
Track 19 accurately ripped (confidence 2) [C1AAF5BB] (AR v1)
Track 20 accurately ripped (confidence 2) [647964BA] (AR v1)
Track 21 accurately ripped (confidence 2) [E710B65A] (AR v1)
Track 22 accurately ripped (confidence 2) [DF67B3B2] (AR v1)
Track 23 accurately ripped (confidence 2) [5CF03FB8] (AR v1)
Track 24 accurately ripped (confidence 2) [6B4C9A96] (AR v1)
Track 25 accurately ripped (confidence 2) [A3DF1736] (AR v1)
Track 26 accurately ripped (confidence 2) [784380EB] (AR v1)
Track 27 accurately ripped (confidence 2) [794CC26C] (AR v1)

All tracks accurately ripped

End of status report

- CUETools DB Plugin V2.1.3

[CTDB TOCID: .ErSZkGgNAmn2hf5RgvOPIdFqjQ-] found, Submit result: .ErSZkGgNAmn2hf5RgvOPIdFqjQ- has been confirmed
[5e84cad4] (2/2) Accurately ripped

==== Log checksum 2DB03B16116A3A183D5A6015F8524F52318DD7E3A85C53BF9EFB3691C7763473 ====

foobar2000 1.1.14a / Dynamic Range Meter 1.1.1
log date: 2013-06-06 12:18:21

Analyzed: Ben van Oosten / Dupré: Organ Works Vol. 9

DR Peak RMS Duration Track

DR7 -11.17 dB -24.20 dB 1:11 01-Inventions op.50 - 01 - C major
DR10 -9.22 dB -21.85 dB 3:12 02-Inventions op.50 - 02 - A minor
DR9 -16.50 dB -29.33 dB 1:46 03-Inventions op.50 - 03 - G major
DR9 -8.78 dB -22.45 dB 1:51 04-Inventions op.50 - 04 - E minor
DR8 -13.96 dB -26.88 dB 1:50 05-Inventions op.50 - 05 - F major
DR10 -8.66 dB -22.61 dB 1:35 06-Inventions op.50 - 06 - D minor
DR8 -14.47 dB -28.04 dB 1:59 07-Inventions op.50 - 07 - D major
DR7 -12.56 dB -25.96 dB 1:43 08-Inventions op.50 - 08 - B minor
DR10 -11.56 dB -25.81 dB 1:45 09-Inventions op.50 - 09 - B flat major
DR9 -20.02 dB -32.39 dB 1:19 10-Inventions op.50 - 10 - G minor
DR10 -18.63 dB -31.81 dB 3:34 11-Inventions op.50 - 11 - A major
DR11 -15.14 dB -27.75 dB 1:21 12-Inventions op.50 - 12 - F sharp minor
DR10 -16.20 dB -30.82 dB 1:13 13-Inventions op.50 - 13 - E flat major
DR9 -13.26 dB -27.31 dB 1:40 14-Inventions op.50 - 14 - C minor
DR8 -16.14 dB -28.66 dB 3:02 15-Inventions op.50 - 15 - E major
DR8 -11.82 dB -24.45 dB 1:51 16-Inventions op.50 - 16 - C sharp minor
DR8 -11.59 dB -24.54 dB 2:12 17-Inventions op.50 - 17 - A flat major
DR10 -3.91 dB -18.44 dB 1:29 18-Inventions op.50 - 18 - F minor
DR6 -11.45 dB -23.71 dB 3:02 19-Inventions op.50 - 19 - B major
DR7 -15.53 dB -28.34 dB 1:22 20-Inventions op.50 - 20 - G sharp minor
DR6 -12.70 dB -23.23 dB 2:12 21-Inventions op.50 - 21 - D flat major
DR9 -9.29 dB -20.92 dB 2:15 22-Inventions op.50 - 22 - B flat minor
DR9 -20.65 dB -33.10 dB 1:32 23-Inventions op.50 - 23 - G flat major
DR7 -17.84 dB -29.34 dB 2:10 24-Inventions op.50 - 24 - E flat minor
DR14 -0.47 dB -21.99 dB 10:08 25-Trois Hymnes op.58 - Matines
DR9 -10.45 dB -24.33 dB 4:42 26-Trois Hymnes op.58 - Vesper
DR13 -0.10 dB -19.18 dB 5:29 27-Trois Hymnes op.58 - Laudes

Number of tracks: 27
Official DR value: DR9

Samplerate: 44100 Hz
Channels: 2
Bits per sample: 16
Bitrate: 458 kbps
Codec: FLAC

CD Info:

Ben van Oosten - Dupré: Organ Works Vol. 9

Organ of Saint-Étienne-du-Mont, Paris

Label: MDG
Series: Gold
Catalog#: 316 1291-2
Format: CD, Album
Country: Germany
Released: 2008
Genre: Classical
Style: 20th Century, Organ

Tracklist:

1 Inventions op.50 - 01 - C major 1:11
2 Inventions op.50 - 02 - A minor 3:12
3 Inventions op.50 - 03 - G major 1:46
4 Inventions op.50 - 04 - E minor 1:51
5 Inventions op.50 - 05 - F major 1:50
6 Inventions op.50 - 06 - D minor 1:35
7 Inventions op.50 - 07 - D major 1:59
8 Inventions op.50 - 08 - B minor 1:43
9 Inventions op.50 - 09 - B flat major 1:45
10 Inventions op.50 - 10 - G minor 1:19
11 Inventions op.50 - 11 - A major 3:34
12 Inventions op.50 - 12 - F sharp minor 1:21
13 Inventions op.50 - 13 - E flat major 1:13
14 Inventions op.50 - 14 - C minor 1:40
15 Inventions op.50 - 15 - E major 3:02
16 Inventions op.50 - 16 - C sharp minor 1:51
17 Inventions op.50 - 17 - A flat major 2:12
18 Inventions op.50 - 18 - F minor 1:29
19 Inventions op.50 - 19 - B major 3:02
20 Inventions op.50 - 20 - G sharp minor 1:22
21 Inventions op.50 - 21 - D flat major 2:12
22 Inventions op.50 - 22 - B flat minor 2:15
23 Inventions op.50 - 23 - G flat major 1:32
24 Inventions op.50 - 24 - E flat minor 2:10
25 Trois Hymnes op.58 - Matines 10:08
26 Trois Hymnes op.58 - Vesper 4:42
27 Trois Hymnes op.58 - Laudes 5:29

"Marcel Dupré (3 May 1886 - 30 May 1971) was a French organist, pianist, composer, and pedagogue.

Marcel Dupré was born in Rouen (Normandy, France). Born into a musical family, he was a child prodigy. His father Albert Dupré was organist in Rouen and a friend of Aristide Cavaillé-Coll, who built an organ in the family house when Marcel was 14 years old. He entered the Paris Conservatoire in 1904, where he studied with Louis Diémer and Lazare Lévy (piano), Alexandre Guilmant and Louis Vierne (organ), and Charles-Marie Widor (fugue and composition). In 1914, Dupré won the Grand Prix de Rome for his cantata, Psyché. In 1926, he was appointed professor of organ performance and improvisation at the Paris Conservatoire, a position he held until 1954.

Dupré became famous for performing more than 2000 organ recitals throughout Australia, the United States, Canada and Europe, which included a recital series of 10 concerts of the complete works of Johann Sebastian Bach in 1920 (Paris Conservatoire) and 1921 (Palais du Trocadéro), both performed entirely from memory. The sponsorship of an American transcontinental tour by the John Wanamaker department store interests rocketed his name into international prominence. Dupré's "Symphonie-Passion" began as an improvisation on Philadelphia's Wanamaker Organ. In 1924, he was elected as an honorary member of Phi Mu Alpha Sinfonia Fraternity, by the Fraternity's Alpha Chapter at the New England Conservatory in Boston.

In 1934, Dupré succeeded Charles-Marie Widor as titular organist at St. Sulpice in Paris, a post he held until his death in 1971.

From 1947 to 1954, he was director of the American Conservatory, which occupies the Louis XV wing of the Château de Fontainebleau near Paris. In 1954, Dupré succeeded Claude Delvincourt as director of the Paris Conservatoire, where he remained until 1956. He died in 1971 in Meudon (near Paris) at the age of 85.

As a composer, he produced a wide-ranging oeuvre of 65 opus numbers, and also taught two generations of well-known organists such as Jehan Alain and Marie-Claire Alain, Jean-Marie Beaudet, Pierre Cochereau, Jeanne Demessieux, Rolande Falcinelli, Jean-Jacques Grunenwald, Jean Guillou, Jean Langlais, Carl Weinrich and Olivier Messiaen, to name only a few. Aside from a few fine works for aspiring organists (such as the 79 Chorales op. 28) most of Dupré's music for the organ ranges from moderately to extremely difficult, and some of it makes almost impossible technical demands on the performer (e.g., Évocation op. 37, Suite, op. 39, Deux Esquisses op. 41, Vision op. 44).

His most often heard and recorded compositions tend to be from the earlier years of his career. During this time he wrote the Three Preludes and Fugues, Op. 7 (1914), with the First and Third Preludes (in particular the G minor with its phenomenally fast tempo/figurations and pedal chords) being pronounced unplayable by no less a figure than Widor. Indeed, such is their difficulty that Dupré was the only organist able to play them until several years later.

In many ways Dupré may be viewed as a 'Paganini' of the organ - being a virtuoso of the highest order, he contributed extensively to the development of technique (both in his organ music and in his pedagogical works) although, like Paganini, his music is relatively unknown to musicians other than those who play the instrument for which the music was written. A fair and objective critique of his music should take into account the fact that, occasionally, the emphasis on virtuosity and technique can be detrimental to the musical content and substance. However, his more successful works combine this virtuosity with a high degree of musical integrity, qualities found in works such as the Symphonie-Passion, the Chemin de la Croix, the Preludes and Fugues, the Esquisses and Évocation, and the Cortège et Litanie.

As well as composing prolifically, Dupré prepared study editions of the organ works of Bach, Handel, Mozart, Liszt, Mendelssohn, Schumann, César Franck, and Alexander Glazunov. He also wrote a method for organ (1927), 2 treatises on organ improvisation (1926 and 1937), and books on harmonic analysis (1936), counterpoint (1938), fugue (1938), and accompaniment of Gregorian chant (1937), in addition to essays on organ building, acoustics, and philosophy of music. As an improviser, Dupré excelled as perhaps no other did during the 20th century, and he was able to take given themes and spontaneously weave whole symphonies around them, often with elaborate contrapuntal devices including fugues. The achievement of these feats was partially due to his unsurpassed genius and partially due to his hard work doing paper exercises when he was not busy practising or composing.

Although his emphasis as composer was the organ, Dupré's catalog of musical compositions also includes works for piano, orchestra and choir, as well as chamber music, and a number of transcriptions. Some works initially published by HW Gray and now out of print have begun to be reissued by Crescendo Music Publications. wikipedia"


Composer:

Johann Sebastian Bach

Woldemar Bargiel

Ludwig van Beethoven

Marcel Dupre

Johann Nepomuk Hummel

Robert Schumann

Performer:

BeethovenQuartet

Musica Alta Ripa

Trio Parnassus


Marcel Dupré - Ben van Oosten - Organ Works Vol. 9 (2008, MDG "Gold" # 316 1291-2) [RE-UP]


Download links:
(Buy premium account via my links to have best speed and resumable ability)


Interchangeable links - No Pass

Direct Download

Tags: Marcel, Oosten

Marcel Dupré - Ben van Oosten - Organ Works Vol. 9 (2008, MDG "Gold" # 316 1291-2) [RE-UP] Download via Hotfile Rapidshare Fileserve Megaupload & FileSonic, Marcel Dupré - Ben van Oosten - Organ Works Vol. 9 (2008, MDG "Gold" # 316 1291-2) [RE-UP] free torrent downloads included crack, serial, keygen.


Attention!Information

Members of Guest cannot leave comments.