D.A.D. - Everything Glows (2000)

Download Now

D.A.D. - Everything Glows (2000)

D-A-D - Everything Glows (2000)
EAC Rip | FLAC: Tracks+Cue+Log | 374 Mb | MP3 CBR 320 kbps | 153 Mb | Scans | 87 Mb | Time: 45:03
Genre: Hard Rock, Party Rock, Glam/Alternative | Label: EMI/Medley Records | Cat.№: EMI 5260212

"Everything Glows was the seventh album released by Danish rock band D-A-D. The album was released on April 13, 2000, and was the first album with new drummer Laust Sonne. With the release of this album the band also changed the spelling of the band from D:A:D to the current D-A-D."



Track Listing

01. Everything Glows (03:44)
02. Nineteenhundredandyesterday (04:58)
03. The Road Below Me (03:38)
04. Something Good (04:18)
05. Sunstar (04:48)
06. Evil Twin (03:06)
07. Candybar (04:30)
08. A Kiss Between The Legs (04:33)
09. I'm Not The Same (03:30)
10. Summer Me Soon (03:30)
11. As Common As (04:24)

Produced by Nick Foss

The Band

* Jacob Binzer - Guitars, Keyboards and Backing Vocals
* Stig Pedersen - Bass and Backing Vocals
* Jesper Binzer - Vocals, Guitars and Backing Vocals
* Laust Sonne - Drums, Vibraphone, Keyboards and Backing Vocals

D.A.D. - Everything Glows (2000)



Exact Audio Copy V0.99 prebeta 5 from 4. May 2009

EAC extraction logfile from 10. April 2010, 10:35

D-A-D / Everything Glows

Used drive : _NEC DVD_RW ND-3520A Adapter: 0 ID: 2

Read mode : Secure
Utilize accurate stream : Yes
Defeat audio cache : Yes
Make use of C2 pointers : No

Read offset correction

: 48
Overread into Lead-In and Lead-Out : No
Fill up missing offset samples with silence : Yes
Delete leading and trailing silent blocks : No
Null samples used in CRC calculations : Yes
Used interface
: Native Win32 interface for Win NT & 2000
Gap handling
: Appended to previous track

Used output format : User Defined Encoder
Selected bitrate : 320 kBit/s
Quality : High
Add ID3 tag : No
Command line compressor : D:\Program Files\FLAC_frontend\flac.exe
Additional command line options : -8 -V -T "ARTIST=%a" -T "TITLE=%t" -T "ALBUM=%g" -T "DATE=%y" -T "TRACKNUMBER=%n" -T "GENRE=%m" -T "COMMENT=EAC FLAC -8" %s

TOC of the extracted CD Track | Start | Length | Start sector | End sector
--1 | 0:00.00 | 3:44.40 | 0 | 16839 2 | 3:44.40 | 4:58.22 | 16840 | 39211 3 | 8:42.62 | 3:38.00 | 39212 | 55561 4 | 12:20.62 | 4:18.55 | 55562 | 74966 5 | 16:39.42 | 4:48.33 | 74967 | 96599 6 | 21:28.00 | 3:06.62 | 96600 | 110611 7 | 24:34.62 | 4:30.20 | 110612 | 130881 8 | 29:05.07 | 4:33.00 | 130882 | 151356 9 | 33:38.07 | 3:30.23 | 151357 | 167129
10 | 37:08.30 | 3:30.35 | 167130 | 182914
11 | 40:38.65 | 4:24.00 | 182915 | 202714

Track 1 Filename H:\D-A-D - Original Discography\2000 - Everything Glows\01. D-A-D - Everything Glows.wav Pre-gap length 0:00:02.00 Peak level 96.1 %
Track quality 100.0 %
Test CRC D8AA2BDA
Copy CRC D8AA2BDA
Accurately ripped (confidence 57) [2BD3F458]
Copy OK

Track 2 Filename H:\D-A-D - Original Discography\2000 - Everything Glows\02. D-A-D - Nineteenhundredandyesterday.wav Peak level 97.7 %
Track quality 100.0 %
Test CRC 56CD3A4C
Copy CRC 56CD3A4C
Accurately ripped (confidence 56) [78FF5B92]
Copy OK

Track 3 Filename H:\D-A-D - Original Discography\2000 - Everything Glows\03. D-A-D - The Road Below Me.wav Peak level 97.7 %
Track quality 100.0 %
Test CRC DE2AA125
Copy CRC DE2AA125
Accurately ripped (confidence 57) [80CEA6A9]
Copy OK

Track 4 Filename H:\D-A-D - Original Discography\2000 - Everything Glows\04. D-A-D - Something Good.wav Pre-gap length 0:00:02.40 Peak level 97.7 %
Track quality 100.0 %
Test CRC 2E816AD2
Copy CRC 2E816AD2
Accurately ripped (confidence 57) [AC631616]
Copy OK

Track 5 Filename H:\D-A-D - Original Discography\2000 - Everything Glows\05. D-A-D - Sunstar.wav Peak level 97.7 %
Track quality 100.0 %
Test CRC 0D68CC8D
Copy CRC 0D68CC8D
Accurately ripped (confidence 57) [837ED0FC]
Copy OK

Track 6 Filename H:\D-A-D - Original Discography\2000 - Everything Glows\06. D-A-D - Evil Twin.wav Peak level 97.7 %
Track quality 100.0 %
Test CRC EBA180F3
Copy CRC EBA180F3
Accurately ripped (confidence 57) [EDBA9B9F]
Copy OK

Track 7 Filename H:\D-A-D - Original Discography\2000 - Everything Glows\07. D-A-D - Candybar.wav Peak level 97.7 %
Track quality 100.0 %
Test CRC ABFDCC0D
Copy CRC ABFDCC0D
Accurately ripped (confidence 56) 9EBF30E
Copy OK

Track 8 Filename H:\D-A-D - Original Discography\2000 - Everything Glows\08. D-A-D - A Kiss Between The Legs.wav Peak level 97.7 %
Track quality 100.0 %
Test CRC 699F275D
Copy CRC 699F275D
Accurately ripped (confidence 57) [991A95CC]
Copy OK

Track 9 Filename H:\D-A-D - Original Discography\2000 - Everything Glows\09. D-A-D - I'm Not The Same.wav Peak level 97.7 %
Track quality 100.0 %
Test CRC 66B84E43
Copy CRC 66B84E43
Accurately ripped (confidence 57) [678A087D]
Copy OK

Track 10 Filename H:\D-A-D - Original Discography\2000 - Everything Glows\10. D-A-D - Summer Me Soon.wav Peak level 97.7 %
Track quality 100.0 %
Test CRC 50659F84
Copy CRC 50659F84
Accurately ripped (confidence 57) [F28D141E]
Copy OK

Track 11 Filename H:\D-A-D - Original Discography\2000 - Everything Glows\11. D-A-D - As Common As.wav Peak level 97.7 %
Track quality 99.9 %
Test CRC 071A189A
Copy CRC 071A189A
Accurately ripped (confidence 56) [7F51F4B1]
Copy OK

All tracks accurately ripped

No errors occurred

End of status report

Many thanks to the original uploader: amoral
DOWNLOAD
(Premium Recommended)


All above links are interchangable. No password

Direct Download

Tags: Everything

D.A.D. - Everything Glows (2000) Download via Hotfile Rapidshare Fileserve Megaupload & FileSonic, D.A.D. - Everything Glows (2000) free torrent downloads included crack, serial, keygen.


Attention!Information

Members of Guest cannot leave comments.