Ravi Shankar - Live: Ravi Shankar At The Monterey International Pop Festival (1967)

Download Now

Ravi Shankar - Live: Ravi Shankar At The Monterey International Pop Festival (1967)

Ravi Shankar - Live: Ravi Shankar At The Monterey International Pop Festival (1967)
EAC Rip | FLAC with CUE and log | scans | 312 mb
MP3 CBR 320kbps | RAR | 139 mb
Genre: Indian classical, world

Live: Ravi Shankar At The Monterey International Pop Festival is a 1967 album by Ravi Shankar. It is the full recording from the historic music festival in California on 18 June, 1967. He is joined by Alla Rakha on tabla and Kamala on tamboura. This is from the 1998 CD on Angel Records.
Ravi Shankar - Live: Ravi Shankar At The Monterey International Pop Festival (1967)

1. Raga Bhimpalasi
2. Tabla Solo in Ektal
3. Dhun (Dadra and Fast Teental)

Ravi Shankar - Live: Ravi Shankar At The Monterey International Pop Festival (1967)



EAC extraction logfile from 12. June 2007, 7:03 for CD
Ravi Shankar / Live: Ravi Shankar At The Monterey International Pop Festival

Used drive : LITE-ON DVDRW SOHW-1633S Adapter: 0 ID: 0
Read mode : Secure with NO C2, accurate stream, disable cache
Read offset correction : 12
Overread into Lead-In and Lead-Out : No

Used output format : Internal WAV Routines 44.100 Hz; 16 Bit; Stereo

Other options :
Fill up missing offset samples with silence : Yes
Delete leading and trailing silent blocks : No
Installed external ASPI interface

Track 1
Filename D:\FLAC\Ravi Shankar - Live, Ravi Shankar At The Monterey International Pop Festival (1967) [FLAC]\01 - Raga Bhimpalasi.wav Pre-gap length 0:00:02.00 Peak level 62.5 %
Track quality 100.0 %
Test CRC 4623E56F
Copy CRC 4623E56F
Copy OK

Track 2
Filename D:\FLAC\Ravi Shankar - Live, Ravi Shankar At The Monterey International Pop Festival (1967) [FLAC]\02 - Tabla Solo in Ektal.wav Peak level 84.3 %
Track quality 100.0 %
Test CRC C13CD41A
Copy CRC C13CD41A
Copy OK

Track 3
Filename D:\FLAC\Ravi Shankar - Live, Ravi Shankar At The Monterey International Pop Festival (1967) [FLAC]\03 - Dhun (Dadra and Fast Teental).wav Peak level 69.1 %
Track quality 100.0 %
Test CRC 2C286FA0
Copy CRC 2C286FA0
Copy OK

No errors occured

End of status report
Download Links:
(Premium Recommended)


All above links are interchangable. No password

Direct Download

Tags: Shankar, Shankar, Monterey, International, Festival

Ravi Shankar - Live: Ravi Shankar At The Monterey International Pop Festival (1967) Download via Hotfile Rapidshare Fileserve Megaupload & FileSonic, Ravi Shankar - Live: Ravi Shankar At The Monterey International Pop Festival (1967) free torrent downloads included crack, serial, keygen.


Attention!Information

Members of Guest cannot leave comments.