Pentatonik - Anthology (1994)

Download Now

Pentatonik - Anthology (1994)

Pentatonik - Anthology (1994)
EAC Rip | FLAC (image+.cue+log) - 773 MB | MP3 CBR 320 kbps (LAME 3.93) - 283 MB | Covers - 90 MB
Genre: IDM, Ambient | RAR 3% Rec. | Label: Deviant Records (dvnt1cd)

"Pentatonik (UK) is the name of R.Simeon Bowring's solo project combining electronic and live instrumentation. Bowring released his first album Anthology in 1994 on Deviant Records. The music of Pentatonik combines strong melodies, classical progressions and experimental electronic soundscapes. The sound is both subtle and epic at the same time."

CD 1 Tracklist:

Movements
01. Part 1
02. Part 2
03. Part 3
04. Part 4

Reworks
05. About That
06. La Verite
07. Solution
08. Create

Total time: 01:01:01

CD 2 Tracklist:

Awakenings
01. The Sleeper
02. Pentatonik Melody
03. Prophesy
04. Passion

Additions
05. Green
06. Real
07. Detox
08. Part 4 Live

Total time: 59:18

Exact Audio Copy V0.99 prebeta 5 from 4. May 2009

EAC extraction logfile from 28. March 2010, 17:23

Pentatonik / Anthology CD1

Used drive : ASUS CRW-4816A Adapter: 2 ID: 1

Read mode : Secure
Utilize accurate stream : Yes
Defeat audio cache : Yes
Make use of C2 pointers : No

Read offset correction

: 12
Overread into Lead-In and Lead-Out : No
Fill up missing offset samples with silence : Yes
Delete leading and trailing silent blocks : No
Null samples used in CRC calculations : Yes
Used interface
: Installed external ASPI interface

Used output format : User Defined Encoder
Selected bitrate : 1024 kBit/s
Quality : High
Add ID3 tag : No
Command line compressor : C:\Program Files\Exact Audio Copy\FLAC\FLAC.EXE
Additional command line options : -8 -V -T "ARTIST=%a" -T "ALBUM=%g" -T "DATE=%y" -T "GENRE=%m" %s -o %d

TOC of the extracted CD Track | Start | Length | Start sector | End sector
--1 | 0:00.00 | 7:28.17 | 0 | 33616 2 | 7:28.17 | 8:01.20 | 33617 | 69711 3 | 15:29.37 | 8:57.30 | 69712 | 110016 4 | 24:26.67 | 9:00.23 | 110017 | 150539 5 | 33:27.15 | 8:00.57 | 150540 | 186596 6 | 41:27.72 | 6:56.23 | 186597 | 217819 7 | 48:24.20 | 6:26.35 | 217820 | 246804 8 | 54:50.55 | 6:10.47 | 246805 | 274601

Range status and errors

Selected range Filename J:\temp\nnm\Pentatonik - Anthology CD1.wav Peak level 94.8 %
Range quality 99.9 %
Test CRC 70E3DE54
Copy CRC 70E3DE54
Copy OK

No errors occurred


AccurateRip summary

Track 1 accurately ripped (confidence 4) [E2135104]
Track 2 accurately ripped (confidence 4) [87077ECF]
Track 3 accurately ripped (confidence 4) [7C85A4CA]
Track 4 accurately ripped (confidence 4) [E1780C61]
Track 5 accurately ripped (confidence 4) FDB8325
Track 6 accurately ripped (confidence 4) [82F8D90E]
Track 7 accurately ripped (confidence 4) [36A35D31]
Track 8 accurately ripped (confidence 4) [C33A323B]

All tracks accurately ripped

End of status report

[CUETools log; Date: 05.08.2015 15:01:36; Version: 2.1.4]
[CTDB TOCID: VRs1z_Kr3.6t19c5jhv.GgpwUSs-] found.
Track | CTDB Status
1 | (2/2) Accurately ripped
2 | (2/2) Accurately ripped
3 | (2/2) Accurately ripped
4 | (2/2) Accurately ripped
5 | (2/2) Accurately ripped
6 | (2/2) Accurately ripped
7 | (2/2) Accurately ripped
8 | (2/2) Accurately ripped
[AccurateRip ID: 0013adee-00829ad7-6e0e4d08] found.
Track [ CRC | V2 ] Status
01 [e2135104|57ff98ce] (06+08/14) Accurately ripped
02 [87077ecf|05b43b6d] (06+08/14) Accurately ripped
03 [7c85a4ca|d3c3e762] (06+07/13) Accurately ripped
04 [e1780c61|87f97bb2] (06+08/14) Accurately ripped
05 fdb8325|8181dfd5 (06+08/14) Accurately ripped
06 [82f8d90e|19547f0b] (06+08/14) Accurately ripped
07 [36a35d31|866b156d] (06+08/14) Accurately ripped
08 [c33a323b|a8b69cb3] (06+08/14) Accurately ripped

Track Peak [ CRC32 ] [W/O NULL] [ LOG ]
-- 94,8 [70E3DE54] [C7A4F67B] CRC32
01 94,4 [0CABCA23] [FCE2470B]
02 94,4 D10E537 [370BD448]
03 94,8 [ECDC2080] [6AC55814]
04 94,6 [139F4B10] [5745CD77]
05 86,4 [F868B831] 3A3DE4B
06 85,9 [5D4F9A61] [9170E617]
07 94,4 [14DF0370] [3931EA71]
08 93,9 [57501070] [8016AFF5]


Exact Audio Copy V0.99 prebeta 5 from 4. May 2009

EAC extraction logfile from 28. March 2010, 19:00

Pentatonik / Anthology CD2

Used drive : ASUS CRW-4816A Adapter: 2 ID: 1

Read mode : Secure
Utilize accurate stream : Yes
Defeat audio cache : Yes
Make use of C2 pointers : No

Read offset correction

: 12
Overread into Lead-In and Lead-Out : No
Fill up missing offset samples with silence : Yes
Delete leading and trailing silent blocks : No
Null samples used in CRC calculations : Yes
Used interface
: Installed external ASPI interface

Used output format : User Defined Encoder
Selected bitrate : 1024 kBit/s
Quality : High
Add ID3 tag : No
Command line compressor : C:\Program Files\Exact Audio Copy\FLAC\FLAC.EXE
Additional command line options : -8 -V -T "ARTIST=%a" -T "ALBUM=%g" -T "DATE=%y" -T "GENRE=%m" %s -o %d

TOC of the extracted CD Track | Start | Length | Start sector | End sector
--1 | 0:00.00 | 6:23.07 | 0 | 28731 2 | 6:23.07 | 6:41.00 | 28732 | 58806 3 | 13:04.07 | 7:47.45 | 58807 | 93876 4 | 20:51.52 | 7:54.15 | 93877 | 129441 5 | 28:45.67 | 8:18.08 | 129442 | 166799 6 | 37:04.00 | 6:38.02 | 166800 | 196651 7 | 43:42.02 | 6:25.28 | 196652 | 225554 8 | 50:07.30 | 9:10.32 | 225555 | 266836

Range status and errors

Selected range Filename J:\temp\nnm\Pentatonik - Anthology CD2.wav Peak level 94.5 %
Range quality 100.0 %
Test CRC 955A30D7
Copy CRC 955A30D7
Copy OK

No errors occurred


AccurateRip summary

Track 1 accurately ripped (confidence 3) [67C914DA]
Track 2 accurately ripped (confidence 3) [CB23545F]
Track 3 accurately ripped (confidence 3) [7635114C]
Track 4 accurately ripped (confidence 3) [D9EE9531]
Track 5 accurately ripped (confidence 3) [C14F9F7B]
Track 6 accurately ripped (confidence 3) [17479799]
Track 7 accurately ripped (confidence 3) [90CB72D4]
Track 8 accurately ripped (confidence 3) [05092418]

All tracks accurately ripped

End of status report

[CUETools log; Date: 05.08.2015 15:02:30; Version: 2.1.4]
[CTDB TOCID: V2P3.7MYNzVEL7JFrOLoxa9.Z38-] found.
Track | CTDB Status
1 | (3/3) Accurately ripped
2 | (3/3) Accurately ripped
3 | (3/3) Accurately ripped
4 | (3/3) Accurately ripped
5 | (3/3) Accurately ripped
6 | (3/3) Accurately ripped
7 | (3/3) Accurately ripped
8 | (3/3) Accurately ripped
[AccurateRip ID: 0011cd6e-0077a0c5-690de508] found.
Track [ CRC | V2 ] Status
01 [67c914da|64dfbd3e] (05+08/13) Accurately ripped
02 [cb23545f|6889856f] (05+08/13) Accurately ripped
03 [7635114c|32f5ec49] (05+08/13) Accurately ripped
04 [d9ee9531|788e5fce] (05+08/13) Accurately ripped
05 [c14f9f7b|cb6a07af] (05+08/13) Accurately ripped
06 [17479799|5568c761] (05+08/13) Accurately ripped
07 [90cb72d4|4b196129] (05+08/13) Accurately ripped
08 [05092418|94b8d6e8] (05+08/13) Accurately ripped

Track Peak [ CRC32 ] [W/O NULL] [ LOG ]
-- 94,5 [955A30D7] [95F01584] CRC32
01 92,3 [1F4E4AC2] [DBEB3D80]
02 94,4 [48DA425D] [574B66AD]
03 94,5 [8375F1E0] [40F1F3A6]
04 94,4 [C26C2F02] [7962CBEA]
05 89,0 [4413CDCE] [13184488]
06 94,4 [08709716] 9766D83
07 89,6 1959F43 4D7B2B3
08 93,3 [385C494C] [C47815D9]

Thanks to _ok
DOWNLOAD LINKS:
Buy Premium To Support Me & Get Resumable Support & Max Speed


Links are Interchangeable - No Password - Single Extraction

Direct Download

Tags: Pentatonik, Anthology

Pentatonik - Anthology (1994) Download via Hotfile Rapidshare Fileserve Megaupload & FileSonic, Pentatonik - Anthology (1994) free torrent downloads included crack, serial, keygen.


Attention!Information

Members of Guest cannot leave comments.