Bring Me The Horizon - Live at Wembley (2015) [BDRip 1080p]

Download Now

Bring Me The Horizon - Live at Wembley (2015) [BDRip 1080p]

Bring Me The Horizon - Live at Wembley (2015)
BDRip 1080p | MKV | AVC, 1920x816 (2.35:1), 23.976 fps, 8917 Kbps | 6.55 GB
Audio: DTS, 48.0 KHz, 6 ch, 1 510 Kbps | Length: 1:29:57
Genre: Deathcore / Metalcore | Nitroflare/Uploadable

"Bring Me the Horizon are a British rock band from Sheffield, Yorkshire. Formed in 2003, the group currently consists of lead vocalist Oliver Sykes, lead guitarist Lee Malia, bassist Matt Kean, drummer Matt Nicholls and keyboardist Jordan Fish. They are currently signed to RCA Records globally and Columbia Records exclusively in the US. The style of their early work has primarily been described as deathcore, but they started to adopt a more eclectic style of metalcore on later releases. Furthermore, their latest singles ("Drown" and "Don't Look Down") marked a shift in their sound to less aggressive rock music styles. The band is set to release their fifth album, That's the Spirit, on September 11, 2015. The first single, "Happy Song", was released on July 12.

Live recording of the British metalcore band performing some of their biggest hits at Wembley Arena in London."


Bring Me The Horizon - Live at Wembley (2015) [BDRip 1080p]

Bring Me The Horizon - Live at Wembley (2015) [BDRip 1080p]

Bring Me The Horizon - Live at Wembley (2015) [BDRip 1080p]

Bring Me The Horizon - Live at Wembley (2015) [BDRip 1080p]


Tracklist
01. Shadow Moses
02. Go To Hell, For Heaven's Sake
03. The House Of Wolves
04. Diamonds Aren't Forever
05. It Never Ends
06. And The Snakes Start to Sing
07. Alligator Blood
08. Empire (Let Them Sing)
09. Chelsea Smile
10. Pray For Plague
11. Blessed With A Curse
12. Antivist
13. Sleepwalking
14. Hospital for Souls
15. Drown
16. Can You Feel My Heart

General
Unique ID
: 186573476550919322581376153135224991809 (0x8C5CBE99A29163EDA85D785DE8703041)
Complete name : K:\Bring.Me.The.Horizon.Live.at.Wembley.Arena.2015.1080p.MBluRay.x264-FKKHD\Bring.Me.The.Horizon.Live.at.Wembley.Arena.2015.BDRip1080p.mkv
Format
: Matroska
Format version : Version 4 / Version 2
File size
: 6.55 GiB
Duration
: 1h 29mn
Overall bit rate : 10.4 Mbps
Encoded date : UTC 2015-07-31 15:07:15
Writing application

: mkvmerge v7.8.0 ('River Man') 64bit built on Mar 27 2015 16:31:37
Writing library : libebml v1.3.1 + libmatroska v1.4.2
DURATION
: 01:29:57.024000000
NUMBER_OF_FRAMES : 505971
NUMBER_OF_BYTES : 1018013652
_STATISTICS_WRITING_APP : mkvmerge v7.8.0 ('River Man') 64bit built on Mar 27 2015 16:31:37
_STATISTICS_WRITING_DATE_UTC : 2015-07-31 15:07:15
_STATISTICS_TAGS : BPS DURATION NUMBER_OF_FRAMES NUMBER_OF_BYTES

Video
ID : 1
Format
: AVC
Format/Info
: Advanced Video Codec
Format profile : [email protected]
Format settings, CABAC : Yes
Format settings, ReFrames : 5 frames
Codec ID
: V_MPEG4/ISO/AVC
Duration
: 1h 29mn
Bit rate
: 8 917 Kbps
Width
: 1 920 pixels
Height
: 816 pixels
Display aspect ratio : 2.35:1
Frame rate mode : Constant
Frame rate
: 23.976 fps
Color space
: YUV
Chroma subsampling

: 4:2:0
Bit depth
: 8 bits
Scan type
: Progressive
Bits/(Pixel*Frame)

: 0.237
Stream size
: 5.47 GiB (84%)
Writing library : x264 core 148 r2579 73ae2d1
Encoding settings: cabac=1 / ref=5 / deblock=1:0:0 / analyse=0x3:0x113 / me=umh / subme=8 / psy=1 / psy_rd=1.00:0.00 / mixed_ref=1 / me_range=16 / chroma_me=1 / trellis=1 / 8x8dct=1 / cqm=0 / deadzone=21,11 / fast_pskip=0 / chroma_qp_offset=-2 / threads=12 / lookahead_threads=2 / sliced_threads=0 / nr=0 / decimate=1 / interlaced=0 / bluray_compat=0 / constrained_intra=0 / bframes=3 / b_pyramid=2 / b_adapt=2 / b_bias=0 / direct=3 / weightb=1 / open_gop=0 / weightp=2 / keyint=250 / keyint_min=23 / scenecut=40 / intra_refresh=0 / rc_lookahead=50 / rc=2pass / mbtree=1 / bitrate=8917 / ratetol=1.0 / qcomp=0.60 / qpmin=0 / qpmax=69 / qpstep=4 / cplxblur=20.0 / qblur=0.5 / ip_ratio=1.40 / aq=1:1.00
Language
: English
Default
: Yes
Forced
: No
DURATION
: 01:29:56.975000000
NUMBER_OF_FRAMES : 129398
NUMBER_OF_BYTES : 6014816530
_STATISTICS_WRITING_APP : mkvmerge v7.8.0 ('River Man') 64bit built on Mar 27 2015 16:31:37
_STATISTICS_WRITING_DATE_UTC : 2015-07-31 15:07:15
_STATISTICS_TAGS : BPS DURATION NUMBER_OF_FRAMES NUMBER_OF_BYTES

Audio
ID : 2
Format
: DTS
Format/Info
: Digital Theater Systems
Mode
: 16
Format settings, Endianness : Big
Codec ID
: A_DTS
Duration
: 1h 29mn
Bit rate mode : Constant
Bit rate
: 1 509 Kbps
Channel(s)
: 6 channels
Channel positions: Front: L C R, Side: L R, LFE
Sampling rate : 48.0 KHz
Bit depth
: 24 bits
Compression mode : Lossy
Stream size
: 971 MiB (14%)
Language
: English
Default
: Yes
Forced
: No

Menu
00:00:00.000 : en:00:00:00.000
00:00:31.865 : en:00:00:31.865
00:05:38.171 : en:00:05:38.171
00:10:11.611 : en:00:10:11.611
00:14:49.263 : en:00:14:49.263
00:19:57.196 : en:00:19:57.196
00:26:09.568 : en:00:26:09.568
00:32:28.947 : en:00:32:28.947
00:37:52.270 : en:00:37:52.270
00:42:00.518 : en:00:42:00.518
00:48:55.933 : en:00:48:55.933
00:54:24.261 : en:00:54:24.261
01:00:05.602 : en:01:00:05.602
01:04:16.853 : en:01:04:16.853
01:10:10.206 : en:01:10:10.206
01:17:30.646 : en:01:17:30.646
01:22:06.922 : en:01:22:06.922

Thanks to the original uploader








DOWNLOAD LINKS:
Buy Premium To Support Me & Get Resumable Support & Max Speed


Links are Interchangeable - No Password - Single Extraction

Direct Download

Tags: Horizon, Wembley

Bring Me The Horizon - Live at Wembley (2015) [BDRip 1080p] Download via Hotfile Rapidshare Fileserve Megaupload & FileSonic, Bring Me The Horizon - Live at Wembley (2015) [BDRip 1080p] free torrent downloads included crack, serial, keygen.


Attention!Information

Members of Guest cannot leave comments.