Barney Bentall And The Legendary Hearts - Lonely Avenue (1990)

Download Now

Barney Bentall And The Legendary Hearts - Lonely Avenue (1990)

Barney Bentall And The Legendary Hearts - Lonely Avenue (1990)
EAC Rip | FLAC (Img) + Cue + Log ~ 330 Mb | MP3 CBR320 ~ 132 Mb
Scans Included (JPG, 600 dpi) | RAR 5% Recovery
Rock | Epic #467980 2

"Barney Bentall and the Legendary Hearts are a Canadian rock band, based out of Vancouver that formed in 1980. The band's name was taken from the title of Lou Reed's 1983 album."

Official Website | Wiki | Discogs | All Music
***************

Barney Bentall And The Legendary Hearts - Lonely Avenue (1990)

Track List:

01. Crime Against Love [03:36]
02. It's Over [04:07]
03. Don't Talk About Yesterday [04:29]
04. Goin' Places [05:06]
05. Nothing Hurts (Like The Words Of The One You Love) [04:30]
06. Life Could Be Worse [04:26]
07. Dark Night / Dark Road [04:22]
08. When She Was Mine [03:34]
09. I Gotta Go [04:42]
10. Lost Weekend [04:23]

Exact Audio Copy V1.0 beta 3 from 29. August 2011

EAC extraction logfile from 7. February 2015, 17:16

Barney Bentall And The Legendary Hearts / Lonely Avenue

Used drive : HL-DT-STDVDRAM GH22NS40 Adapter: 4 ID: 0

Read mode : Secure
Utilize accurate stream : Yes
Defeat audio cache : Yes
Make use of C2 pointers : No

Read offset correction

: 667
Overread into Lead-In and Lead-Out : No
Fill up missing offset samples with silence : Yes
Delete leading and trailing silent blocks : No
Null samples used in CRC calculations : Yes
Used interface
: Native Win32 interface for Win NT & 2000

Used output format : User Defined Encoder
Selected bitrate : 1024 kBit/s
Quality : High
Add ID3 tag : No
Command line compressor : C:\Program Files\FLAC\flac.exe
Additional command line options : -V -8 -T "Date=%year%" -T "Genre=%genre%" %source%

TOC of the extracted CD Track | Start | Length | Start sector | End sector
--1 | 0:00.00 | 3:35.17 | 0 | 16141 2 | 3:35.17 | 4:06.03 | 16142 | 34594 3 | 7:41.20 | 4:28.70 | 34595 | 54764 4 | 12:10.15 | 5:06.00 | 54765 | 77714 5 | 17:16.15 | 4:29.65 | 77715 | 97954 6 | 21:46.05 | 4:25.45 | 97955 | 117874 7 | 26:11.50 | 4:21.02 | 117875 | 137451 8 | 30:32.52 | 3:33.55 | 137452 | 153481 9 | 34:06.32 | 4:41.50 | 153482 | 174606
10 | 38:48.07 | 4:22.10 | 174607 | 194266

Range status and errors

Selected range Filename I:\Rips\Barney Bentall And The Legendary Hearts - Lonely Avenue.wav Peak level 97.2 %
Extraction speed 1.6 X
Range quality 100.0 %
Test CRC 4B5883D5
Copy CRC 4B5883D5
Copy OK

No errors occurred


AccurateRip summary

Track 1 accurately ripped (confidence 5) [8D7F9575] (AR v1)
Track 2 accurately ripped (confidence 5) [9DBBCBCE] (AR v1)
Track 3 accurately ripped (confidence 5) [4F7AABED] (AR v1)
Track 4 accurately ripped (confidence 5) [61AE1B1A] (AR v1)
Track 5 accurately ripped (confidence 5) [F8788741] (AR v1)
Track 6 accurately ripped (confidence 5) [FFC9D44C] (AR v1)
Track 7 accurately ripped (confidence 5) [7B5257E1] (AR v1)
Track 8 accurately ripped (confidence 5) [3C51BD42] (AR v1)
Track 9 accurately ripped (confidence 5) [0B0F383A] (AR v1)
Track 10 accurately ripped (confidence 5) [CC6F82C3] (AR v1)

All tracks accurately ripped

End of status report

==== Log checksum 44B918DD8727CE7050F1C3E3AD7BDA3472A24161E30B9C3689E6E0C4B76CA42C ====

foobar2000 1.2.6 / Dynamic Range Meter 1.1.1
log date: 2015-08-06 22:24:49

Analyzed: Barney Bentall And The Legendary Hearts / Lonely Avenue

DR Peak RMS Duration Track

DR12 -0.24 dB -15.07 dB 3:35 01-Crime Against Love
DR13 -0.24 dB -15.83 dB 4:06 02-It's Over
DR13 -0.37 dB -16.17 dB 4:29 03-Don't Talk About Yesterday
DR12 -0.24 dB -14.62 dB 5:06 04-Goin' Places
DR13 -0.47 dB -16.14 dB 4:30 05-Nothing Hurts (Like The Words Of The One You Love)
DR13 -0.24 dB -14.47 dB 4:26 06-Life Could Be Worse
DR12 -0.24 dB -14.81 dB 4:21 07-Dark Night / Dark Road
DR12 -0.24 dB -14.67 dB 3:34 08-When She Was Mine
DR13 -0.24 dB -14.25 dB 4:42 09-I Gotta Go
DR14 -0.34 dB -17.45 dB 4:22 10-Lost Weekend

Number of tracks: 10
Official DR value: DR13

Samplerate: 44100 Hz
Channels: 2
Bits per sample: 16
Bitrate: 931 kbps
Codec: FLAC

[CUETools log; Date: 06.08.2015 22:24:49; Version: 2.1.5]
[CTDB TOCID: sZI3DhoQJWchPnBf7GoBdyFKbDs-] found.
Track | CTDB Status
1 | (1/1) Accurately ripped
2 | (1/1) Accurately ripped
3 | (1/1) Accurately ripped
4 | (1/1) Accurately ripped
5 | (1/1) Accurately ripped
6 | (1/1) Accurately ripped
7 | (1/1) Accurately ripped
8 | (1/1) Accurately ripped
9 | (1/1) Accurately ripped
10 | (1/1) Accurately ripped
[AccurateRip ID: 00102827-00820349-730a1e0a] found.
Track [ CRC | V2 ] Status
01 [8d7f9575|34198440] (5+2/7) Accurately ripped
02 [9dbbcbce|a6104060] (5+2/7) Accurately ripped
03 [4f7aabed|e13afb92] (5+2/7) Accurately ripped
04 [61ae1b1a|c04a0881] (5+2/7) Accurately ripped
05 [f8788741|001a583a] (5+2/7) Accurately ripped
06 [ffc9d44c|052b0504] (5+2/7) Accurately ripped
07 [7b5257e1|bc914468] (5+2/7) Accurately ripped
08 [3c51bd42|4b61cf70] (5+2/7) Accurately ripped
09 [0b0f383a|1040f968] (5+2/7) Accurately ripped
10 [cc6f82c3|77c5b105] (5+2/7) Accurately ripped

Track Peak [ CRC32 ] [W/O NULL] [ LOG ]
-- 97,2 [4B5883D5] [4C7D0070] CRC32
01 97,2 [A5325BD0] [07E85E79]
02 97,2 [C5A844B5] [CD0CB2F7]
03 95,8 [6FFF879D] [43E881B5]
04 97,2 [46A31CF9] [D0B0FBBE]
05 94,7 [E0B166C2] [AF32D9EE]
06 97,2 [8C33B83E] [AB97DE43]
07 97,2 [EBFD7064] [F2410DAF]
08 97,2 [C98C0C87] [871CEB4D]
09 97,2 [99C52833] [C5F578F9]
10 96,1 [D9264013] [F142E1BB]

Barney Bentall And The Legendary Hearts - Lonely Avenue (1990)

All thanks go to powermet


(All below links are interchangable. No password)
Buy Premium To Support Me & Get Resumable Support & Max Speed


Direct Download

Tags: Barney, Bentall, Legendary, Hearts, Lonely, Avenue

Barney Bentall And The Legendary Hearts - Lonely Avenue (1990) Download via Hotfile Rapidshare Fileserve Megaupload & FileSonic, Barney Bentall And The Legendary Hearts - Lonely Avenue (1990) free torrent downloads included crack, serial, keygen.


Attention!Information

Members of Guest cannot leave comments.