Pink Floyd - The Dark Side Of The Moon (1973) [1988, EMI Australasia, CDP 7 46001 2]

Download Now

Pink Floyd - The Dark Side Of The Moon (1973) [1988, EMI Australasia, CDP 7 46001 2]

Pink Floyd - The Dark Side Of The Moon (1973)
EAC | Flac(Image) + Cue + Log & MP3 CBR 320Kbps
EMI Australasia, CDP 7 46001 2 | ~ 257 or 104 Mb | Scans(600dpi, jpg) -> 87 Mb
Progressive Rock

"By condensing the sonic explorations of Meddle to actual songs and adding a lush, immaculate production to their trippiest instrumental sections, Pink Floyd inadvertently designed their commercial breakthrough with Dark Side of the Moon. The primary revelation of Dark Side of the Moon is what a little focus does for the band..."


Tracklist:

01. Speak To Me / Breathe In The Air (3:53)
02. On The Run (3:35)
03. Time (7:05)
04. The Great Gig In The Sky (4:47)
05. Money (6:22)
06. Us And Them (7:50)
07. Any Colour You Like (3:26)
08. Brain Damage (3:51)
09. Eclipse (2:01)

Exact Audio Copy V1.0 beta 3 from 29. August 2011

EAC extraction logfile from 17. July 2015, 21:42

Pink Floyd / The Dark Side Of The Moon

Used drive : TSSTcorpCDDVDW SH-S203B Adapter: 2 ID: 0

Read mode : Secure
Utilize accurate stream : Yes
Defeat audio cache : Yes
Make use of C2 pointers : No

Read offset correction

: 6
Overread into Lead-In and Lead-Out : No
Fill up missing offset samples with silence : Yes
Delete leading and trailing silent blocks : No
Null samples used in CRC calculations : Yes
Used interface
: Installed external ASPI interface

Used output format : Internal WAV Routines
Sample format : 44.100 Hz; 16 Bit; Stereo

TOC of the extracted CD Track | Start | Length | Start sector | End sector
--1 | 0:00.00 | 3:52.62 | 0 | 17461 2 | 3:52.62 | 3:34.45 | 17462 | 33556 3 | 7:27.32 | 7:05.23 | 33557 | 65454 4 | 14:32.55 | 4:47.02 | 65455 | 86981 5 | 19:19.57 | 6:22.25 | 86982 | 115656 6 | 25:42.07 | 7:50.35 | 115657 | 150941 7 | 33:32.42 | 3:25.50 | 150942 | 166366 8 | 36:58.17 | 3:50.38 | 166367 | 183654 9 | 40:48.55 | 2:00.45 | 183655 | 192699

Range status and errors

Selected range Filename E:\unclesandy\Pink Floyd - The Dark Side Of The Moon (Aussie 3rd).wav Peak level 100.0 %
Extraction speed 6.9 X
Range quality 99.9 %
Test CRC DB1407E6
Copy CRC DB1407E6
Copy OK

No errors occurred


AccurateRip summary

Track 1 accurately ripped (confidence 1) [494D8459] (AR v1)
Track 2 accurately ripped (confidence 1) [DB7F3B07] (AR v1)
Track 3 accurately ripped (confidence 1) [9C001672] (AR v1)
Track 4 accurately ripped (confidence 1) [0CD76A1B] (AR v1)
Track 5 accurately ripped (confidence 1) [E2215BDD] (AR v1)
Track 6 accurately ripped (confidence 1) [382ED6A3] (AR v1)
Track 7 accurately ripped (confidence 1) [F88E227A] (AR v1)
Track 8 accurately ripped (confidence 1) [89F47666] (AR v1)
Track 9 accurately ripped (confidence 1) [91FA95C7] (AR v1)

All tracks accurately ripped

End of status report

- CUETools DB Plugin V2.1.4

[CTDB TOCID: ICTSQbLiI1CJDzpIdrnjC6PyWUc-] found
Submit result: already submitted
Track | CTDB Status
1 | (3/3) Accurately ripped
2 | (3/3) Accurately ripped
3 | (3/3) Accurately ripped
4 | (3/3) Accurately ripped
5 | (3/3) Accurately ripped
6 | (3/3) Accurately ripped
7 | (3/3) Accurately ripped
8 | (3/3) Accurately ripped
9 | (3/3) Accurately ripped

==== Log checksum D6133C81A018CDD864775B1FAB80D6D775B1EA8DF67B4F967F25ADBC8315F02B ====

foobar2000 1.2.9 / Dynamic Range Meter 1.1.1
log date: 2015-08-07 12:19:25

Analyzed: Pink Floyd / The Dark Side Of The Moon

DR Peak RMS Duration Track

DR12 -1.16 dB -16.36 dB 3:53 01-Speak To Me / Breathe In The Air
DR11 -0.40 dB -17.30 dB 3:35 02-On The Run
DR11 0.00 dB -14.56 dB 7:05 03-Time
DR11 0.00 dB -16.74 dB 4:47 04-The Great Gig In The Sky
DR11 0.00 dB -14.07 dB 6:22 05-Money
DR10 -0.72 dB -16.03 dB 7:50 06-Us And Them
DR12 -0.08 dB -13.70 dB 3:26 07-Any Colour You Like
DR11 -0.78 dB -16.96 dB 3:51 08-Brain Damage
DR10 0.00 dB -13.62 dB 2:01 09-Eclipse

Number of tracks: 9
Official DR value: DR11

Samplerate: 44100 Hz
Channels: 2
Bits per sample: 16
Bitrate: 792 kbps
Codec: FLAC

[CUETools log; Date: 17.07.2015 21:51:03; Version: 2.1.4]
[CTDB TOCID: ICTSQbLiI1CJDzpIdrnjC6PyWUc-] found.
Track | CTDB Status
1 | (3/3) Accurately ripped
2 | (3/3) Accurately ripped
3 | (3/3) Accurately ripped
4 | (3/3) Accurately ripped
5 | (3/3) Accurately ripped
6 | (3/3) Accurately ripped
7 | (3/3) Accurately ripped
8 | (3/3) Accurately ripped
9 | (3/3) Accurately ripped
[AccurateRip ID: 000f7429-0072583d-5e0a0909] found.
Track [ CRC | V2 ] Status
01 [494d8459|b30d0dae] (1+0/1) Accurately ripped
02 [db7f3b07|ff388f3a] (1+0/1) Accurately ripped
03 [9c001672|99733d76] (1+0/1) Accurately ripped
04 [0cd76a1b|5626c0e6] (1+0/1) Accurately ripped
05 [e2215bdd|9d919b79] (1+0/1) Accurately ripped
06 [382ed6a3|3fd05824] (1+0/1) Accurately ripped
07 [f88e227a|0cd2a842] (1+0/1) Accurately ripped
08 [89f47666|c5338c8e] (1+0/1) Accurately ripped
09 [91fa95c7|49957a55] (1+0/1) Accurately ripped

Track Peak [ CRC32 ] [W/O NULL] [ LOG ]
-- 100,0 [DB1407E6] [218ABF8A] CRC32
01 87,5 [8B9C8B69] [F3A5A5BA]
02 95,4 [DD018322] [936ECD91]
03 100,0 [26BCBDEC] [AC676F9F]
04 100,0 [8FD22869] [F603C17C]
05 100,0 8D530AA [DF9C2618]
06 92,0 [49A55BDA] [5BCD6CE6]
07 99,1 [E52D9B7F] [6F0DA5BC]
08 91,4 [02C0F396] [E5FA57B6]
09 100,0 [6CFFADB4] [9985FD47]

Pink Floyd - The Dark Side Of The Moon (1973) [1988, EMI Australasia, CDP 7 46001 2]

All thanks go to unclesandy



Download Pink Floyd - The Dark Side Of The Moon (1973):


DOWNLOAD LINKS:


No Password

Direct Download

Tags: Australasia

Pink Floyd - The Dark Side Of The Moon (1973) [1988, EMI Australasia, CDP 7 46001 2] Download via Hotfile Rapidshare Fileserve Megaupload & FileSonic, Pink Floyd - The Dark Side Of The Moon (1973) [1988, EMI Australasia, CDP 7 46001 2] free torrent downloads included crack, serial, keygen.


Attention!Information

Members of Guest cannot leave comments.