Jacques Loussier Trio play Bach... and more (2004/2014) Blu-ray

Download Now

Jacques Loussier Trio play Bach... and more (2004/2014) Blu-ray

Jacques Loussier Trio play Bach... and more (2004/2014)
Blu-ray | MPEG-4 AVC, 1920x1080i (16:9), 29,970 fps, 19927 kbps | Audio #1: LPCM 2.0, 48 kHz/16-bit, 1536 kbps
Audio #2: DTS-HD MA 5.1, 48 kHz/16-bit, 2284 kbps | ~ 20,9 Gb | RAR 5% Recovery
Classical, Jazz | 01:37:36 | EuroArts

"Live concert in celebration of Loussier's 70th birthday. In performance in Bach's 'own' church, St Thomas's in Leipzig. A rare example of a commercially successful jazz artist. In fifteen years, the Jacquees Loussier trio sold over six million albums. Bonus feature: Jacques Loussier in Conversation..."

This 2004 concert, filmed in St Thomas' Church, Leipzig marks the 254th anniversary of Bach's death and the venue was purposefully chosen to celebrate the venue so closely connected with a protracted period of time when Bach was the organist at the church.

Bach, as many will know, was especially renowned for his improvisational skills which would have been very apparent at this church. It is therefore fitting that Jacques Loussier, also known for his improvisational skills and especially as related to works of Bach, should perform this concert at the venue.

The trio, having previously been disbanded, was reformed in 1985 and it is that group that plays here. The program is more far reaching than that played by the original group as Loussier has extended his musical improvisations into the 20th century world of the French composers, Debussy, Ravel and Satie.

Thus we hear his improvisations on two of Debussy's piano compositions, the Arabesque (from two Arabesques), and L'isle Joyeuse. Satie's Gymnopedie for piano, the first of the three that he wrote, then follows. The French set concludes with an extended improvisation based on Ravel's orchestral Bolero. This is an extended piece for the trio and at nearly 13 minutes is the longest single piece on the disc.

The bonus feature is an interview with Jacques Loussier in which he gives a background history to his style of playing and its development and extension into the French world as above from the earlier Bach world. During this interview he is at pains to stress that the improvisations are very much worked-through compositions with an improvisatory feel but actually being fixed compositions. Therefore what is heard in this recent concert is very similar to the versions created and performed right at the start of his career. This means that much of this concert will be very familiar to long-term supporters of the group.

Returning to Bach, not surprisingly the disc both opens and closes with Bach, the final item being an improvisation around the Allegro movement from Bach's Harpsichord concerto 3. The majority of the concert focuses on Bach's inspiration and the first 5 pieces in the concert are the familiar Fugue 5; the gavotte in D; The Pastorale in c minor; the Air on a G String and finally, all three movements from the Brandenburg concerto 5.

The technical aspects of this disc are excellent with sharp imaging of good colour rendition. The sound provides excellent DTS 5.1 as well as stereo.

This disc will give plenty of pleasure to the supporters of the trio and is clearly an improvement over other earlier recordings so far as sound is concerned. Jacques Loussier is not the most demonstrative of performers, being full of applied concentration. Nevertheless this is a fine example of the Trio performing its current repertoire and supported by excellent recording and on top form.

Those familiar with Loussier's interpretive and performing style will be aware that his general approach to music making has varied little over the years other than being applied to a widening repertoire of original inspirations as demonstrated in this concert. This disc therefore is a faithful recording of the trio's current repertoire and simultaneously a confirmation of Jacques Loussier's individual approach to musical improvisation with a Bachian twist.
~ I. Giles, Amazon
Wiki | Discogs | All Music
***************

Jacques Loussier Trio play Bach... and more (2004/2014) Blu-ray

Track List:

Johann Sebastian Bach

Fugue No. 5 in D major
Gavotte in D major
Pastorale in C minor
Air on a G String
Brandenburg Concerto No. 5 in D major
Harpsichord Concerto No. 3 in D major

Claude Debussy

Arabesque
L'Isle joyeuse

Erik Satie

Gymnopedie No. 1

Maurice Ravel

Bolero

Jacques Loussier (piano)
Bennoit Dunoyer de Segonzac (bass)
Andre Arpino (drums)

Disc Title: Jacques Loussier Trio play Bach... and more (2004_2014) Blu-ray
Disc Size: 21537634182 bytes
Protection: AACS
BD-Java: No
BDInfo: 0.5.8

Notes:

BDINFO HOME:
Cinema Squid
http://www.cinemasquid.com/blu-ray/tools/bdinfo

INCLUDES FORUMS REPORT FOR:
AVS Forum Blu-ray Audio and Video Specifications Thread
http://www.avsforum.com/avs-vb/showthread.php?t=1155731

********************
PLAYLIST: 00000.MPLS
******************** Total Video
Title Codec Length Movie Size Disc Size Bitrate Bitrate Main Audio Track Secondary Audio Track
--
- -- -- - - -
00000.MPLS

AVC 1:37:36 18547144704 21537634182 25,33 19,93 LPCM 2.0 1536Kbps (48kHz/16-bit) DTS-HD Master 5.1 2284Kbps (48kHz/16-bit)

DISC INFO:

Disc Title: Jacques Loussier Trio play Bach... and more (2004_2014) Blu-ray
Disc Size: 21537634182 bytes
Protection: AACS
BD-Java: No
BDInfo: 0.5.8

PLAYLIST REPORT:

Name: 00000.MPLS
Length: 1:37:36.784 (h:m:s.ms)
Size: 18547144704 bytes
Total Bitrate: 25,33 Mbps

VIDEO:

Codec Bitrate Description
-- - --
MPEG-4 AVC Video 19927 kbps 1080i / 29,970 fps / 16:9 / High Profile 4.1

AUDIO:

Codec Language Bitrate Description
-- -- - --
LPCM Audio

Undetermined 1536 kbps 2.0 / 48 kHz / 1536 kbps / 16-bit
DTS-HD Master Audio Undetermined 2284 kbps 5.1 / 48 kHz / 2284 kbps / 16-bit (DTS Core: 5.1 / 48 kHz / 1509 kbps / 16-bit)

FILES:

Name Time In Length Size Total Bitrate
- - - -
00000.M2TS 0:00:00.000 1:37:14.361 18543925248 25427
00009.M2TS 1:37:14.361 0:00:14.047 1112064 633
00008.M2TS 1:37:28.409 0:00:08.041 2095104 2084
00007.M2TS 1:37:36.450 0:00:00.333 12288 295

CHAPTERS:

Number Time In Length Avg Video Rate Max 1-Sec Rate Max 1-Sec Time Max 5-Sec Rate Max 5-Sec Time Max 10Sec Rate Max 10Sec Time Avg Frame Size Max Frame Size Max Frame Time - -- -- -- -- -- -- -- -- -- --
1 0:00:00.000 0:01:03.096 14547 kbps 30635 kbps 00:00:39.939 23983 kbps 00:00:38.104 21475 kbps 00:00:39.939 60641 bytes 500312 bytes 00:00:22.422
2 0:01:03.096 0:05:53.686 19395 kbps 27624 kbps 00:05:56.155 25017 kbps 00:01:09.302 24106 kbps 00:01:09.102 80893 bytes 426757 bytes 00:03:42.088
3 0:06:56.783 0:08:50.263 20382 kbps 27069 kbps 00:13:44.723 25298 kbps 00:11:06.165 24144 kbps 00:12:39.024 85010 bytes 351780 bytes 00:10:34.667
4 0:15:47.046 0:10:36.802 19645 kbps 29503 kbps 00:25:59.291 26249 kbps 00:25:57.789 23588 kbps 00:25:07.839 81937 bytes 399847 bytes 00:25:33.098
5 0:26:23.848 0:04:14.253 18417 kbps 27994 kbps 00:30:11.676 24370 kbps 00:30:11.042 21609 kbps 00:30:11.676 76816 bytes 350740 bytes 00:30:22.554
6 0:30:38.102 0:11:23.749 21202 kbps 30824 kbps 00:38:26.570 29544 kbps 00:38:22.566 27347 kbps 00:37:23.107 88430 bytes 363847 bytes 00:33:53.731
7 0:42:01.852 0:05:28.494 19408 kbps 26401 kbps 00:42:03.254 23087 kbps 00:42:02.453 21595 kbps 00:45:24.254 80947 bytes 348422 bytes 00:42:04.255
8 0:47:30.347 0:11:11.137 19752 kbps 27055 kbps 00:58:05.248 24426 kbps 00:48:56.500 22726 kbps 00:48:56.500 82383 bytes 365264 bytes 00:58:26.536
9 0:58:41.484 0:06:09.535 19279 kbps 26068 kbps 01:03:27.503 23479 kbps 01:04:34.170 21942 kbps 01:01:46.035 80409 bytes 352944 bytes 00:59:48.251
10 1:04:51.020 0:06:35.261 20139 kbps 28320 kbps 01:06:38.160 25362 kbps 01:06:21.043 24400 kbps 01:06:35.524 83997 bytes 378519 bytes 01:11:01.557
11 1:11:26.282 0:05:04.837 19510 kbps 27560 kbps 01:16:05.193 26165 kbps 01:16:04.393 25556 kbps 01:16:03.392 81374 bytes 347889 bytes 01:16:18.874
12 1:16:31.119 0:12:36.822 20597 kbps 30689 kbps 01:26:10.532 27636 kbps 01:26:06.528 26386 kbps 01:26:01.556 85907 bytes 359549 bytes 01:27:48.029
13 1:29:07.942 0:06:16.776 20934 kbps 33517 kbps 01:34:36.103 25929 kbps 01:34:32.299 24804 kbps 01:34:27.261 87313 bytes 324863 bytes 01:35:02.296
14 1:35:24.719 0:01:49.642 20719 kbps 28804 kbps 01:37:00.681 25585 kbps 01:37:00.681 24685 kbps 01:36:58.078 86417 bytes 347114 bytes 01:36:21.108
15 1:37:14.361 0:00:14.047 526 kbps 1474 kbps 01:37:19.733 985 kbps 01:37:15.529 686 kbps 01:37:14.361 2193 bytes 23543 bytes 01:37:17.364
16 1:37:28.409 0:00:08.375 1820 kbps 3711 kbps 01:37:29.510 2363 kbps 01:37:28.409 0 kbps 00:00:00.000 7619 bytes 26315 bytes 01:37:31.612

STREAM DIAGNOSTICS:

File PID Type Codec Language Seconds Bitrate Bytes Packets
- - -- -- -- -- - --
00000.M2TS 4113 (0x1011) 0x1B AVC
5834,295 20000 14585803721 79373012
00000.M2TS 4352 (0x1100) 0x80 LPCM und (Undetermined) 5834,295 1547 1127880000 7020000
00000.M2TS 4353 (0x1101) 0x86 DTS-HD MA und (Undetermined) 5834,295 2292 1671764180 9993938
00009.M2TS 4113 (0x1011) 0x1B AVC
13,914 532 924426 5314
00008.M2TS 4113 (0x1011) 0x1B AVC
7,975 1906 1900213 10633
00007.M2TS 4113 (0x1011) 0x1B AVC
0,200 244 6107 41

QUICK SUMMARY:

Disc Title: Jacques Loussier Trio play Bach... and more (2004_2014) Blu-ray
Disc Size: 21537634182 bytes
Protection: AACS
BD-Java: No
Playlist: 00000.MPLS
Size: 18547144704 bytes
Length: 1:37:36.784
Total Bitrate: 25,33 Mbps
Video: MPEG-4 AVC Video / 19927 kbps / 1080i / 29,970 fps / 16:9 / High Profile 4.1
Audio: Undetermined / LPCM Audio / 2.0 / 48 kHz / 1536 kbps / 16-bit
Audio: Undetermined / DTS-HD Master Audio / 5.1 / 48 kHz / 2284 kbps / 16-bit (DTS Core: 5.1 / 48 kHz / 1509 kbps / 16-bit)

********************
PLAYLIST: 00004.MPLS
******************** Total Video
Title Codec Length Movie Size Disc Size Bitrate Bitrate Main Audio Track Secondary Audio Track
--
- -- -- - - -
00004.MPLS

AVC 0:03:25 423610368 21537634182 16,49 13,96 LPCM 2.0 1536Kbps (48kHz/16-bit)

DISC INFO:

Disc Title: Jacques Loussier Trio play Bach... and more (2004_2014) Blu-ray
Disc Size: 21537634182 bytes
Protection: AACS
BD-Java: No
BDInfo: 0.5.8

PLAYLIST REPORT:

Name: 00004.MPLS
Length: 0:03:25.538 (h:m:s.ms)
Size: 423610368 bytes
Total Bitrate: 16,49 Mbps

VIDEO:

Codec Bitrate Description
-- - --
MPEG-4 AVC Video 13962 kbps 1080i / 29,970 fps / 16:9 / High Profile 4.1

AUDIO:

Codec Language Bitrate Description
-- -- - --
LPCM Audio

Undetermined 1536 kbps 2.0 / 48 kHz / 1536 kbps / 16-bit

FILES:

Name Time In Length Size Total Bitrate
- - - -
00010.M2TS 0:00:00.000 0:03:25.205 423598080 16514
00007.M2TS 0:03:25.205 0:00:00.333 12288 295

CHAPTERS:

Number Time In Length Avg Video Rate Max 1-Sec Rate Max 1-Sec Time Max 5-Sec Rate Max 5-Sec Time Max 10Sec Rate Max 10Sec Time Avg Frame Size Max Frame Size Max Frame Time - -- -- -- -- -- -- -- -- -- --
1 0:00:00.000 0:03:25.538 13962 kbps 27091 kbps 00:01:46.139 24552 kbps 00:01:44.504 21969 kbps 00:01:43.503 58234 bytes 361459 bytes 00:01:49.476

STREAM DIAGNOSTICS:

File PID Type Codec Language Seconds Bitrate Bytes Packets
- - -- -- -- -- - --
00010.M2TS 4113 (0x1011) 0x1B AVC
205,072 13994 358712798 1953107
00010.M2TS 4352 (0x1100) 0x80 LPCM und (Undetermined) 205,072 1543 39563524 246246
00007.M2TS 4113 (0x1011) 0x1B AVC
0,200 244 6107 41

QUICK SUMMARY:

Disc Title: Jacques Loussier Trio play Bach... and more (2004_2014) Blu-ray
Disc Size: 21537634182 bytes
Protection: AACS
BD-Java: No
Playlist: 00004.MPLS
Size: 423610368 bytes
Length: 0:03:25.538
Total Bitrate: 16,49 Mbps
Video: MPEG-4 AVC Video / 13962 kbps / 1080i / 29,970 fps / 16:9 / High Profile 4.1
Audio: Undetermined / LPCM Audio / 2.0 / 48 kHz / 1536 kbps / 16-bit

********************
PLAYLIST: 00005.MPLS
******************** Total Video
Title Codec Length Movie Size Disc Size Bitrate Bitrate Main Audio Track Secondary Audio Track
--
- -- -- - - -
00005.MPLS

AVC 0:02:40 298850304 21537634182 14,90 13,95 DD AC3 2.0 192Kbps

DISC INFO:

Disc Title: Jacques Loussier Trio play Bach... and more (2004_2014) Blu-ray
Disc Size: 21537634182 bytes
Protection: AACS
BD-Java: No
BDInfo: 0.5.8

PLAYLIST REPORT:

Name: 00005.MPLS
Length: 0:02:40.493 (h:m:s.ms)
Size: 298850304 bytes
Total Bitrate: 14,90 Mbps

VIDEO:

Codec Bitrate Description
-- - --
MPEG-4 AVC Video 13949 kbps 1080i / 29,970 fps / 16:9 / High Profile 4.1

AUDIO:

Codec Language Bitrate Description
-- -- - --
Dolby Digital Audio Undetermined 192 kbps 2.0 / 48 kHz / 192 kbps

FILES:

Name Time In Length Size Total Bitrate
- - - -
00006.M2TS 0:00:00.000 0:02:40.159 298838016 14927
00007.M2TS 0:02:40.159 0:00:00.333 12288 295

CHAPTERS:

Number Time In Length Avg Video Rate Max 1-Sec Rate Max 1-Sec Time Max 5-Sec Rate Max 5-Sec Time Max 10Sec Rate Max 10Sec Time Avg Frame Size Max Frame Size Max Frame Time - -- -- -- -- -- -- -- -- -- --
1 0:00:00.000 0:02:40.493 13949 kbps 22260 kbps 00:02:20.440 21306 kbps 00:02:12.699 20940 kbps 00:02:11.431 58179 bytes 260588 bytes 00:01:46.573

STREAM DIAGNOSTICS:

File PID Type Codec Language Seconds Bitrate Bytes Packets
- - -- -- -- -- - --
00006.M2TS 4113 (0x1011) 0x1B AVC
160,027 13989 279833835 1526029
00006.M2TS 4352 (0x1100) 0x81 AC3 und (Undetermined) 160,027 192 3843072 25020
00007.M2TS 4113 (0x1011) 0x1B AVC
0,200 244 6107 41

QUICK SUMMARY:

Disc Title: Jacques Loussier Trio play Bach... and more (2004_2014) Blu-ray
Disc Size: 21537634182 bytes
Protection: AACS
BD-Java: No
Playlist: 00005.MPLS
Size: 298850304 bytes
Length: 0:02:40.493
Total Bitrate: 14,90 Mbps
Video: MPEG-4 AVC Video / 13949 kbps / 1080i / 29,970 fps / 16:9 / High Profile 4.1
Audio: Undetermined / Dolby Digital Audio / 2.0 / 48 kHz / 192 kbps

********************
PLAYLIST: 00003.MPLS
******************** Total Video
Title Codec Length Movie Size Disc Size Bitrate Bitrate Main Audio Track Secondary Audio Track
--
- -- -- - - -
00003.MPLS

AVC 0:02:38 326916096 21537634182 16,50 13,95 LPCM 2.0 1536Kbps (48kHz/16-bit)

DISC INFO:

Disc Title: Jacques Loussier Trio play Bach... and more (2004_2014) Blu-ray
Disc Size: 21537634182 bytes
Protection: AACS
BD-Java: No
BDInfo: 0.5.8

PLAYLIST REPORT:

Name: 00003.MPLS
Length: 0:02:38.525 (h:m:s.ms)
Size: 326916096 bytes
Total Bitrate: 16,50 Mbps

VIDEO:

Codec Bitrate Description
-- - --
MPEG-4 AVC Video 13949 kbps 1080i / 29,970 fps / 16:9 / High Profile 4.1

AUDIO:

Codec Language Bitrate Description
-- -- - --
LPCM Audio

Undetermined 1536 kbps 2.0 / 48 kHz / 1536 kbps / 16-bit

FILES:

Name Time In Length Size Total Bitrate
- - - -
00002.M2TS 0:00:00.000 0:02:38.191 326903808 16532
00007.M2TS 0:02:38.191 0:00:00.333 12288 295

CHAPTERS:

Number Time In Length Avg Video Rate Max 1-Sec Rate Max 1-Sec Time Max 5-Sec Rate Max 5-Sec Time Max 10Sec Rate Max 10Sec Time Avg Frame Size Max Frame Size Max Frame Time - -- -- -- -- -- -- -- -- -- --
1 0:00:00.000 0:02:38.525 13949 kbps 20591 kbps 00:00:46.846 19027 kbps 00:00:23.089 18601 kbps 00:00:43.843 58180 bytes 197219 bytes 00:00:26.393

STREAM DIAGNOSTICS:

File PID Type Codec Language Seconds Bitrate Bytes Packets
- - -- -- -- -- - --
00002.M2TS 4113 (0x1011) 0x1B AVC
158,125 13984 276409346 1507470
00002.M2TS 4352 (0x1100) 0x80 LPCM und (Undetermined) 158,125 1543 30499996 189834
00007.M2TS 4113 (0x1011) 0x1B AVC
0,200 244 6107 41

QUICK SUMMARY:

Disc Title: Jacques Loussier Trio play Bach... and more (2004_2014) Blu-ray
Disc Size: 21537634182 bytes
Protection: AACS
BD-Java: No
Playlist: 00003.MPLS
Size: 326916096 bytes
Length: 0:02:38.525
Total Bitrate: 16,50 Mbps
Video: MPEG-4 AVC Video / 13949 kbps / 1080i / 29,970 fps / 16:9 / High Profile 4.1
Audio: Undetermined / LPCM Audio / 2.0 / 48 kHz / 1536 kbps / 16-bit

********************
PLAYLIST: 00001.MPLS
******************** Total Video
Title Codec Length Movie Size Disc Size Bitrate Bitrate Main Audio Track Secondary Audio Track
--
- -- -- - - -
00001.MPLS

AVC 0:13:45 897097728 21537634182 8,69 8,00 DD AC3 2.0 192Kbps

DISC INFO:

Disc Title: Jacques Loussier Trio play Bach... and more (2004_2014) Blu-ray
Disc Size: 21537634182 bytes
Protection: AACS
BD-Java: No
BDInfo: 0.5.8

PLAYLIST REPORT:

Name: 00001.MPLS
Length: 0:13:45.591 (h:m:s.ms)
Size: 897097728 bytes
Total Bitrate: 8,69 Mbps

VIDEO:

Codec Bitrate Description
-- - --
MPEG-4 AVC Video 7996 kbps 480i / 29,970 fps / 16:9 / High Profile 4.1

AUDIO:

Codec Language Bitrate Description
-- -- - --
Dolby Digital Audio French 192 kbps 2.0 / 48 kHz / 192 kbps

SUBTITLES:

Codec Language Bitrate Description
-- -- - --
Presentation Graphics English 12,483 kbps
Presentation Graphics German 13,697 kbps

FILES:

Name Time In Length Size Total Bitrate
- - - -
00001.M2TS 0:00:00.000 0:13:45.257 897085440 8696
00015.M2TS 0:13:45.257 0:00:00.333 12288 295

CHAPTERS:

Number Time In Length Avg Video Rate Max 1-Sec Rate Max 1-Sec Time Max 5-Sec Rate Max 5-Sec Time Max 10Sec Rate Max 10Sec Time Avg Frame Size Max Frame Size Max Frame Time - -- -- -- -- -- -- -- -- -- --
1 0:00:00.000 0:07:47.967 8096 kbps 12432 kbps 00:00:40.173 11214 kbps 00:00:37.504 10282 kbps 00:01:21.181 33766 bytes 149948 bytes 00:01:16.776
2 0:07:47.967 0:05:57.623 7866 kbps 11374 kbps 00:09:27.533 10422 kbps 00:09:23.529 10312 kbps 00:09:18.524 32811 bytes 134724 bytes 00:13:01.780

STREAM DIAGNOSTICS:

File PID Type Codec Language Seconds Bitrate Bytes Packets
- - -- -- -- -- - --
00001.M2TS 4113 (0x1011) 0x1B AVC
825,191 8000 825222240 4499277
00001.M2TS 4352 (0x1100) 0x81 AC3 fra (French) 825,191 192 19810560 128975
00001.M2TS 4608 (0x1200) 0x90 PGS eng (English) 825,191 12

1288212 7855
00001.M2TS 4609 (0x1201) 0x90 PGS deu (German) 825,191 14

1413531 8542
00015.M2TS 4113 (0x1011) 0x1B AVC
0

0

5188 30

QUICK SUMMARY:

Disc Title: Jacques Loussier Trio play Bach... and more (2004_2014) Blu-ray
Disc Size: 21537634182 bytes
Protection: AACS
BD-Java: No
Playlist: 00001.MPLS
Size: 897097728 bytes
Length: 0:13:45.591
Total Bitrate: 8,69 Mbps
Video: MPEG-4 AVC Video / 7996 kbps / 480i / 29,970 fps / 16:9 / High Profile 4.1
Audio: French / Dolby Digital Audio / 2.0 / 48 kHz / 192 kbps
Subtitle: English / 12,483 kbps
Subtitle: German / 13,697 kbps

********************
PLAYLIST: 00006.MPLS
******************** Total Video
Title Codec Length Movie Size Disc Size Bitrate Bitrate Main Audio Track Secondary Audio Track
--
- -- -- - - -
00006.MPLS

MPEG-2 0:03:29 801067008 21537634182 30,55 27,44 LPCM 2.0 1536Kbps (48kHz/16-bit)

DISC INFO:

Disc Title: Jacques Loussier Trio play Bach... and more (2004_2014) Blu-ray
Disc Size: 21537634182 bytes
Protection: AACS
BD-Java: No
BDInfo: 0.5.8

PLAYLIST REPORT:

Name: 00006.MPLS
Length: 0:03:29.742 (h:m:s.ms)
Size: 801067008 bytes
Total Bitrate: 30,55 Mbps

VIDEO:

Codec Bitrate Description
-- - --
MPEG-2 Video 27442 kbps 1080i / 29,970 fps / 16:9

AUDIO:

Codec Language Bitrate Description
-- -- - --
LPCM Audio

Undetermined 1536 kbps 2.0 / 48 kHz / 1536 kbps / 16-bit

FILES:

Name Time In Length Size Total Bitrate
- - - -
00012.M2TS 0:00:00.000 0:03:29.409 801017856 30601
00013.M2TS 0:03:29.409 0:00:00.333 49152 1178

CHAPTERS:

Number Time In Length Avg Video Rate Max 1-Sec Rate Max 1-Sec Time Max 5-Sec Rate Max 5-Sec Time Max 10Sec Rate Max 10Sec Time Avg Frame Size Max Frame Size Max Frame Time - -- -- -- -- -- -- -- -- -- --
1 0:00:00.000 0:03:29.742 27442 kbps 32634 kbps 00:00:07.240 30490 kbps 00:00:09.075 30100 kbps 00:02:27.013 114457 bytes 548602 bytes 00:00:08.241

STREAM DIAGNOSTICS:

File PID Type Codec Language Seconds Bitrate Bytes Packets
- - -- -- -- -- - --
00012.M2TS 4113 (0x1011) 0x02 MPEG-2
209,342 27493 719434526 3913638
00012.M2TS 4352 (0x1100) 0x80 LPCM und (Undetermined) 209,342 1543 40374248 251292
00013.M2TS 4113 (0x1011) 0x02 MPEG-2
0,200 1750 43788 241

QUICK SUMMARY:

Disc Title: Jacques Loussier Trio play Bach... and more (2004_2014) Blu-ray
Disc Size: 21537634182 bytes
Protection: AACS
BD-Java: No
Playlist: 00006.MPLS
Size: 801067008 bytes
Length: 0:03:29.742
Total Bitrate: 30,55 Mbps
Video: MPEG-2 Video / 27442 kbps / 1080i / 29,970 fps / 16:9
Audio: Undetermined / LPCM Audio / 2.0 / 48 kHz / 1536 kbps / 16-bit

Jacques Loussier Trio play Bach... and more (2004/2014) Blu-ray

Jacques Loussier Trio play Bach... and more (2004/2014) Blu-ray

Jacques Loussier Trio play Bach... and more (2004/2014) Blu-ray

Jacques Loussier Trio play Bach... and more (2004/2014) Blu-ray

Jacques Loussier Trio play Bach... and more (2004/2014) Blu-ray

Jacques Loussier Trio play Bach... and more (2004/2014) Blu-ray

Jacques Loussier Trio play Bach... and more (2004/2014) Blu-ray

Jacques Loussier Trio play Bach... and more (2004/2014) Blu-ray

All thanks go to meloman67


DOWNLOAD LINKS:
Buy Premium To Support Me & Get Resumable Support & Max Speed

Rapidgator.net:
9ats9.J.L.T.p.B.a.m.20042014.B.part01.rar.html
9ats9.J.L.T.p.B.a.m.20042014.B.part02.rar.html
9ats9.J.L.T.p.B.a.m.20042014.B.part03.rar.html
9ats9.J.L.T.p.B.a.m.20042014.B.part04.rar.html
9ats9.J.L.T.p.B.a.m.20042014.B.part05.rar.html
9ats9.J.L.T.p.B.a.m.20042014.B.part06.rar.html
9ats9.J.L.T.p.B.a.m.20042014.B.part07.rar.html
9ats9.J.L.T.p.B.a.m.20042014.B.part08.rar.html
9ats9.J.L.T.p.B.a.m.20042014.B.part09.rar.html
9ats9.J.L.T.p.B.a.m.20042014.B.part10.rar.html
9ats9.J.L.T.p.B.a.m.20042014.B.part11.rar.html
9ats9.J.L.T.p.B.a.m.20042014.B.part12.rar.html
9ats9.J.L.T.p.B.a.m.20042014.B.part13.rar.html
9ats9.J.L.T.p.B.a.m.20042014.B.part14.rar.html
9ats9.J.L.T.p.B.a.m.20042014.B.part15.rar.html
9ats9.J.L.T.p.B.a.m.20042014.B.part16.rar.html
9ats9.J.L.T.p.B.a.m.20042014.B.part17.rar.html
9ats9.J.L.T.p.B.a.m.20042014.B.part18.rar.html
9ats9.J.L.T.p.B.a.m.20042014.B.part19.rar.html
9ats9.J.L.T.p.B.a.m.20042014.B.part20.rar.html
9ats9.J.L.T.p.B.a.m.20042014.B.part21.rar.html
9ats9.J.L.T.p.B.a.m.20042014.B.part22.rar.html
9ats9.J.L.T.p.B.a.m.20042014.B.part23.rar.html
9ats9.J.L.T.p.B.a.m.20042014.B.part24.rar.html
9ats9.J.L.T.p.B.a.m.20042014.B.part25.rar.html
9ats9.J.L.T.p.B.a.m.20042014.B.part26.rar.html
9ats9.J.L.T.p.B.a.m.20042014.B.part27.rar.html
9ats9.J.L.T.p.B.a.m.20042014.B.part28.rar.html
9ats9.J.L.T.p.B.a.m.20042014.B.part29.rar.html
9ats9.J.L.T.p.B.a.m.20042014.B.part30.rar.html
9ats9.J.L.T.p.B.a.m.20042014.B.part31.rar.html
9ats9.J.L.T.p.B.a.m.20042014.B.part32.rar.html
9ats9.J.L.T.p.B.a.m.20042014.B.part33.rar.html
9ats9.J.L.T.p.B.a.m.20042014.B.part34.rar.html
9ats9.J.L.T.p.B.a.m.20042014.B.part35.rar.html
9ats9.J.L.T.p.B.a.m.20042014.B.part36.rar.html
9ats9.J.L.T.p.B.a.m.20042014.B.part37.rar.html
9ats9.J.L.T.p.B.a.m.20042014.B.part38.rar.html
9ats9.J.L.T.p.B.a.m.20042014.B.part39.rar.html
9ats9.J.L.T.p.B.a.m.20042014.B.part40.rar.html
9ats9.J.L.T.p.B.a.m.20042014.B.part41.rar.html
9ats9.J.L.T.p.B.a.m.20042014.B.part42.rar.html

Uploaded.net:
9ats9.J.L.T.p.B.a.m.20042014.B.part01.rar
9ats9.J.L.T.p.B.a.m.20042014.B.part02.rar
9ats9.J.L.T.p.B.a.m.20042014.B.part03.rar
9ats9.J.L.T.p.B.a.m.20042014.B.part04.rar
9ats9.J.L.T.p.B.a.m.20042014.B.part05.rar
9ats9.J.L.T.p.B.a.m.20042014.B.part06.rar
9ats9.J.L.T.p.B.a.m.20042014.B.part07.rar
9ats9.J.L.T.p.B.a.m.20042014.B.part08.rar
9ats9.J.L.T.p.B.a.m.20042014.B.part09.rar
9ats9.J.L.T.p.B.a.m.20042014.B.part10.rar
9ats9.J.L.T.p.B.a.m.20042014.B.part11.rar
9ats9.J.L.T.p.B.a.m.20042014.B.part12.rar
9ats9.J.L.T.p.B.a.m.20042014.B.part13.rar
9ats9.J.L.T.p.B.a.m.20042014.B.part14.rar
9ats9.J.L.T.p.B.a.m.20042014.B.part15.rar
9ats9.J.L.T.p.B.a.m.20042014.B.part16.rar
9ats9.J.L.T.p.B.a.m.20042014.B.part17.rar
9ats9.J.L.T.p.B.a.m.20042014.B.part18.rar
9ats9.J.L.T.p.B.a.m.20042014.B.part19.rar
9ats9.J.L.T.p.B.a.m.20042014.B.part20.rar
9ats9.J.L.T.p.B.a.m.20042014.B.part21.rar
9ats9.J.L.T.p.B.a.m.20042014.B.part22.rar
9ats9.J.L.T.p.B.a.m.20042014.B.part23.rar
9ats9.J.L.T.p.B.a.m.20042014.B.part24.rar
9ats9.J.L.T.p.B.a.m.20042014.B.part25.rar
9ats9.J.L.T.p.B.a.m.20042014.B.part26.rar
9ats9.J.L.T.p.B.a.m.20042014.B.part27.rar
9ats9.J.L.T.p.B.a.m.20042014.B.part28.rar
9ats9.J.L.T.p.B.a.m.20042014.B.part29.rar
9ats9.J.L.T.p.B.a.m.20042014.B.part30.rar
9ats9.J.L.T.p.B.a.m.20042014.B.part31.rar
9ats9.J.L.T.p.B.a.m.20042014.B.part32.rar
9ats9.J.L.T.p.B.a.m.20042014.B.part33.rar
9ats9.J.L.T.p.B.a.m.20042014.B.part34.rar
9ats9.J.L.T.p.B.a.m.20042014.B.part35.rar
9ats9.J.L.T.p.B.a.m.20042014.B.part36.rar
9ats9.J.L.T.p.B.a.m.20042014.B.part37.rar
9ats9.J.L.T.p.B.a.m.20042014.B.part38.rar
9ats9.J.L.T.p.B.a.m.20042014.B.part39.rar
9ats9.J.L.T.p.B.a.m.20042014.B.part40.rar
9ats9.J.L.T.p.B.a.m.20042014.B.part41.rar
9ats9.J.L.T.p.B.a.m.20042014.B.part42.rar

Uploadable.ch:
9ats9.J.L.T.p.B.a.m.20042014.B.part01.rar
9ats9.J.L.T.p.B.a.m.20042014.B.part02.rar
9ats9.J.L.T.p.B.a.m.20042014.B.part03.rar
9ats9.J.L.T.p.B.a.m.20042014.B.part04.rar
9ats9.J.L.T.p.B.a.m.20042014.B.part05.rar
9ats9.J.L.T.p.B.a.m.20042014.B.part06.rar
9ats9.J.L.T.p.B.a.m.20042014.B.part07.rar
9ats9.J.L.T.p.B.a.m.20042014.B.part08.rar
9ats9.J.L.T.p.B.a.m.20042014.B.part09.rar
9ats9.J.L.T.p.B.a.m.20042014.B.part10.rar
9ats9.J.L.T.p.B.a.m.20042014.B.part11.rar
9ats9.J.L.T.p.B.a.m.20042014.B.part12.rar
9ats9.J.L.T.p.B.a.m.20042014.B.part13.rar
9ats9.J.L.T.p.B.a.m.20042014.B.part14.rar
9ats9.J.L.T.p.B.a.m.20042014.B.part15.rar
9ats9.J.L.T.p.B.a.m.20042014.B.part16.rar
9ats9.J.L.T.p.B.a.m.20042014.B.part17.rar
9ats9.J.L.T.p.B.a.m.20042014.B.part18.rar
9ats9.J.L.T.p.B.a.m.20042014.B.part19.rar
9ats9.J.L.T.p.B.a.m.20042014.B.part20.rar
9ats9.J.L.T.p.B.a.m.20042014.B.part21.rar
9ats9.J.L.T.p.B.a.m.20042014.B.part22.rar
9ats9.J.L.T.p.B.a.m.20042014.B.part23.rar
9ats9.J.L.T.p.B.a.m.20042014.B.part24.rar
9ats9.J.L.T.p.B.a.m.20042014.B.part25.rar
9ats9.J.L.T.p.B.a.m.20042014.B.part26.rar
9ats9.J.L.T.p.B.a.m.20042014.B.part27.rar
9ats9.J.L.T.p.B.a.m.20042014.B.part28.rar
9ats9.J.L.T.p.B.a.m.20042014.B.part29.rar
9ats9.J.L.T.p.B.a.m.20042014.B.part30.rar
9ats9.J.L.T.p.B.a.m.20042014.B.part31.rar
9ats9.J.L.T.p.B.a.m.20042014.B.part32.rar
9ats9.J.L.T.p.B.a.m.20042014.B.part33.rar
9ats9.J.L.T.p.B.a.m.20042014.B.part34.rar
9ats9.J.L.T.p.B.a.m.20042014.B.part35.rar
9ats9.J.L.T.p.B.a.m.20042014.B.part36.rar
9ats9.J.L.T.p.B.a.m.20042014.B.part37.rar
9ats9.J.L.T.p.B.a.m.20042014.B.part38.rar
9ats9.J.L.T.p.B.a.m.20042014.B.part39.rar
9ats9.J.L.T.p.B.a.m.20042014.B.part40.rar
9ats9.J.L.T.p.B.a.m.20042014.B.part41.rar
9ats9.J.L.T.p.B.a.m.20042014.B.part42.rar

Links are Interchangeable - No Password - Single Extraction

Direct Download

Tags: Jacques, Loussier

Jacques Loussier Trio play Bach... and more (2004/2014) Blu-ray Download via Hotfile Rapidshare Fileserve Megaupload & FileSonic, Jacques Loussier Trio play Bach... and more (2004/2014) Blu-ray free torrent downloads included crack, serial, keygen.


Attention!Information

Members of Guest cannot leave comments.