Morphine - The Night (2000)

Download Now

Morphine - The Night (2000)

Morphine - The Night (2000)
EAC Rip | FLAC (tracks & cue & log) | 295 MB | MP3 CBR 320 kbps | 117 MB | Artwork (JPEG 600 dpi) | 45 MB | 50:04
Genre: Alternative Rock / Indie Rock | Country: USA | Label: DreamWorks | 0044-50056-2

"Morphine's fourth studio release, 1997's Like Swimming, was a bit of a disappointment when compared to such stellar earlier releases as Cure for Pain and Yes. After singer/two-string bassist Mark Sandman died of a heart attack on-stage in 1999, many Morphine fans assumed that Like Swimming would be the band's swansong thankfully, it wasn't. The Boston trio completed their fifth album just prior to Sandman's untimely passing, entitled The Night, and it's definitely an improvement over its predecessor. Whereas many of the songs on their previous album sounded unfinished and rushed, The Night sounds like a fully realized work. "



Tracklist:

01 - The Night
02 - So Many Ways
03 - Souvenir
04 - Top Floor, Bottom Buzzer
05 - Like a Mirror
06 - A Good Woman Is Hard to Find
07 - Rope on Fire
08 - I'm Yours, You're Mine
09 - The Way We Met
10 - Slow Numbers
11 - Take Me With You

Exact Audio Copy V1.0 beta 2 from 29. April 2011

EAC extraction logfile from 25. June 2011, 9:39

Morphine / The Night

Used drive : PLEXTOR DVDR PX-712A Adapter: 0 ID: 0

Read mode : Secure
Utilize accurate stream : Yes
Defeat audio cache : Yes
Make use of C2 pointers : No

Read offset correction

: 30
Overread into Lead-In and Lead-Out : Yes
Fill up missing offset samples with silence : Yes
Delete leading and trailing silent blocks : No
Null samples used in CRC calculations : Yes
Used interface
: Native Win32 interface for Win NT & 2000
Gap handling
: Appended to previous track

Used output format : User Defined Encoder
Selected bitrate : 896 kBit/s
Quality : High
Add ID3 tag : No
Command line compressor : C:\Program Files (x86)\Exact Audio Copy\Flac\flac.exe
Additional command line options : -8 -V -T "ARTIST=%artist%" -T "TITLE=%title%" -T "ALBUM=%albumtitle%" -T "DATE=%year%" -T "TRACKNUMBER=%tracknr%" -T "TOTALTRACKS=%numtracks%" -T "GENRE=%genre%" -T "ALBUMARTIST=%albumartist%" -T "ALBUM ARTIST=%albumartist%

TOC of the extracted CD Track | Start | Length | Start sector | End sector
--1 | 0:00.00 | 4:48.50 | 0 | 21649 2 | 4:48.50 | 4:01.37 | 21650 | 39761 3 | 8:50.12 | 4:40.35 | 39762 | 60796 4 | 13:30.47 | 5:43.40 | 60797 | 86561 5 | 19:14.12 | 5:26.00 | 86562 | 111011 6 | 24:40.12 | 4:14.28 | 111012 | 130089 7 | 28:54.40 | 5:36.47 | 130090 | 155336 8 | 34:31.12 | 3:46.65 | 155337 | 172351 9 | 38:18.02 | 2:59.48 | 172352 | 185824
10 | 41:17.50 | 3:58.27 | 185825 | 203701
11 | 45:16.02 | 4:53.70 | 203702 | 225746

Track 1 Filename C:\_Rips\Morphine - The Night (2000) [FLAC] (Dreamworks 0044-50056-2)\01 - The Night.wav Pre-gap length 0:00:02.00 Peak level 97.9 %
Extraction speed 5.0 X
Track quality 100.0 %
Test CRC D0A3F5F2
Copy CRC D0A3F5F2
Accurately ripped (confidence 3) [495D98D5] (AR v2)
Copy OK

Track 2 Filename C:\_Rips\Morphine - The Night (2000) [FLAC] (Dreamworks 0044-50056-2)\02 - So Many Ways.wav Peak level 97.9 %
Extraction speed 4.9 X
Track quality 100.0 %
Test CRC CE359436
Copy CRC CE359436
Accurately ripped (confidence 3) [2599ECF7] (AR v2)
Copy OK

Track 3 Filename C:\_Rips\Morphine - The Night (2000) [FLAC] (Dreamworks 0044-50056-2)\03 - Souvenir.wav Peak level 97.9 %
Extraction speed 4.9 X
Track quality 100.0 %
Test CRC 87D8212B
Copy CRC 87D8212B
Accurately ripped (confidence 3) [82B61E48] (AR v2)
Copy OK

Track 4 Filename C:\_Rips\Morphine - The Night (2000) [FLAC] (Dreamworks 0044-50056-2)\04 - Top Floor, Bottom Buzzer.wav Peak level 97.9 %
Extraction speed 5.1 X
Track quality 100.0 %
Test CRC EDB66E81
Copy CRC EDB66E81
Accurately ripped (confidence 3) [6C5DF7D1] (AR v2)
Copy OK

Track 5 Filename C:\_Rips\Morphine - The Night (2000) [FLAC] (Dreamworks 0044-50056-2)\05 - Like a Mirror.wav Peak level 97.9 %
Extraction speed 4.5 X
Track quality 99.9 %
Test CRC A6E363C9
Copy CRC A6E363C9
Accurately ripped (confidence 3) [907FE700] (AR v2)
Copy OK

Track 6 Filename C:\_Rips\Morphine - The Night (2000) [FLAC] (Dreamworks 0044-50056-2)\06 - A Good Woman Is Hard to Find.wav Peak level 97.9 %
Extraction speed 4.9 X
Track quality 100.0 %
Test CRC EEC5CF89
Copy CRC EEC5CF89
Accurately ripped (confidence 3) 9E061C8 (AR v2)
Copy OK

Track 7 Filename C:\_Rips\Morphine - The Night (2000) [FLAC] (Dreamworks 0044-50056-2)\07 - Rope on Fire.wav Pre-gap length 0:00:02.35 Peak level 97.9 %
Extraction speed 4.5 X
Track quality 99.9 %
Test CRC 3D56EBD9
Copy CRC 3D56EBD9
Accurately ripped (confidence 3) [872B43CB] (AR v2)
Copy OK

Track 8 Filename C:\_Rips\Morphine - The Night (2000) [FLAC] (Dreamworks 0044-50056-2)\08 - I'm Yours, You're Mine.wav Peak level 97.9 %
Extraction speed 4.8 X
Track quality 100.0 %
Test CRC AC3B78AA
Copy CRC AC3B78AA
Accurately ripped (confidence 3) [A6E86984] (AR v2)
Copy OK

Track 9 Filename C:\_Rips\Morphine - The Night (2000) [FLAC] (Dreamworks 0044-50056-2)\09 - The Way We Met.wav Pre-gap length 0:00:02.05 Peak level 97.9 %
Extraction speed 3.9 X
Track quality 99.9 %
Test CRC 4E6114DE
Copy CRC 4E6114DE
Accurately ripped (confidence 3) [97CBAA9A] (AR v2)
Copy OK

Track 10 Filename C:\_Rips\Morphine - The Night (2000) [FLAC] (Dreamworks 0044-50056-2)\10 - Slow Numbers.wav Peak level 97.9 %
Extraction speed 4.2 X
Track quality 99.9 %
Test CRC EF4E7EB7
Copy CRC EF4E7EB7
Accurately ripped (confidence 3) [6E3F256B] (AR v2)
Copy OK

Track 11 Filename C:\_Rips\Morphine - The Night (2000) [FLAC] (Dreamworks 0044-50056-2)\11 - Take Me with You.wav Pre-gap length 0:00:01.70 Peak level 97.9 %
Extraction speed 5.4 X
Track quality 100.0 %
Test CRC 5B37ADE7
Copy CRC 5B37ADE7
Accurately ripped (confidence 3) [DFE4EECE] (AR v2)
Copy OK

All tracks accurately ripped

No errors occurred

End of status report

==== Log checksum 51D8C9AE3DEE6E90E03B1A00CD9B763A54BA41E60D479EA46B348E6F1C3EDBBC ====

Personnel

Baritone Saxophone, Tenor Saxophone, Bass Saxophone, Saxophone , Backing Vocals, Pian - Dana Colley
Drums - Jerome Deupree
Drums, Percussion, Backing Vocals - Billy Conway
Lead Vocals, Bass Guitar, Bass , Piano, Organ, Acoustic Guitar, Trombone, Slide Guitar - Mark Sandman
Cello - Jane Scarpanton
Piano -Dana Colley

All thanks to original releaser

Morphine - The Night (2000)

Morphine - The Night (2000)


DOWNLOAD
(Premium Recommended)


All above links are interchangable. No password

Direct Download

Tags: Morphine

Morphine - The Night (2000) Download via Hotfile Rapidshare Fileserve Megaupload & FileSonic, Morphine - The Night (2000) free torrent downloads included crack, serial, keygen.


Attention!Information

Members of Guest cannot leave comments.