J.J. Cale - The Very Best Of J.J. Cale (1997)

Download Now

J.J. Cale - The Very Best Of J.J. Cale (1997)

J.J. Cale - The Very Best Of J.J. Cale (1997)
EAC Rip | FLAC (Img) + Cue + Log ~ 392 Mb | MP3 CBR320 ~ 161 Mb
Covers Included (JPG, 300 dpi) | RAR 5% Recovery
Pop/Blues/Folk/Classic Rock | Mercury #534 754-2

"With his dry-as-the-desert vocal approach and his sparse, easy, laid-back writing style, not to mention his swampy, reverb-drenched guitar playing, J.J. Cale has one card that he keeps playing over and over again, and more often than not, it takes the trick. Too many Cale songs in a row, though, and it all starts to sound like one big song suite or a car going down the road stuck in second gear. This 20-song best-of is exactly the same, with an identical cover and song sequence, as Mercury's Definitive Collection, issued in 1998. In either incarnation, it makes for a nice sampler of Cale's influential early recordings."

Wiki | Discogs | All Music
***************

J.J. Cale - The Very Best Of J.J. Cale (1997)

Track List:

01. Call me the breeze [02:39]
02. Crazy mama [02:31]
03. Magnolia [03:25]
04. After midnight [02:24]
05. Lies [02:57]
06. Midnight in Memphis [04:26]
07. Cajun moon [02:17]
08. Rock and roll records [02:06]
09. Cocaine [02:54]
10. Hey baby [03:19]
11. I'll make love to you anytime [03:13]
12. Don't cry sister [02:14]
13. Thirteen days [02:51]
14. Sensitive kind [05:09]
15. Carry on [02:22]
16. Mama don't [03:52]
17. City girls [02:50]
18. Devil in disguise [02:03]
19. Don't wait [03:10]
20. Money talks [04:18]

Exact Audio Copy V1.0 beta 3 from 29. August 2011

EAC extraction logfile from 6. August 2015, 6:44

J.J. Cale / The Very Best Of J. J. Cale

Used drive : MATSHITABD-CMB UJ242AS Adapter: 0 ID: 1

Read mode : Secure
Utilize accurate stream : Yes
Defeat audio cache : Yes
Make use of C2 pointers : No

Read offset correction

: 103
Overread into Lead-In and Lead-Out : No
Fill up missing offset samples with silence : Yes
Delete leading and trailing silent blocks : No
Null samples used in CRC calculations : Yes
Used interface
: Installed external ASPI interface

Used output format : User Defined Encoder
Selected bitrate : 1024 kBit/s
Quality : High
Add ID3 tag : Yes
Command line compressor : C:\Program Files (x86)\Exact Audio Copy\Flac\flac.exe
Additional command line options : -V -8 -T "Date=%year%" -T "Genre=%genre%" %source%

TOC of the extracted CD Track | Start | Length | Start sector | End sector
--1 | 0:00.00 | 2:38.22 | 0 | 11871 2 | 2:38.22 | 2:30.38 | 11872 | 23159 3 | 5:08.60 | 3:24.55 | 23160 | 38514 4 | 8:33.40 | 2:23.05 | 38515 | 49244 5 | 10:56.45 | 2:56.70 | 49245 | 62514 6 | 13:53.40 | 4:25.40 | 62515 | 82429 7 | 18:19.05 | 2:16.17 | 82430 | 92646 8 | 20:35.22 | 2:05.15 | 92647 | 102036 9 | 22:40.37 | 2:53.60 | 102037 | 115071
10 | 25:34.22 | 3:18.18 | 115072 | 129939
11 | 28:52.40 | 3:12.02 | 129940 | 144341
12 | 32:04.42 | 2:13.65 | 144342 | 154381
13 | 34:18.32 | 2:50.03 | 154382 | 167134
14 | 37:08.35 | 5:08.55 | 167135 | 190289
15 | 42:17.15 | 2:21.17 | 190290 | 200881
16 | 44:38.32 | 3:51.10 | 200882 | 218216
17 | 48:29.42 | 2:49.23 | 218217 | 230914
18 | 51:18.65 | 2:02.60 | 230915 | 240124
19 | 53:21.50 | 3:09.32 | 240125 | 254331
20 | 56:31.07 | 4:17.04 | 254332 | 273610

Range status and errors

Selected range Filename C:\EACrip\J.J. Cale - The Very Best Of J. J. Cale.wav Peak level 100.0 %
Extraction speed 4.3 X
Range quality 100.0 %
Test CRC 63A5A653
Copy CRC 63A5A653
Copy OK

No errors occurred


AccurateRip summary

Track 1 accurately ripped (confidence 81) [92C43873] (AR v2)
Track 2 accurately ripped (confidence 82) [F88C1098] (AR v2)
Track 3 accurately ripped (confidence 82) [570FB6AE] (AR v2)
Track 4 accurately ripped (confidence 80) [442C2A82] (AR v2)
Track 5 accurately ripped (confidence 81) [D8CC5677] (AR v2)
Track 6 accurately ripped (confidence 81) [D23BD6A0] (AR v2)
Track 7 accurately ripped (confidence 81) D1743C6 (AR v2)
Track 8 accurately ripped (confidence 81) [8887A856] (AR v2)
Track 9 accurately ripped (confidence 82) [8C34B96D] (AR v2)
Track 10 accurately ripped (confidence 81) [62CEA6C5] (AR v2)
Track 11 accurately ripped (confidence 81) [EC9012C9] (AR v2)
Track 12 accurately ripped (confidence 82) [30191CBE] (AR v2)
Track 13 accurately ripped (confidence 82) [60F38A6C] (AR v2)
Track 14 accurately ripped (confidence 82) [48611B4C] (AR v2)
Track 15 accurately ripped (confidence 81) [A0652EEB] (AR v2)
Track 16 accurately ripped (confidence 82) [10D4BCD4] (AR v2)
Track 17 accurately ripped (confidence 82) [9A8CBF2C] (AR v2)
Track 18 accurately ripped (confidence 81) [16CB79D7] (AR v2)
Track 19 accurately ripped (confidence 82) [C4B7878F] (AR v2)
Track 20 accurately ripped (confidence 82) [FD6A1AE4] (AR v2)

All tracks accurately ripped

End of status report

==== Log checksum F7E275E05AB054CA9C0E167EB1376D91ECE89CF9AF8532FF66D4A293BE17FBD9 ====

foobar2000 1.2.6 / Dynamic Range Meter 1.1.1
log date: 2015-08-09 01:55:15

Analyzed: J.J. Cale / The Very Best Of J. J. Cale

DR Peak RMS Duration Track

DR13 0.00 dB -13.75 dB 2:38 01-Call me the breeze
DR13 -1.89 dB -18.03 dB 2:31 02-Crazy mama
DR14 -2.06 dB -19.22 dB 3:25 03-Magnolia
DR14 0.00 dB -15.83 dB 2:23 04-After midnight
DR14 0.00 dB -16.04 dB 2:57 05-Lies
DR15 0.00 dB -16.93 dB 4:26 06-Midnight in Memphis
DR13 -0.84 dB -16.26 dB 2:16 07-Cajun moon
DR12 -0.04 dB -14.17 dB 2:05 08-Rock and roll records
DR12 0.00 dB -13.41 dB 2:54 09-Cocaine
DR13 -0.76 dB -16.25 dB 3:18 10-Hey baby
DR14 0.00 dB -15.86 dB 3:12 11-I'll make love to you anytime
DR14 -0.28 dB -17.70 dB 2:14 12-Don't cry sister
DR13 -2.11 dB -17.40 dB 2:50 13-Thirteen days
DR14 -0.99 dB -16.53 dB 5:09 14-Sensitive kind
DR15 -0.06 dB -17.78 dB 2:21 15-Carry on
DR15 0.00 dB -16.93 dB 3:51 16-Mama don't
DR14 0.00 dB -17.39 dB 2:49 17-City girls
DR12 0.00 dB -13.72 dB 2:03 18-Devil in disguise
DR16 0.00 dB -17.48 dB 3:09 19-Don't wait
DR16 0.00 dB -17.75 dB 4:17 20-Money talks

Number of tracks: 20
Official DR value: DR14

Samplerate: 44100 Hz
Channels: 2
Bits per sample: 16
Bitrate: 825 kbps
Codec: FLAC

[CUETools log; Date: 09.08.2015 1:55:17; Version: 2.1.5]
[CTDB TOCID: OYhlt2OvDFFVzrOeGuum3S9xiEQ-] found.
Track | CTDB Status
1 | (88/89) Accurately ripped
2 | (88/89) Accurately ripped
3 | (88/89) Accurately ripped
4 | (88/89) Accurately ripped
5 | (88/89) Accurately ripped
6 | (88/89) Accurately ripped
7 | (88/89) Accurately ripped
8 | (88/89) Accurately ripped
9 | (88/89) Accurately ripped
10 | (87/89) Accurately ripped
11 | (88/89) Accurately ripped
12 | (88/89) Accurately ripped
13 | (87/89) Accurately ripped
14 | (89/89) Accurately ripped
15 | (88/89) Accurately ripped
16 | (87/89) Accurately ripped
17 | (88/89) Accurately ripped
18 | (88/89) Accurately ripped
19 | (87/89) Accurately ripped
20 | (88/89) Accurately ripped
[AccurateRip ID: 002a71e0-027309e6-eb0e4014] found.
Track [ CRC | V2 ] Status
01 [9175cd53|92c43873] (021+081/102) Accurately ripped
02 [1638df4e|f88c1098] (022+082/104) Accurately ripped
03 [34ec900e|570fb6ae] (022+082/104) Accurately ripped
04 c749262|442c2a82 (023+080/103) Accurately ripped
05 [48b3bc36|d8cc5677] (022+081/103) Accurately ripped
06 [f5986632|d23bd6a0] (022+081/103) Accurately ripped
07 [039ee00f|bd1743c6] (022+081/103) Accurately ripped
08 [de15727e|8887a856] (022+081/103) Accurately ripped
09 [2ad09b93|8c34b96d] (023+082/105) Accurately ripped
10 [70fa21f9|62cea6c5] (022+081/103) Accurately ripped
11 [e7787ecf|ec9012c9] (022+081/103) Accurately ripped
12 [c57a7fa2|30191cbe] (023+082/105) Accurately ripped
13 [04620c85|60f38a6c] (022+082/104) Accurately ripped
14 [41b0ef4f|48611b4c] (022+082/104) Accurately ripped
15 [60e8c94b|a0652eeb] (023+081/104) Accurately ripped
16 756abac|10d4bcd4 (023+082/105) Accurately ripped
17 [fb7e749f|9a8cbf2c] (022+082/104) Accurately ripped
18 [ff3fa971|16cb79d7] (022+081/103) Accurately ripped
19 [873d94f0|c4b7878f] (022+082/104) Accurately ripped
20 [9f036d13|fd6a1ae4] (021+082/103) Accurately ripped

Track Peak [ CRC32 ] [W/O NULL] [ LOG ]
-- 99,9 [63A5A653] [4EA721F6] CRC32
01 99,9 [5E723D3B] [FD2C96F4]
02 80,4 [6542EDA7] [E7F557A4]
03 78,9 [A99CAF11] [C76E4948]
04 99,9 2D34C16 [18053557]
05 99,9 [D9F0CB0C] [C25A9467]
06 99,9 [46D3661E] [6BF7E973]
07 90,8 [52BA5B3F] [30F13E07]
08 99,5 [E061EC64] [44BBC9C1]
09 99,9 [74555C4D] [030CA54E]
10 91,6 [3DF5205D] [709DA2F7]
11 99,9 [4A9016C6] [6708C37E]
12 96,7 [AEC8CB3F] [24BFFAEB]
13 78,4 [2AFD8ED4] [8D9ACB5F]
14 89,2 [E38AC2E1] [6437ECB8]
15 99,3 [DA170272] [5B69273E]
16 99,9 [488EA8C9] [A8BB7C5F]
17 99,9 [5C6C8157] [25C7CD1E]
18 99,9 [A084098F] [6F22A6DB]
19 99,9 [8A4BCBD1] [3D5D7F0A]
20 99,9 [F2186884] [89581325]

J.J. Cale - The Very Best Of J.J. Cale (1997)

All thanks go to rd


DOWNLOAD:
Buy Premium From My Links To Get Resumable Support & Max Speed & To Support Me


Links are Interchangeable - No Password

Direct Download

J.J. Cale - The Very Best Of J.J. Cale (1997) Download via Hotfile Rapidshare Fileserve Megaupload & FileSonic, J.J. Cale - The Very Best Of J.J. Cale (1997) free torrent downloads included crack, serial, keygen.


Attention!Information

Members of Guest cannot leave comments.