Hopper, S. Klossner - Different (1998)

Download Now

Hopper, S. Klossner - Different (1998)

Hopper, S. Klossner - Different (1998)
Rock | 1cd | EAC Rip | Wv + Cue + Log | covers
Blueprint BP303CD | rec: 1997 | 440Mb

Like a lot of the diagonal musical career moves I've made, working with Lisa came about indirectly from a Robert Wyatt connection. Robert wrote some lyrics for a Russian tune. I liked his lyrics but bigheadedly reckoned I could write a more interesting tune. In the end, the only part of the lyrics that remained was the title and first two lines: HALF THE TIME it's pantomime/ Half the time it's only make believe... Then Eccentric Streatham Guitarist Mark Hewins wrote some completely different words and asked Lisa to sing the song for a demo. I was immediately knocked out by the sound of her voice and the fact she could sing the notes right - it wasn't a particularly simple tune.
Mark, Lisa and I started collaborating. I had a lot of tunes already written and we used to hang out at Mark's drinking tea (me horizontal on the sofa for the most part), collectively wnting words for them.
Mark then went on to other things, mainly getting his studio together, but Lisa and I continued to send each other bits and pieces of words, music, nightmares - even when I went to live in France for six months. I have a good time fitting music to the angular snippets she writes - it's a lot more interesting than composing for neat and tidy verses that already scan perfectly and force the music into a regular rhythm.
After a couple of years of toing and froing we started recording at Delta, near Canterbury, taking our time, doing a few songs at each session. A lot of the first CD's worth (yes, we have a whole stack of songs left over for the next one) is midi-based, with some mighty fuzz bass here and there and guest appearances by other real musicians blowing and hitting things. We used minimal equipment - a tiny Yamaha keyboard that has about two usable sounds. If this record is the runaway success it deserves to be I will probably buy a second tiny Yamaha keyboard... ~H. Hopper

Track listing
01. Lying There (5:04)
02. Pack Light (2:34)
03. And The Rain Falls (3:32)
04. 20th Year (3:52)
05. The Story (3:39)
06. Clouds (4:40)
07. Dream Sequence (3:08)
08. Was A Friend (6:12)
09. Otherworld (4:56)
10. Yr Protection (3:53)
11. Strawberry Back (3:55)
12. Come, Come (4:37)
13. 20th Year (Reprise) (1:22)
~ (51:24)

Personnel
- Hugh Hopper / arrangements, programming, bass, keyboards
- Lisa S.Klossner / lyrics, voice

Exact Audio Copy V1.0 beta 3 from 29. August 2011

EAC extraction logfile from 23. August 2013, 13:50

Hugh Hopper & Lisa S. Klossner / Different

Used drive : MATSHITADVD-RAM UJ-860H Adapter: 2 ID: 0

Read mode : Secure
Utilize accurate stream : Yes
Defeat audio cache : Yes
Make use of C2 pointers : No

Read offset correction

: 102
Overread into Lead-In and Lead-Out : No
Fill up missing offset samples with silence : Yes
Delete leading and trailing silent blocks : No
Null samples used in CRC calculations : Yes
Used interface
: Native Win32 interface for Win NT & 2000

Used output format : User Defined Encoder
Selected bitrate : 768 kBit/s
Quality : High
Add ID3 tag : No
Command line compressor : C:\Program Files (x86)\Exact Audio Copy\FLAC\wavpack.exe
Additional command line options : -hm -w "Year=%year%" -w "Genre=%genre%" %source% %dest%

TOC of the extracted CD Track | Start | Length | Start sector | End sector
--1 | 0:00.00 | 5:04.30 | 0 | 22829 2 | 5:04.30 | 2:34.12 | 22830 | 34391 3 | 7:38.42 | 3:32.05 | 34392 | 50296 4 | 11:10.47 | 3:51.45 | 50297 | 67666 5 | 15:02.17 | 3:39.13 | 67667 | 84104 6 | 18:41.30 | 4:39.42 | 84105 | 105071 7 | 23:20.72 | 3:07.70 | 105072 | 119166 8 | 26:28.67 | 6:11.63 | 119167 | 147054 9 | 32:40.55 | 4:55.50 | 147055 | 169229
10 | 37:36.30 | 3:53.22 | 169230 | 186726
11 | 41:29.52 | 3:55.05 | 186727 | 204356
12 | 45:24.57 | 4:37.35 | 204357 | 225166
13 | 50:02.17 | 1:21.58 | 225167 | 231299

Range status and errors

Selected range Filename C:\Users\kiaralov\Documents\Hugh Hopper & Lisa S. Klossner - Different.wav Peak level 98.0 %
Extraction speed 2.4 X
Range quality 100.0 %
Test CRC F0239CEE
Copy CRC F0239CEE
Copy OK

No errors occurred


AccurateRip summary

Track 1 not present in database
Track 2 not present in database
Track 3 not present in database
Track 4 not present in database
Track 5 not present in database
Track 6 not present in database
Track 7 not present in database
Track 8 not present in database
Track 9 not present in database
Track 10 not present in database
Track 11 not present in database
Track 12 not present in database
Track 13 not present in database

None of the tracks are present in the AccurateRip database

End of status report

==== Log checksum 25723D9EE15059C6D9CF9E0659C3DD8EF945F3F5A4B30FDE36B5202BC0787B4E ====

[CUETools log; Date: 2015.07.19. 23:40:52; Version: 2.1.5]
[CTDB TOCID: Iqx2j4vE4GR7mOMjs1dOZA_4p4w-] found.
Track | CTDB Status
1 | (1/1) Accurately ripped
2 | (1/1) Accurately ripped
3 | (1/1) Accurately ripped
4 | (1/1) Accurately ripped
5 | (1/1) Accurately ripped
6 | (1/1) Accurately ripped
7 | (1/1) Accurately ripped
8 | (1/1) Accurately ripped
9 | (1/1) Accurately ripped
10 | (1/1) Accurately ripped
11 | (1/1) Accurately ripped
12 | (1/1) Accurately ripped
13 | (1/1) Accurately ripped
[AccurateRip ID: 00192306-00fcd3bd-990c0c0d] disk not present in database.

Track Peak [ CRC32 ] [W/O NULL] [ LOG ]
-- 98,0 [F0239CEE] [FD527B65] CRC32
01 98,0 [DBBCACB7] [1CF38B74]
02 98,0 [9C8035B3] [1E6669C9]
03 97,9 [3668B4C2] [19B3370B]
04 98,0 [C764F14E] [D331A9AC]
05 98,0 [FD060808] [559D8912]
06 98,0 [F835523B] [C461E688]
07 98,0 [2C1387B6] [7AA22935]
08 98,0 [8AD6935E] [C8B347ED]
09 97,9 [507EF0E9] [8CA2E19E]
10 97,9 [7C4A8CEA] [C7514A88]
11 98,0 [C74EE20B] [27031F21]
12 95,8 [9E2D0192] [AB448039]
13 73,4 [0550E022] [1F3535E8]

Thx to tatuk
password: asd
Download Links:
(Premium Recommended)


All above links are interchangable. No password

Direct Download

Tags: Hopper, Klossner, Different

Hopper, S. Klossner - Different (1998) Download via Hotfile Rapidshare Fileserve Megaupload & FileSonic, Hopper, S. Klossner - Different (1998) free torrent downloads included crack, serial, keygen.


Attention!Information

Members of Guest cannot leave comments.