Vijay Iyer Trio - Break Stuff (2015) {ECM 2420}

Download Now


Vijay Iyer Trio - Break Stuff (2015) {ECM 2420}
Vijay Iyer Trio - Break Stuff (2015) {ECM 2420}
EAC rip (secure mode) | FLAC (tracks)+CUE+LOG -> 363 Mb | MP3 @320 -> 169 Mb
Full Artwork @ 600 dpi (jpg) -> 165 Mb | 5% repair rar
© 2015 ECM Records | ECM 2420
Jazz / Modern Creative / Progressive Jazz / Avant-Garde Jazz / Piano

"Though Break Stuff is Vijay Iyer's third appearance on ECM in less than year, it is the debut offering from the longstanding trio on the label. The pianist and composer has been working with bassist Stephen Crump and drummer Marcus Gilmore for more than a decade. They've issued two previous recordings together. Iyer usually works conceptually, and Break Stuff is no exception. In the press release he states that "a break in music is still music: a span of time in which to act." We hear this all the time in modern music, whether it be the sounds that emerge from composer Morton Feldman's extended silences, breakbeats by funky drummers or hip-hop samples of them, or instrumental breakdowns in heavy metal and bluegrass -- they follow a moment where everything previous seems to stop."

Vijay Iyer Trio - Break Stuff (2015) {ECM 2420}

"The Iyer Trio illustrate their concept in a 71-minute program that works from a suite of the same title: three works named for birds were adapted from his multi-media collaboration with author Teju Cole on Open City (illustrating in performance the novel of the same name), three standards, and works that deliver directly on the premise, including the stellar "Hood," which was inspired by Detroit techno DJ Robert Hood. The head patterns are all single-note and chord pulses, fractioned by Gilmore's precise skittering beats, breaks, and martial fills, and accented, stretched, and fragmented again by Crump. Despite its staggered parts and shifting dynamics, it is quite organic. The reading of Thelonious Monk's "Work" commences straightforwardly, following head-solo-head formula, but moves toward the margins in both the pianist's and bassists's solos. The trio's interplay offers a very pointillistic illustration of the composer's coloristic and rhythmic invention. John Coltrane's "Countdown" is taken further afield. While it retains the composer's sense of energy and flow, the pianist breaks down and reassembles its melody and sections with funky snare drops, stop-and-start legato runs, and an exceptionally syncopated bassline. The tune remains utterly recognizable despite their liberties. While opener "Starlings" is the most consciously lyric of the bird pieces, and the band begins to open up into a decidedly internal sense of swing, "Geese," with its arco basslines, intermittently placed choirs, and brushed snares is almost wholly abstract until its lyric side comes into view little more than half-way through. Billy Strayhorn's "Blood Count" is performed as a piano solo and played with a lyricism, spaciousness, and taste that would make the composer smile. The title track opens briskly with fleet statements, yet gradually reveals an inherent lyricism via Crump's solo. Break Stuff is modern jazz on the bleeding edge, a music that not only asks musical questions but answers them, and it does so accessibly and immediately, no matter the form or concept it chooses to express. This trio aims at an interior center, finds it, and pushes out, projecting Iyer & Co.'s discoveries."


Vijay Iyer Trio - Break Stuff (2015) {ECM 2420}


ECM INFO

Personnel:
Vijay Iyer: piano
Stephan Crump: double bass
Marcus Gilmore: drums

tracklist:
01 - Starlings
02 - Chorale
03 - Diptych
04 - Hood
05 - Work
06 - Taking Flight
07 - Blood Count
08 - Break Stuff
09 - Mystery Woman
10 - Geese
11 - Countdown
12 - Wrens

Exact Audio Copy V1.0 beta 3 from 29. August 2011

EAC extraction logfile from 7. March 2015, 21:08

Vijay Iyer Trio / Break Stuff [ECM 2420]

Used drive : PLEXTOR DVDR PX-891SAW Adapter: 2 ID: 1

Read mode : Secure
Utilize accurate stream : Yes
Defeat audio cache : Yes
Make use of C2 pointers : No

Read offset correction

: 48
Overread into Lead-In and Lead-Out : No
Fill up missing offset samples with silence : Yes
Delete leading and trailing silent blocks : No
Null samples used in CRC calculations : Yes
Used interface
: Native Win32 interface for Win NT & 2000
Gap handling
: Appended to previous track

Used output format : User Defined Encoder
Selected bitrate : 128 kBit/s
Quality : High
Add ID3 tag : No
Command line compressor : C:\Program Files (x86)\Exact Audio Copy\FLAC\FLAC.EXE
Additional command line options : -8 -V -T "ARTIST=%artist%" -T "TITLE=%title%" -T "ALBUM=%albumtitle%" -T "DATE=%year%" -T "TRACKNUMBER=%tracknr%" -T "TOTALTRACKS=%numtracks%" -T "GENRE=%genre%" -T "ALBUMARTIST=%albumartist%" -T "ALBUM ARTIST=%albumartist%" -T "COMMENT=EAC Secure Mode, Test & Copy, AccurateRip, FLAC -8" %source%

TOC of the extracted CD Track | Start | Length | Start sector | End sector
--1 | 0:00.00 | 3:52.26 | 0 | 17425 2 | 3:52.26 | 4:35.04 | 17426 | 38054 3 | 8:27.30 | 6:47.50 | 38055 | 68629 4 | 15:15.05 | 6:10.29 | 68630 | 96408 5 | 21:25.34 | 6:14.37 | 96409 | 124495 6 | 27:39.71 | 7:15.53 | 124496 | 157173 7 | 34:55.49 | 4:34.73 | 157174 | 177796 8 | 39:30.47 | 5:26.67 | 177797 | 202313 9 | 44:57.39 | 6:21.02 | 202314 | 230890
10 | 51:18.41 | 6:38.26 | 230891 | 260766
11 | 57:56.67 | 5:57.57 | 260767 | 287598
12 | 63:54.49 | 6:47.46 | 287599 | 318169

Track 1 Filename G:\Flac Rips\01 - Starlings.wav Pre-gap length 0:00:02.00 Peak level 97.3 %
Extraction speed 5.0 X
Track quality 100.0 %
Test CRC 46C603FE
Copy CRC 46C603FE
Accurately ripped (confidence 1) [6935B4FD] (AR v2)
Copy OK

Track 2 Filename G:\Flac Rips\02 - Chorale.wav Peak level 93.3 %
Extraction speed 5.7 X
Track quality 100.0 %
Test CRC 1F99711C
Copy CRC 1F99711C
Accurately ripped (confidence 1) [DE57CB1B] (AR v2)
Copy OK

Track 3 Filename G:\Flac Rips\03 - Diptych.wav Peak level 97.2 %
Extraction speed 5.1 X
Track quality 99.9 %
Test CRC 4C153388
Copy CRC 4C153388
Accurately ripped (confidence 1) [5E0195AA] (AR v2)
Copy OK

Track 4 Filename G:\Flac Rips\04 - Hood.wav Peak level 97.3 %
Extraction speed 7.2 X
Track quality 100.0 %
Test CRC EF97B191
Copy CRC EF97B191
Accurately ripped (confidence 1) [8B8D6B69] (AR v2)
Copy OK

Track 5 Filename G:\Flac Rips\05 - Work.wav Peak level 97.5 %
Extraction speed 6.0 X
Track quality 99.9 %
Test CRC 3EB1A017
Copy CRC 3EB1A017
Accurately ripped (confidence 1) [73574420] (AR v2)
Copy OK

Track 6 Filename G:\Flac Rips\06 - Taking Flight.wav Peak level 97.3 %
Extraction speed 8.4 X
Track quality 100.0 %
Test CRC E0500C22
Copy CRC E0500C22
Accurately ripped (confidence 1) [F729DEA2] (AR v2)
Copy OK

Track 7 Filename G:\Flac Rips\07 - Blood Count.wav Peak level 53.6 %
Extraction speed 8.5 X
Track quality 100.0 %
Test CRC 3E90B5AD
Copy CRC 3E90B5AD
Accurately ripped (confidence 1) [CD54CCFD] (AR v2)
Copy OK

Track 8 Filename G:\Flac Rips\08 - Break Stuff.wav Peak level 97.4 %
Extraction speed 9.1 X
Track quality 100.0 %
Test CRC BD71F5DF
Copy CRC BD71F5DF
Accurately ripped (confidence 1) [63B087FA] (AR v2)
Copy OK

Track 9 Filename G:\Flac Rips\09 - Mystery Woman.wav Peak level 97.2 %
Extraction speed 9.6 X
Track quality 100.0 %
Test CRC 8DF9AC40
Copy CRC 8DF9AC40
Accurately ripped (confidence 1) [40A734CD] (AR v2)
Copy OK

Track 10 Filename G:\Flac Rips\10 - Geese.wav Peak level 97.3 %
Extraction speed 10.1 X
Track quality 100.0 %
Test CRC 8E72A541
Copy CRC 8E72A541
Accurately ripped (confidence 1) [7EE786A3] (AR v2)
Copy OK

Track 11 Filename G:\Flac Rips\11 - Countdown.wav Peak level 97.3 %
Extraction speed 10.3 X
Track quality 100.0 %
Test CRC 7202C461
Copy CRC 7202C461
Accurately ripped (confidence 1) [1981F781] (AR v2)
Copy OK

Track 12 Filename G:\Flac Rips\12 - Wrens.wav Peak level 97.2 %
Extraction speed 10.8 X
Track quality 100.0 %
Test CRC A0B9373A
Copy CRC A0B9373A
Accurately ripped (confidence 1) [EDDC36EB] (AR v2)
Copy OK

All tracks accurately ripped

No errors occurred

End of status report

==== Log checksum 9C79169B1F54C6174E87F9039276E59B2BD9EC5EAFCA93610FEF3D6779B6A0F3 ====

Vijay Iyer Trio - Break Stuff (2015) {ECM 2420}

Vijay Iyer Trio - Break Stuff (2015) {ECM 2420}


All thanks goes to the original releaser!
DOWNLOAD:
Buy Premium To Support Me & Get Resumable Support & Max Speed


Links are Interchangeable - No Password

Direct Download

Vijay Iyer Trio - Break Stuff (2015) {ECM 2420} Download via Hotfile Rapidshare Fileserve Megaupload & FileSonic, Vijay Iyer Trio - Break Stuff (2015) {ECM 2420} free torrent downloads included crack, serial, keygen.


Attention!Information

Members of Guest cannot leave comments.