Zurich Chamber Orchestra - Sir Roger Norrington - Haydn - The Paris Symphonies (2015) [3CD] {Sony Classical}

Download Now


Zurich Chamber Orchestra - Sir Roger Norrington - Haydn - The Paris Symphonies (2015) [3CD] {Sony Classical}
Zurich Chamber Orchestra - Sir Roger Norrington - Haydn - The Paris Symphonies (2015) [3CD] {Sony Classical}
EAC rip (secure mode) | FLAC (tracks)+CUE+LOG -> 799 Mb | MP3 @320 -> 434 Mb
Full Artwork @ 300 dpi (png) -> 84 Mb | 5% repair rar
© 2015 Sony Music Classical | 88875021332
Classical / Symphony / Viennese School

"Sir Roger Norrington is best known for his historically informed performances of Baroque, Classical and Romantic music. On this album he turns his attention - and that of the Zurich Chamber Orchestra - to some of the most popular of Haydn's 104 symphonies. For Parisians prior to the French Revolution, Haydn's symphonies were seen as powerful, innovative works which demonstrated the composer's brilliance and invention. Here, the 30-strong ensemble - tightly drilled by Norrington - clearly demonstrate why they've achieved international importance. Sir Roger brings to these performances the expected solid historical scholarship, to give us a Haydn collection that is dazzling, charming and fascinating."

Zurich Chamber Orchestra - Sir Roger Norrington - Haydn - The Paris Symphonies (2015) [3CD] {Sony Classical}

"The ‘Paris Symphonies' by Joseph Haydn are the most popular among his 104 symphonies. Played by the Zurich Chamber Orchestra with strong doses of both historical information and fertile imagination, the music is overwhelming fascinating and charming. The recording was made with a fairly large orchestra by 18th century standards, of 30 players. Sir Roger Norrington is best known for historically informed performances of Baroque, Classical and Romantic music. He one of the great masters of the historically informed performance movement. Norrington has advocated a limited or no use of vibrato in orchestral performances, which has brought him both acclaim and criticism.

Zurich Chamber Orchestra - Sir Roger Norrington - Haydn - The Paris Symphonies (2015) [3CD] {Sony Classical}


Sir Roger has been conducting the music of Mozart for over 60 years. His tremendous experience and familiarity with this composer guarantees a highly individual and inspiring interpretation. Zurich Chamber Orchestra Founded immediately after the Second World War by Edmond de Stoutz, and is now one of the leading ensembles of its kind. Under the baton of Edmond de Stoutz and later of Howard Griffiths and Muhai Tang the ensemble established and consolidated its status as a chamber orchestra of international importance. Sir Roger Norrington has been the orchestra's Principal Conductor since season 2011/12."


Zurich Chamber Orchestra - Sir Roger Norrington - Haydn - The Paris Symphonies (2015) [3CD] {Sony Classical}


Personnel:
Zurich Chamber Orchestra
Sir Roger Norrington
- conductor

tracklist:
CD1

01 - Symphony No. 87 in A Major, Hob. I-87 - I. Vivace
02 - Symphony No. 87 in A Major, Hob. I-87 - II. Adagio
03 - Symphony No. 87 in A Major, Hob. I-87 - III. Menuetto
04 - Symphony No. 87 in A Major, Hob. I-87 - IV. Finale. Vivace
05 - Symphony No. 85 in B-Flat Major, Hob. I-85, ''La Reine'' - I. Adagio vivace
06 - Symphony No. 85 in B-Flat Major, Hob. I-85, ''La Reine'' - II. Romance. Allegretto
07 - Symphony No. 85 in B-Flat Major, Hob. I-85, ''La Reine'' - III. Menuetto. Allegretto
08 - Symphony No. 85 in B-Flat Major, Hob. I-85, ''La Reine'' - IV. Finale. Presto

Zurich Chamber Orchestra - Sir Roger Norrington - Haydn - The Paris Symphonies (2015) [3CD] {Sony Classical}


CD2
01 - Symphony No. 83 in G Minor, Hob. I-83, ''La Poule'' - I. Allegro spiritoso
02 - Symphony No. 83 in G Minor, Hob. I-83, ''La Poule'' - II. Andante
03 - Symphony No. 83 in G Minor, Hob. I-83, ''La Poule'' - III. Menuetto. Allegretto - Trio
04 - Symphony No. 83 in G Minor, Hob. I-83, ''La Poule'' - IV. Finale. Vivace
05 - Symphony No. 84 in E-Flat Major, Hob. I-84 - I. Largo - Allegro
06 - Symphony No. 84 in E-Flat Major, Hob. I-84 - II. Andante
07 - Symphony No. 84 in E-Flat Major, Hob. I-84 - III. Menuetto. Allegro
08 - Symphony No. 84 in E-Flat Major, Hob. I-84 - IV. Finale. Vivace

Zurich Chamber Orchestra - Sir Roger Norrington - Haydn - The Paris Symphonies (2015) [3CD] {Sony Classical}


CD3
01 - Symphony No. 86 in D Major, Hob. I-86 - I. Adagio - Allegro spiritoso
02 - Symphony No. 86 in D Major, Hob. I-86 - II. Capriccio. Largo
03 - Symphony No. 86 in D Major, Hob. I-86 - III. Menuetto. Allegretto
04 - Symphony No. 86 in D Major, Hob. I-86 - IV. Finale. Allegro con spirito
05 - Symphony No. 82 in C Major, Hob. I-82 ''L'Ours'' - I. Vivace assai
06 - Symphony No. 82 in C Major, Hob. I-82 ''L'Ours'' - II. Allegretto
07 - Symphony No. 82 in C Major, Hob. I-82 ''L'Ours'' - III. Menuetto
08 - Symphony No. 82 in C Major, Hob. I-82 ''L'Ours'' - IV. Finale. Vivace

Zurich Chamber Orchestra - Sir Roger Norrington - Haydn - The Paris Symphonies (2015) [3CD] {Sony Classical}



Exact Audio Copy V1.1 from 23. June 2015

EAC extraction logfile from 9. August 2015, 18:41

Zurich Chamber Orchestra / Haydn - The Paris Symphonies CD1

Used drive : ATAPI iHBS112 2 Adapter: 1 ID: 0

Read mode : Secure
Utilize accurate stream : Yes
Defeat audio cache : Yes
Make use of C2 pointers : No

Read offset correction

: 6
Overread into Lead-In and Lead-Out : No
Fill up missing offset samples with silence : Yes
Delete leading and trailing silent blocks : No
Null samples used in CRC calculations : Yes
Used interface
: Native Win32 interface for Win NT & 2000
Gap handling
: Appended to previous track

Used output format : User Defined Encoder
Selected bitrate : 1024 kBit/s
Quality : High
Add ID3 tag : No
Command line compressor : C:\Program Files\Exact Audio Copy\Flac\flac.exe
Additional command line options : -8 -V -T "ARTIST=%artist%" -T "TITLE=%title%" -T "ALBUM=%albumtitle%" -T "DATE=%year%" -T "TRACKNUMBER=%tracknr%" -T "TOTALTRACKS=%numtracks%" -T "GENRE=%genre%" -T "ALBUMARTIST=%albumartist%" -T "ALBUM ARTIST=%albumartist%" -T "COMPOSER=%composer%" -T "PERFORMER=%albuminterpret%" -T "DISCNUMBER=%cdnumber%" -T "TOTALDISCS=%totalcds%" -T "COMMENT=EAC Secure Mode, Test & Copy, AccurateRip, FLAC -8" %source%

TOC of the extracted CD Track | Start | Length | Start sector | End sector
--1 | 0:00.00 | 10:07.27 | 0 | 45551 2 | 10:07.27 | 6:18.00 | 45552 | 73901 3 | 16:25.27 | 4:13.42 | 73902 | 92918 4 | 20:38.69 | 6:26.36 | 92919 | 121904 5 | 27:05.30 | 10:34.15 | 121905 | 169469 6 | 37:39.45 | 4:51.18 | 169470 | 191312 7 | 42:30.63 | 4:04.63 | 191313 | 209675 8 | 46:35.51 | 3:17.27 | 209676 | 224477

Track 1 Filename P:\DL\Zurich Chamber Orchestra - Haydn - The Paris Symphonies CD1 (2015) [FLAC]\01 - Symphony No. 87 in A Major, Hob. I-87 - I. Vivace.wav Pre-gap length 0:00:02.00 Peak level 100.0 %
Extraction speed 2.3 X
Track quality 100.0 %
Test CRC A0A03C30
Copy CRC A0A03C30
Accurately ripped (confidence 2) [6E3534F8] (AR v2)
Copy OK

Track 2 Filename P:\DL\Zurich Chamber Orchestra - Haydn - The Paris Symphonies CD1 (2015) [FLAC]\02 - Symphony No. 87 in A Major, Hob. I-87 - II. Adagio.wav Peak level 66.8 %
Extraction speed 2.6 X
Track quality 100.0 %
Test CRC 7426C397
Copy CRC 7426C397
Accurately ripped (confidence 2) [A4D4F431] (AR v2)
Copy OK

Track 3 Filename P:\DL\Zurich Chamber Orchestra - Haydn - The Paris Symphonies CD1 (2015) [FLAC]\03 - Symphony No. 87 in A Major, Hob. I-87 - III. Menuetto.wav Peak level 75.0 %
Extraction speed 2.7 X
Track quality 100.0 %
Test CRC 0278AA01
Copy CRC 0278AA01
Accurately ripped (confidence 2) [3135BB28] (AR v2)
Copy OK

Track 4 Filename P:\DL\Zurich Chamber Orchestra - Haydn - The Paris Symphonies CD1 (2015) [FLAC]\04 - Symphony No. 87 in A Major, Hob. I-87 - IV. Finale. Vivace.wav Peak level 100.0 %
Extraction speed 3.0 X
Track quality 100.0 %
Test CRC F3127237
Copy CRC F3127237
Accurately ripped (confidence 1) [CF5B2206] (AR v2)
Copy OK

Track 5 Filename P:\DL\Zurich Chamber Orchestra - Haydn - The Paris Symphonies CD1 (2015) [FLAC]\05 - Symphony No. 85 in B-Flat Major, Hob. I-85, ''La Reine'' - I. Adagio vivace.wav Pre-gap length 0:00:05.20 Peak level 100.0 %
Extraction speed 3.4 X
Track quality 100.0 %
Test CRC D909F9B0
Copy CRC D909F9B0
Accurately ripped (confidence 2) [3604077F] (AR v2)
Copy OK

Track 6 Filename P:\DL\Zurich Chamber Orchestra - Haydn - The Paris Symphonies CD1 (2015) [FLAC]\06 - Symphony No. 85 in B-Flat Major, Hob. I-85, ''La Reine'' - II. Romance. Allegretto.wav Peak level 66.3 %
Extraction speed 3.5 X
Track quality 100.0 %
Test CRC 7B6E0B80
Copy CRC 7B6E0B80
Accurately ripped (confidence 2) [579BF4A3] (AR v2)
Copy OK

Track 7 Filename P:\DL\Zurich Chamber Orchestra - Haydn - The Paris Symphonies CD1 (2015) [FLAC]\07 - Symphony No. 85 in B-Flat Major, Hob. I-85, ''La Reine'' - III. Menuetto. Allegretto.wav Peak level 76.1 %
Extraction speed 3.5 X
Track quality 100.0 %
Test CRC AE511D17
Copy CRC AE511D17
Accurately ripped (confidence 2) [26CA6AE4] (AR v2)
Copy OK

Track 8 Filename P:\DL\Zurich Chamber Orchestra - Haydn - The Paris Symphonies CD1 (2015) [FLAC]\08 - Symphony No. 85 in B-Flat Major, Hob. I-85, ''La Reine'' - IV. Finale. Presto.wav Peak level 92.3 %
Extraction speed 3.5 X
Track quality 100.0 %
Test CRC 2D8F4893
Copy CRC 2D8F4893
Accurately ripped (confidence 2) [9FAC3320] (AR v2)
Copy OK

All tracks accurately ripped

No errors occurred

End of status report

- CUETools DB Plugin V2.1.6

[CTDB TOCID: YQRa28WBlys8r00bUz2gCuttHPw-] found
Submit result:
Track | CTDB Status
1 | (2/2) Accurately ripped
2 | (2/2) Accurately ripped
3 | (2/2) Accurately ripped
4 | (2/2) Accurately ripped
5 | (2/2) Accurately ripped
6 | (2/2) Accurately ripped
7 | (2/2) Accurately ripped
8 | (2/2) Accurately ripped

==== Log checksum 3D1270FABD3A07849623E1DA4936CD3B579199B74AE6C638CE6AF59C09CBE1E5 ====

Exact Audio Copy V1.1 from 23. June 2015

EAC extraction logfile from 9. August 2015, 20:07

Zurich Chamber Orchestra / Haydn - The Paris Symphonies CD2

Used drive : ATAPI iHBS112 2 Adapter: 1 ID: 0

Read mode : Secure
Utilize accurate stream : Yes
Defeat audio cache : Yes
Make use of C2 pointers : No

Read offset correction

: 6
Overread into Lead-In and Lead-Out : No
Fill up missing offset samples with silence : Yes
Delete leading and trailing silent blocks : No
Null samples used in CRC calculations : Yes
Used interface
: Native Win32 interface for Win NT & 2000
Gap handling
: Appended to previous track

Used output format : User Defined Encoder
Selected bitrate : 1024 kBit/s
Quality : High
Add ID3 tag : No
Command line compressor : C:\Program Files\Exact Audio Copy\Flac\flac.exe
Additional command line options : -8 -V -T "ARTIST=%artist%" -T "TITLE=%title%" -T "ALBUM=%albumtitle%" -T "DATE=%year%" -T "TRACKNUMBER=%tracknr%" -T "TOTALTRACKS=%numtracks%" -T "GENRE=%genre%" -T "ALBUMARTIST=%albumartist%" -T "ALBUM ARTIST=%albumartist%" -T "COMPOSER=%composer%" -T "PERFORMER=%albuminterpret%" -T "DISCNUMBER=%cdnumber%" -T "TOTALDISCS=%totalcds%" -T "COMMENT=EAC Secure Mode, Test & Copy, AccurateRip, FLAC -8" %source%

TOC of the extracted CD Track | Start | Length | Start sector | End sector
--1 | 0:00.00 | 10:23.70 | 0 | 46794 2 | 10:23.70 | 9:01.09 | 46795 | 87378 3 | 19:25.04 | 4:00.27 | 87379 | 105405 4 | 23:25.31 | 5:49.42 | 105406 | 131622 5 | 29:14.73 | 10:18.66 | 131623 | 178038 6 | 39:33.64 | 6:31.18 | 178039 | 207381 7 | 46:05.07 | 3:16.27 | 207382 | 222108 8 | 49:21.34 | 6:07.59 | 222109 | 249692

Track 1 Filename P:\DL\Zurich Chamber Orchestra - Haydn - The Paris Symphonies CD2 (2015) [FLAC]\01 - Symphony No. 83 in G Minor, Hob. I-83, ''La Poule'' - I. Allegro spiritoso.wav Pre-gap length 0:00:02.00 Peak level 100.0 %
Extraction speed 5.7 X
Track quality 100.0 %
Test CRC D88F7863
Copy CRC D88F7863
Accurately ripped (confidence 1) [F8CA9DC9] (AR v2)
Copy OK

Track 2 Filename P:\DL\Zurich Chamber Orchestra - Haydn - The Paris Symphonies CD2 (2015) [FLAC]\02 - Symphony No. 83 in G Minor, Hob. I-83, ''La Poule'' - II. Andante.wav Peak level 91.0 %
Extraction speed 6.3 X
Track quality 99.9 %
Test CRC 2F4CB562
Copy CRC 2F4CB562
Accurately ripped (confidence 1) [0EE6E53F] (AR v2)
Copy OK

Track 3 Filename P:\DL\Zurich Chamber Orchestra - Haydn - The Paris Symphonies CD2 (2015) [FLAC]\03 - Symphony No. 83 in G Minor, Hob. I-83, ''La Poule'' - III. Menuetto. Allegretto - Trio.wav Peak level 79.3 %
Extraction speed 5.9 X
Track quality 99.9 %
Test CRC C443A562
Copy CRC C443A562
Accurately ripped (confidence 1) [6536A7B8] (AR v2)
Copy OK

Track 4 Filename P:\DL\Zurich Chamber Orchestra - Haydn - The Paris Symphonies CD2 (2015) [FLAC]\04 - Symphony No. 83 in G Minor, Hob. I-83, ''La Poule'' - IV. Finale. Vivace.wav Peak level 100.0 %
Extraction speed 6.8 X
Track quality 99.9 %
Test CRC 456D81FD
Copy CRC 456D81FD
Accurately ripped (confidence 1) [E801EB70] (AR v2)
Copy OK

Track 5 Filename P:\DL\Zurich Chamber Orchestra - Haydn - The Paris Symphonies CD2 (2015) [FLAC]\05 - Symphony No. 84 in E-Flat Major, Hob. I-84 - I. Largo - Allegro.wav Pre-gap length 0:00:03.60 Peak level 76.4 %
Extraction speed 8.5 X
Track quality 100.0 %
Test CRC 28F155D0
Copy CRC 28F155D0
Accurately ripped (confidence 1) [6249DEBB] (AR v2)
Copy OK

Track 6 Filename P:\DL\Zurich Chamber Orchestra - Haydn - The Paris Symphonies CD2 (2015) [FLAC]\06 - Symphony No. 84 in E-Flat Major, Hob. I-84 - II. Andante.wav Peak level 68.9 %
Extraction speed 8.9 X
Track quality 100.0 %
Test CRC 94AC890B
Copy CRC 94AC890B
Accurately ripped (confidence 1) [A8268069] (AR v2)
Copy OK

Track 7 Filename P:\DL\Zurich Chamber Orchestra - Haydn - The Paris Symphonies CD2 (2015) [FLAC]\07 - Symphony No. 84 in E-Flat Major, Hob. I-84 - III. Menuetto. Allegro.wav Peak level 69.0 %
Extraction speed 8.4 X
Track quality 100.0 %
Test CRC B9C791F1
Copy CRC B9C791F1
Accurately ripped (confidence 1) [7371B471] (AR v2)
Copy OK

Track 8 Filename P:\DL\Zurich Chamber Orchestra - Haydn - The Paris Symphonies CD2 (2015) [FLAC]\08 - Symphony No. 84 in E-Flat Major, Hob. I-84 - IV. Finale. Vivace.wav Peak level 66.3 %
Extraction speed 9.3 X
Track quality 100.0 %
Test CRC D7500155
Copy CRC D7500155
Accurately ripped (confidence 1) [0058A671] (AR v2)
Copy OK

All tracks accurately ripped

No errors occurred

End of status report

- CUETools DB Plugin V2.1.6

[CTDB TOCID: 79ERL47yOEveqx3_XozRnP8sbdo-] found
Submit result:
Track | CTDB Status
1 | (2/2) Accurately ripped
2 | (2/2) Accurately ripped
3 | (2/2) Accurately ripped
4 | (2/2) Accurately ripped
5 | (2/2) Accurately ripped
6 | (2/2) Accurately ripped
7 | (2/2) Accurately ripped
8 | (2/2) Accurately ripped

==== Log checksum A5889B7C2B87D6F08FDECE871397310AB53B8E38D0E30B68EBDBA7292658F5BF ====

Exact Audio Copy V1.1 from 23. June 2015

EAC extraction logfile from 9. August 2015, 20:40

Zurich Chamber Orchestra / Haydn - The Paris Symphonies CD3

Used drive : ATAPI iHBS112 2 Adapter: 1 ID: 0

Read mode : Secure
Utilize accurate stream : Yes
Defeat audio cache : Yes
Make use of C2 pointers : No

Read offset correction

: 6
Overread into Lead-In and Lead-Out : No
Fill up missing offset samples with silence : Yes
Delete leading and trailing silent blocks : No
Null samples used in CRC calculations : Yes
Used interface
: Native Win32 interface for Win NT & 2000
Gap handling
: Appended to previous track

Used output format : User Defined Encoder
Selected bitrate : 1024 kBit/s
Quality : High
Add ID3 tag : No
Command line compressor : C:\Program Files\Exact Audio Copy\Flac\flac.exe
Additional command line options : -8 -V -T "ARTIST=%artist%" -T "TITLE=%title%" -T "ALBUM=%albumtitle%" -T "DATE=%year%" -T "TRACKNUMBER=%tracknr%" -T "TOTALTRACKS=%numtracks%" -T "GENRE=%genre%" -T "ALBUMARTIST=%albumartist%" -T "ALBUM ARTIST=%albumartist%" -T "COMPOSER=%composer%" -T "PERFORMER=%albuminterpret%" -T "DISCNUMBER=%cdnumber%" -T "TOTALDISCS=%totalcds%" -T "COMMENT=EAC Secure Mode, Test & Copy, AccurateRip, FLAC -8" %source%

TOC of the extracted CD Track | Start | Length | Start sector | End sector
--1 | 0:00.00 | 11:28.59 | 0 | 51658 2 | 11:28.59 | 7:32.06 | 51659 | 85564 3 | 19:00.65 | 5:26.27 | 85565 | 110041 4 | 24:27.17 | 5:53.48 | 110042 | 136564 5 | 30:20.65 | 11:11.54 | 136565 | 186943 6 | 41:32.44 | 6:01.36 | 186944 | 214054 7 | 47:34.05 | 4:46.12 | 214055 | 235516 8 | 52:20.17 | 7:33.31 | 235517 | 269522

Track 1 Filename P:\DL\Zurich Chamber Orchestra - Haydn - The Paris Symphonies CD3 (2015) [FLAC]\01 - Symphony No. 86 in D Major, Hob. I-86 - I. Adagio - Allegro spiritoso.wav Pre-gap length 0:00:02.00 Peak level 100.0 %
Extraction speed 5.8 X
Track quality 100.0 %
Test CRC 43F3DA45
Copy CRC 43F3DA45
Accurately ripped (confidence 1) [3CAED1CD] (AR v2)
Copy OK

Track 2 Filename P:\DL\Zurich Chamber Orchestra - Haydn - The Paris Symphonies CD3 (2015) [FLAC]\02 - Symphony No. 86 in D Major, Hob. I-86 - II. Capriccio. Largo.wav Peak level 61.3 %
Extraction speed 6.7 X
Track quality 100.0 %
Test CRC 6DE9BB1E
Copy CRC 6DE9BB1E
Accurately ripped (confidence 1) [3A7FDB4C] (AR v2)
Copy OK

Track 3 Filename P:\DL\Zurich Chamber Orchestra - Haydn - The Paris Symphonies CD3 (2015) [FLAC]\03 - Symphony No. 86 in D Major, Hob. I-86 - III. Menuetto. Allegretto.wav Peak level 73.0 %
Extraction speed 6.2 X
Track quality 99.9 %
Test CRC 34B35A5D
Copy CRC 34B35A5D
Accurately ripped (confidence 2) [DF649A81] (AR v2)
Copy OK

Track 4 Filename P:\DL\Zurich Chamber Orchestra - Haydn - The Paris Symphonies CD3 (2015) [FLAC]\04 - Symphony No. 86 in D Major, Hob. I-86 - IV. Finale. Allegro con spirito.wav Peak level 88.8 %
Extraction speed 7.6 X
Track quality 100.0 %
Test CRC 45F5F6E6
Copy CRC 45F5F6E6
Accurately ripped (confidence 1) [27681E53] (AR v2)
Copy OK

Track 5 Filename P:\DL\Zurich Chamber Orchestra - Haydn - The Paris Symphonies CD3 (2015) [FLAC]\05 - Symphony No. 82 in C Major, Hob. I-82 ''L'Ours'' - I. Vivace assai.wav Pre-gap length 0:00:05.24 Peak level 100.0 %
Extraction speed 8.6 X
Track quality 100.0 %
Test CRC 4F89F021
Copy CRC 4F89F021
Accurately ripped (confidence 1) CB96D29 (AR v2)
Copy OK

Track 6 Filename P:\DL\Zurich Chamber Orchestra - Haydn - The Paris Symphonies CD3 (2015) [FLAC]\06 - Symphony No. 82 in C Major, Hob. I-82 ''L'Ours'' - II. Allegretto.wav Peak level 59.2 %
Extraction speed 8.8 X
Track quality 100.0 %
Test CRC 8A26C513
Copy CRC 8A26C513
Accurately ripped (confidence 2) [54E6EA1F] (AR v2)
Copy OK

Track 7 Filename P:\DL\Zurich Chamber Orchestra - Haydn - The Paris Symphonies CD3 (2015) [FLAC]\07 - Symphony No. 82 in C Major, Hob. I-82 ''L'Ours'' - III. Menuetto.wav Peak level 65.5 %
Extraction speed 7.7 X
Track quality 99.9 %
Test CRC 1E4E4809
Copy CRC 1E4E4809
Accurately ripped (confidence 1) [2740848C] (AR v2)
Copy OK

Track 8 Filename P:\DL\Zurich Chamber Orchestra - Haydn - The Paris Symphonies CD3 (2015) [FLAC]\08 - Symphony No. 82 in C Major, Hob. I-82 ''L'Ours'' - IV. Finale. Vivace.wav Peak level 100.0 %
Extraction speed 9.6 X
Track quality 100.0 %
Test CRC B5F8547A
Copy CRC B5F8547A
Accurately ripped (confidence 1) [A6019595] (AR v2)
Copy OK

All tracks accurately ripped

No errors occurred

End of status report

- CUETools DB Plugin V2.1.6

[CTDB TOCID: s7usrvclmtBwtoAW6OPLv2vwvvw-] found
Submit result:
Track | CTDB Status
1 | (2/2) Accurately ripped
2 | (2/2) Accurately ripped
3 | (2/2) Accurately ripped
4 | (2/2) Accurately ripped
5 | (2/2) Accurately ripped
6 | (2/2) Accurately ripped
7 | (2/2) Accurately ripped
8 | (2/2) Accurately ripped

==== Log checksum B50D110AAD1B7E9A75191FC7C780B05946B09064DA770578D0BF080A62FB99A6 ====

Zurich Chamber Orchestra - Sir Roger Norrington - Haydn - The Paris Symphonies (2015) [3CD] {Sony Classical}


thanks to dtromp...
DOWNLOAD LINKS:
(Premium Recommended)


All above links are interchangable. No password

Direct Download

Tags: Zurich, Chamber, Orchestra, Norrington, Symphonies, Classical

Zurich Chamber Orchestra - Sir Roger Norrington - Haydn - The Paris Symphonies (2015) [3CD] {Sony Classical} Download via Hotfile Rapidshare Fileserve Megaupload & FileSonic, Zurich Chamber Orchestra - Sir Roger Norrington - Haydn - The Paris Symphonies (2015) [3CD] {Sony Classical} free torrent downloads included crack, serial, keygen.


Attention!Information

Members of Guest cannot leave comments.