Seventh Wave - Psi-Fi (1975) [Air Mail Archive AIRAC-1149, Japan]

Download Now

Seventh Wave - Psi-Fi (1975) [Air Mail Archive AIRAC-1149, Japan]

Seventh Wave - Psi-Fi (1975)
EAC | Flac(Image) + Cue + Log & MP3 CBR 320Kbps
2005 | Air Mail Archive, AIRAC-1149 | ~ 288 or 121 Mb | Scans Included
Psychedelic / Progressive Rock

"A leap forward from their debut, this album shows the duo taking on extended song structures and a more varied and much improved vocal style. At times the material sounds like a precursor to the Buggles, as in the slick synths and harmonized vocals of the opening track, "Return to Foreverland." ..."


Tracklist:

01. Return To Foreverland 03:54
02. Roads To Rome 03:17
03. Manifestations 05:46
04. Loved By You 02:51
05. Only The Beginning 08:03
06. Aether Anthem 01:25
07. Astral Animal 03:12
08. El Tooto 02:14
09. Camera Obscura 08:58
10. Star Palace Of The Sombre Warrior 06:46

Musicians:

Ken Elliott - vocals, keyboards/synths, pedals & percussion
Keiran O'Connor - drums, percussion & vocals
Rob Elliott - vocals
Tony Elliott - vocals & bongos
Tony Utah - percussion
Brian Gould - organ & Crumar Stringman
Pepi Lemer - vocals
Pete Lemer - ARP synth, RMI & Crumar piano
Hugh Banton - organ, Mellotron & ARP synth
Steve Cook - electric bass & double bass
Chris Amson - sequencer


Exact Audio Copy V1.1 from 23. June 2015

EAC extraction logfile from 7. August 2015, 15:07

Seventh Wave / Psi-Fi

Used drive : TSSTcorpCDDVDW SH-224DB Adapter: 1 ID: 0

Read mode : Secure
Utilize accurate stream : Yes
Defeat audio cache : Yes
Make use of C2 pointers : No

Read offset correction

: 6
Overread into Lead-In and Lead-Out : No
Fill up missing offset samples with silence : Yes
Delete leading and trailing silent blocks : No
Null samples used in CRC calculations : Yes
Used interface
: Native Win32 interface for Win NT & 2000

Used output format : User Defined Encoder
Selected bitrate : 1024 kBit/s
Quality : High
Add ID3 tag : No
Command line compressor : C:\Program Files (x86)\Exact Audio Copy\win64\flac.exe
Additional command line options : -V -8 -T "Date=%year%" -T "Genre=%genre%" %source%

TOC of the extracted CD Track | Start | Length | Start sector | End sector
--1 | 0:00.00 | 3:54.16 | 0 | 17565 2 | 3:54.16 | 3:17.50 | 17566 | 32390 3 | 7:11.66 | 5:46.39 | 32391 | 58379 4 | 12:58.30 | 2:51.63 | 58380 | 71267 5 | 15:50.18 | 8:03.52 | 71268 | 107544 6 | 23:53.70 | 1:25.33 | 107545 | 113952 7 | 25:19.28 | 3:12.26 | 113953 | 128378 8 | 28:31.54 | 2:14.36 | 128379 | 138464 9 | 30:46.15 | 8:58.43 | 138465 | 178857
10 | 39:44.58 | 6:46.25 | 178858 | 209332

Range status and errors

Selected range Filename D:\Sket4er\Seventh Wave - Psi-Fi (1975) 2005\Seventh Wave - Psi-Fi.wav Peak level 96.6 %
Extraction speed 2.9 X
Range quality 99.9 %
Test CRC 395D25FA
Copy CRC 395D25FA
Copy OK

No errors occurred


AccurateRip summary

Track 1 cannot be verified as accurate (confidence 2) [66CDDD9A], AccurateRip returned [7A3D7851] (AR v2)
Track 2 cannot be verified as accurate (confidence 2) [ABDDC722], AccurateRip returned [05453D34] (AR v2)
Track 3 cannot be verified as accurate (confidence 2) [48DEED57], AccurateRip returned [AD919094] (AR v2)
Track 4 cannot be verified as accurate (confidence 2) [31A390A3], AccurateRip returned [5AD34475] (AR v2)
Track 5 cannot be verified as accurate (confidence 2) [CCBD9424], AccurateRip returned [746068FF] (AR v2)
Track 6 cannot be verified as accurate (confidence 2) [E975869B], AccurateRip returned [7D0C4ED4] (AR v2)
Track 7 cannot be verified as accurate (confidence 2) [36A84482], AccurateRip returned [7A1F3EDD] (AR v2)
Track 8 cannot be verified as accurate (confidence 2) [72177D0C], AccurateRip returned [3D981DD7] (AR v2)
Track 9 cannot be verified as accurate (confidence 2) [0BE03916], AccurateRip returned 83FEE22 (AR v2)
Track 10 cannot be verified as accurate (confidence 2) [330EE2D0], AccurateRip returned [0D84A204] (AR v2)

No tracks could be verified as accurate
You may have a different pressing from the one(s) in the database

End of status report

- CUETools DB Plugin V2.1.6

[CTDB TOCID: iZN8jEy6kRGCrKUJWTYguhulq2k-] disk not present in database
Submit result: iZN8jEy6kRGCrKUJWTYguhulq2k- has been uploaded

==== Log checksum 14A5A8BA214243F9D59DBACC64B880A14535DD0D926F36E6E8D5677C81AFAF49 ====

foobar2000 1.2.9 / Dynamic Range Meter 1.1.1
log date: 2015-08-11 12:31:08

Analyzed: Seventh Wave / Psi-Fi

DR Peak RMS Duration Track

DR12 -0.30 dB -13.64 dB 3:54 01-Return To Foreverland
DR12 -0.60 dB -15.36 dB 3:18 02-Roads To Rome
DR11 -0.60 dB -15.17 dB 5:47 03-Manifestations
DR11 -0.43 dB -15.26 dB 2:52 04-Loved By You
DR12 -0.70 dB -15.26 dB 8:04 05-Only The Beginning
DR9 -3.31 dB -17.33 dB 1:25 06-Aether Anthem
DR10 -0.60 dB -13.68 dB 3:12 07-Astral Animal
DR10 -2.12 dB -17.03 dB 2:14 08-El Tooto
DR10 -0.60 dB -12.77 dB 8:59 09-Camera Obscura
DR10 -0.60 dB -13.35 dB 6:46 10-Star Palace Of The Sombre Warrior

Number of tracks: 10
Official DR value: DR11

Samplerate: 44100 Hz
Channels: 2
Bits per sample: 16
Bitrate: 807 kbps
Codec: FLAC

[CUETools log; Date: 09.08.2015 22:18:30; Version: 2.1.4]
[CTDB TOCID: iZN8jEy6kRGCrKUJWTYguhulq2k-] found.
Track | CTDB Status
1 | (1/1) Accurately ripped
2 | (1/1) Accurately ripped
3 | (1/1) Accurately ripped
4 | (1/1) Accurately ripped
5 | (1/1) Accurately ripped
6 | (1/1) Accurately ripped
7 | (1/1) Accurately ripped
8 | (1/1) Accurately ripped
9 | (1/1) Accurately ripped
10 | (1/1) Accurately ripped
[AccurateRip ID: 00101d8a-0082269f-800ae70a] found.
Track [ CRC | V2 ] Status
01 [814b7b9e|66cddd9a] (0+0/2) No match
02 [57574b61|abddc722] (0+0/2) No match
03 [4f2ad59f|48deed57] (0+0/2) No match
04 [96738259|31a390a3] (0+0/2) No match
05 [a3666b26|ccbd9424] (0+0/2) No match
06 [8aeb9026|e975869b] (0+0/2) No match
07 [a17c881f|36a84482] (0+0/2) No match
08 [46e05c8e|72177d0c] (0+0/2) No match
09 [3fa06e6e|0be03916] (0+0/2) No match
10 [96b7f73f|330ee2d0] (0+0/2) No match
Offsetted by 664:
01 a4fb442 (0/2) No match (V2 was not tested)
02 [d2029591] (0/2) No match (V2 was not tested)
03 [e8aa9aab] (0/2) No match (V2 was not tested)
04 [db83379b] (0/2) No match (V2 was not tested)
05 [a47d434b] (0/2) No match (V2 was not tested)
06 [165b3fb6] (0/2) No match (V2 was not tested)
07 [14c1f69f] (0/2) No match (V2 was not tested)
08 [2cbad144] (0/2) No match (V2 was not tested)
09 [ff9dfd5b] (0/2) No match (V2 was not tested)
10 182f39a (0/2) No match (V2 was not tested)

Track Peak [ CRC32 ] [W/O NULL] [ LOG ]
-- 96,6 [395D25FA] [A2FCB261] CRC32
01 96,6 [401D463F] [ABCAEE3D]
02 93,2 [06D20341] [41EDA5C5]
03 93,2 [76BE6A8F] [D9B9E8D7]
04 95,1 [DD6B8C16] [CE283911]
05 92,2 [67B4C8E1] [0B5044E5]
06 68,3 [70423126] [EED68CCB]
07 93,3 [5A67846D] [49DFB625]
08 78,3 [327C6F8E] [294B21F6]
09 93,3 [EE00588D] [5847CD76]
10 93,3 [22ABB188] [54865CB7]

Seventh Wave - Psi-Fi (1975) [Air Mail Archive AIRAC-1149, Japan]

All thanks go to Sket4er



Download Seventh Wave - Psi-Fi (1975):


DOWNLOAD LINKS
(Premium Recommended)


Links are Interchangeable - No Password - Single Extraction

Direct Download

Tags: Seventh, Archive

Seventh Wave - Psi-Fi (1975) [Air Mail Archive AIRAC-1149, Japan] Download via Hotfile Rapidshare Fileserve Megaupload & FileSonic, Seventh Wave - Psi-Fi (1975) [Air Mail Archive AIRAC-1149, Japan] free torrent downloads included crack, serial, keygen.


Attention!Information

Members of Guest cannot leave comments.