Stan Getz - The Complete Roost Recordings (1950-1954) [3CD Set] {1997 Blue Note Ron McMaster Remaster}

Download Now


Stan Getz - The Complete Roost Recordings (1950-1954) [3CD Set] {1997 Blue Note Ron McMaster Remaster}
Stan Getz - The Complete Roost Recordings (1950-1954) [3CD Set] {1997 Blue Note Ron McMaster Remaster}
EAC rip (secure mode) | FLAC (tracks)+CUE+LOG -> 517 Mb | MP3 @320 -> 437 Mb
Full Artwork @ 600 dpi (jpg) -> 194 Mb | 5% repair rar
В© 1997 Blue Note / Roost / Capitol | CDP 7243 8 59622 2 6
Jazz / Cool / West Coast Jazz / Saxophone

"The Complete Roost Recordings is a three-disc, 59-track box set that contains all of the recordings Stan Getz made for the Roost record label in the '50s. The set includes all of his officially released sessions -- including the date led by guitarist Johnny Smith, the live performances with Count Basie, and a full disc of live performances with his quintet -- as well as many unreleased and alternate takes. Roost was the first label Getz recorded for as a leader, and what's surprising about these sessions is how mature he sounds here. He had already arrived at his full, rich tone and was able to improvise with skill and grace. That's what makes this box set so rewarding -- it's not only historically important, but it offers a wealth of excellent music."

Stan Getz - The Complete Roost Recordings (1950-1954) [3CD Set] {1997 Blue Note Ron McMaster Remaster}

"Producers note: The Roost tape vault is all but non-existant. The source material for this set was gathered from a diligent, five-year seach for the best existing sources of Stan Getz's masters. This includes first, second and third-generation tapes at varying speeds and conditions and transfers from various single and 10" and 12" LP's. The sound on this set varies from selection to selection. Flaws range from tape hiss to drop-outs to out-of-phase cymbals.Every effort has been made to bring these recordings to the best possible uniform level quality. Considering the significance of the music, we hope that you excuse these various flaws. - Michael Cuscuna"


Stan Getz - The Complete Roost Recordings (1950-1954) [3CD Set] {1997 Blue Note Ron McMaster Remaster}


Recorded between May 17, 1950 and Dec 16, 1954

Original sessions produced by Teddy Reig
Reissue produced by Michael Cuscuna
Restoration Engineers Malcom Addey and Ron McMaster
Mastered by Ron McMaster


Jazz Times INFO

Personnel: Stan Getz (ts), Al Haig, Horace Silver, Duke Jordan, Count Basie (p), Jimmy Raney, Johnny Smith, Freddie Green (g), Tommy Potter, Bill Crow (b), Roy Haynes, Don Lamond (d) and others...

tracklist:
CD1

01 - On The Alamo (alt tk)
02 - On The Alamo
03 - Gone With The Wind
04 - Yesterdays
05 - Sweetie Pie
06 - You Go To My Head
07 - Hershey Bar
08 - Tootsie Roll
09 - Strike Up The Band
10 - Imagination (alt tk)
11 - Imagination
12 - For Stompers Only
13 - Navy Blue (alt tk of above)
14 - Out Of Nowhere
15 - 'S Wonderful
16 - Penny
17 - Split Kick (alt tk)
18 - Split Kick
19 - It Might As Well Be Spring (alt tk)
20 - It Might As Well Be Spring
21 - The Best Thing For You
22 - Signal (alt tk)
23 - Budo (alt tk)

Stan Getz - The Complete Roost Recordings (1950-1954) [3CD Set] {1997 Blue Note Ron McMaster Remaster}


CD2
01 - Thou Swell
02 - The Song Is You
03 - Mosquito Knees
04 - Pennies From Heaven
05 - Move
06 - Parker 51
07 - Hershey Bar
08 - Rubberneck
09 - Signal
10 - Everything Happens To Me
11 - Jumpin' With Symphony Sid
12 - Yesterdays
13 - Budo
14 - Wildwood

Stan Getz - The Complete Roost Recordings (1950-1954) [3CD Set] {1997 Blue Note Ron McMaster Remaster}


CD3
01 - Melody Express
02 - Yvette
03 - Potter's Luck
04 - The Song Is You
05 - Wildwood
06 - Lullaby Of Birdland
07 - Autumn Leaves
08 - Autumn Leaves (alt tk)
09 - Fools Rush In
10 - Fools Rush In (alt tk)
11 - These Foolish Things
12 - Where Or When
13 - Tabu
14 - Moonlight In Vermont
15 - Jaguar
16 - Sometimes I'm Happy
17 - Stars Fell On Alabama
18 - Nice Work If You Can Get It
19 - Tenderly
20 - Little Pony
21 - Easy Living
22 - Nails

Stan Getz - The Complete Roost Recordings (1950-1954) [3CD Set] {1997 Blue Note Ron McMaster Remaster}



Exact Audio Copy V1.0 beta 1 from 15. November 2010

EAC extraction logfile from 27. May 2011, 23:42

Stan Getz / Complete Roost Recordings CD 1

Used drive : HL-DT-STDVDRAM GSA-T50N Adapter: 0 ID: 1

Read mode : Secure
Utilize accurate stream : Yes
Defeat audio cache : Yes
Make use of C2 pointers : No

Read offset correction

: 667
Overread into Lead-In and Lead-Out : No
Fill up missing offset samples with silence : Yes
Delete leading and trailing silent blocks : No
Null samples used in CRC calculations : Yes
Used interface
: Native Win32 interface for Win NT & 2000
Gap handling
: Appended to previous track

Used output format : User Defined Encoder
Selected bitrate : 320 kBit/s
Quality : High
Add ID3 tag : No
Command line compressor : C:\Program Files\Exact Audio Copy\Flac\flac.exe
Additional command line options : -8 -V -T "ARTIST=%a" -T "TITLE=%t" -T "ALBUM=%g" -T "DATE=%y" -T "TRACKNUMBER=%n" -T "TOTALTRACKS=%x" -T "GENRE=%m" -T "ALBUMARTIST=%v" -T "ALBUM ARTIST=%v" -T "COMMENT=EAC Secure Mode, Test & Copy, AccurateRip, FLAC -8" %s

TOC of the extracted CD Track | Start | Length | Start sector | End sector
--1 | 0:00.00 | 2:45.65 | 0 | 12439 2 | 2:45.65 | 2:46.50 | 12440 | 24939 3 | 5:32.40 | 2:56.50 | 24940 | 38189 4 | 8:29.15 | 2:48.37 | 38190 | 50826 5 | 11:17.52 | 2:31.35 | 50827 | 62186 6 | 13:49.12 | 3:01.68 | 62187 | 75829 7 | 16:51.05 | 2:37.45 | 75830 | 87649 8 | 19:28.50 | 2:10.32 | 87650 | 97431 9 | 21:39.07 | 2:30.70 | 97432 | 108751
10 | 24:10.02 | 2:33.53 | 108752 | 120279
11 | 26:43.55 | 2:24.47 | 120280 | 131126
12 | 29:08.27 | 2:52.05 | 131127 | 144031
13 | 32:00.32 | 2:44.53 | 144032 | 156384
14 | 34:45.10 | 2:29.12 | 156385 | 167571
15 | 37:14.22 | 2:55.50 | 167572 | 180746
16 | 40:09.72 | 2:51.43 | 180747 | 193614
17 | 43:01.40 | 3:11.45 | 193615 | 207984
18 | 46:13.10 | 2:54.72 | 207985 | 221106
19 | 49:08.07 | 2:47.43 | 221107 | 233674
20 | 51:55.50 | 2:54.37 | 233675 | 246761
21 | 54:50.12 | 2:43.63 | 246762 | 259049
22 | 57:34.00 | 5:37.52 | 259050 | 284376
23 | 63:11.52 | 4:39.38 | 284377 | 305339

Track 1 Filename D:\Fiamma\Stan Getz - The Complete Roost Recordings (1951-1954) [FLAC] (BN Ron McMaster)\CD 1\01 - On The Alamo (alt tk).wav Pre-gap length 0:00:02.00 Peak level 94.0 %
Extraction speed 2.3 X
Track quality 100.0 %
Test CRC 3C2DDD16
Copy CRC 3C2DDD16
Cannot be verified as accurate (confidence 10) [3479F194], AccurateRip returned [D4FD1905]
Copy OK

Track 2 Filename D:\Fiamma\Stan Getz - The Complete Roost Recordings (1951-1954) [FLAC] (BN Ron McMaster)\CD 1\02 - On The Alamo.wav Pre-gap length 0:00:02.40 Peak level 68.5 %
Extraction speed 2.4 X
Track quality 100.0 %
Test CRC AD1C1490
Copy CRC AD1C1490
Cannot be verified as accurate (confidence 10) [25B779D3], AccurateRip returned [7714FCB9]
Copy OK

Track 3 Filename D:\Fiamma\Stan Getz - The Complete Roost Recordings (1951-1954) [FLAC] (BN Ron McMaster)\CD 1\03 - Gone With The Wind.wav Pre-gap length 0:00:02.35 Peak level 96.6 %
Extraction speed 2.1 X
Track quality 99.9 %
Test CRC B4672D71
Copy CRC B4672D71
Cannot be verified as accurate (confidence 10) [586968C8], AccurateRip returned [00A30790]
Copy OK

Track 4 Filename D:\Fiamma\Stan Getz - The Complete Roost Recordings (1951-1954) [FLAC] (BN Ron McMaster)\CD 1\04 - Yesterdays.wav Pre-gap length 0:00:02.33 Peak level 78.8 %
Extraction speed 2.7 X
Track quality 100.0 %
Test CRC 9375F092
Copy CRC 9375F092
Cannot be verified as accurate (confidence 10) [63FED8D1], AccurateRip returned [6D7873BD]
Copy OK

Track 5 Filename D:\Fiamma\Stan Getz - The Complete Roost Recordings (1951-1954) [FLAC] (BN Ron McMaster)\CD 1\05 - Sweetie Pie.wav Pre-gap length 0:00:02.25 Peak level 76.6 %
Extraction speed 2.8 X
Track quality 100.0 %
Test CRC F9F8CE5E
Copy CRC F9F8CE5E
Cannot be verified as accurate (confidence 10) 3FB4FB6, AccurateRip returned [F89CFD6B]
Copy OK

Track 6 Filename D:\Fiamma\Stan Getz - The Complete Roost Recordings (1951-1954) [FLAC] (BN Ron McMaster)\CD 1\06 - You Go To My Head.wav Pre-gap length 0:00:02.67 Peak level 73.9 %
Extraction speed 3.0 X
Track quality 100.0 %
Test CRC 6F8A0608
Copy CRC 6F8A0608
Cannot be verified as accurate (confidence 10) [F171A371], AccurateRip returned 168A630
Copy OK

Track 7 Filename D:\Fiamma\Stan Getz - The Complete Roost Recordings (1951-1954) [FLAC] (BN Ron McMaster)\CD 1\07 - Hershey Bar.wav Pre-gap length 0:00:02.48 Peak level 98.0 %
Extraction speed 3.0 X
Track quality 100.0 %
Test CRC 386E6483
Copy CRC 386E6483
Cannot be verified as accurate (confidence 10) [47BAADF9], AccurateRip returned [6185C569]
Copy OK

Track 8 Filename D:\Fiamma\Stan Getz - The Complete Roost Recordings (1951-1954) [FLAC] (BN Ron McMaster)\CD 1\08 - Tootsie Roll.wav Pre-gap length 0:00:02.70 Peak level 82.2 %
Extraction speed 2.9 X
Track quality 100.0 %
Test CRC 3ED8DE37
Copy CRC 3ED8DE37
Cannot be verified as accurate (confidence 9) [2651E466], AccurateRip returned [DE613E61]
Copy OK

Track 9 Filename D:\Fiamma\Stan Getz - The Complete Roost Recordings (1951-1954) [FLAC] (BN Ron McMaster)\CD 1\09 - Strike Up The Band.wav Pre-gap length 0:00:02.60 Peak level 70.4 %
Extraction speed 3.2 X
Track quality 100.0 %
Test CRC D333A5B1
Copy CRC D333A5B1
Cannot be verified as accurate (confidence 10) [F5A1C50A], AccurateRip returned [3EA5C55A]
Copy OK

Track 10 Filename D:\Fiamma\Stan Getz - The Complete Roost Recordings (1951-1954) [FLAC] (BN Ron McMaster)\CD 1\10 - Imagination (alt tk).wav Pre-gap length 0:00:02.40 Peak level 96.0 %
Extraction speed 3.3 X
Track quality 100.0 %
Test CRC B41D98AF
Copy CRC B41D98AF
Cannot be verified as accurate (confidence 10) [05A2E910], AccurateRip returned [34D5705E]
Copy OK

Track 11 Filename D:\Fiamma\Stan Getz - The Complete Roost Recordings (1951-1954) [FLAC] (BN Ron McMaster)\CD 1\11 - Imagination.wav Pre-gap length 0:00:02.15 Peak level 91.8 %
Extraction speed 1.6 X
Track quality 100.0 %
Test CRC E8C1E636
Copy CRC E8C1E636
Cannot be verified as accurate (confidence 10) [8066CC0D], AccurateRip returned [112C355D]
Copy OK

Track 12 Filename D:\Fiamma\Stan Getz - The Complete Roost Recordings (1951-1954) [FLAC] (BN Ron McMaster)\CD 1\12 - For Stompers Only.wav Pre-gap length 0:00:02.27 Peak level 91.8 %
Extraction speed 0.8 X
Track quality 100.0 %
Test CRC 0A59B887
Copy CRC 0A59B887
Cannot be verified as accurate (confidence 10) [A119903D], AccurateRip returned [84ABEB45]
Copy OK

Track 13 Filename D:\Fiamma\Stan Getz - The Complete Roost Recordings (1951-1954) [FLAC] (BN Ron McMaster)\CD 1\13 - Navy Blue (alt tk of above).wav Pre-gap length 0:00:03.02 Peak level 96.1 %
Extraction speed 0.7 X
Track quality 99.9 %
Test CRC C883BA1B
Copy CRC C883BA1B
Cannot be verified as accurate (confidence 10) [694627F3], AccurateRip returned [77B650D2]
Copy OK

Track 14 Filename D:\Fiamma\Stan Getz - The Complete Roost Recordings (1951-1954) [FLAC] (BN Ron McMaster)\CD 1\14 - Out Of Nowhere.wav Pre-gap length 0:00:02.23 Peak level 94.0 %
Extraction speed 0.9 X
Track quality 100.0 %
Test CRC 3F1F0E5D
Copy CRC 3F1F0E5D
Cannot be verified as accurate (confidence 10) [E3F9A887], AccurateRip returned [48353B7F]
Copy OK

Track 15 Filename D:\Fiamma\Stan Getz - The Complete Roost Recordings (1951-1954) [FLAC] (BN Ron McMaster)\CD 1\15 - 'S Wonderful.wav Pre-gap length 0:00:02.40 Peak level 74.3 %
Extraction speed 0.7 X
Track quality 99.9 %
Test CRC A5B81B8D
Copy CRC A5B81B8D
Cannot be verified as accurate (confidence 10) 56613E2, AccurateRip returned [1C4329FA]
Copy OK

Track 16 Filename D:\Fiamma\Stan Getz - The Complete Roost Recordings (1951-1954) [FLAC] (BN Ron McMaster)\CD 1\16 - Penny.wav Pre-gap length 0:00:02.50 Peak level 86.7 %
Extraction speed 0.9 X
Track quality 100.0 %
Test CRC 850D426B
Copy CRC 850D426B
Cannot be verified as accurate (confidence 10) [66C9E0A8], AccurateRip returned [8D55C46E]
Copy OK

Track 17 Filename D:\Fiamma\Stan Getz - The Complete Roost Recordings (1951-1954) [FLAC] (BN Ron McMaster)\CD 1\17 - Split Kick (alt tk).wav Pre-gap length 0:00:02.38 Peak level 82.9 %
Extraction speed 0.7 X
Track quality 99.9 %
Test CRC 52FC9AC8
Copy CRC 52FC9AC8
Cannot be verified as accurate (confidence 10) [8039D236], AccurateRip returned [823A5AFF]
Copy OK

Track 18 Filename D:\Fiamma\Stan Getz - The Complete Roost Recordings (1951-1954) [FLAC] (BN Ron McMaster)\CD 1\18 - Split Kick.wav Pre-gap length 0:00:02.48 Peak level 83.9 %
Extraction speed 0.8 X
Track quality 99.9 %
Test CRC 5B7236BB
Copy CRC 5B7236BB
Cannot be verified as accurate (confidence 10) [9CBF183C], AccurateRip returned [68978226]
Copy OK

Track 19 Filename D:\Fiamma\Stan Getz - The Complete Roost Recordings (1951-1954) [FLAC] (BN Ron McMaster)\CD 1\19 - It Might As Well Be Spring (alt tk).wav Pre-gap length 0:00:02.50 Peak level 89.0 %
Extraction speed 0.9 X
Track quality 100.0 %
Test CRC 8921185C
Copy CRC 8921185C
Cannot be verified as accurate (confidence 10) [1A273C36], AccurateRip returned [1DB5B426]
Copy OK

Track 20 Filename D:\Fiamma\Stan Getz - The Complete Roost Recordings (1951-1954) [FLAC] (BN Ron McMaster)\CD 1\20 - It Might As Well Be Spring.wav Pre-gap length 0:00:01.68 Peak level 63.5 %
Extraction speed 0.9 X
Track quality 100.0 %
Test CRC 80D7E0EC
Copy CRC 80D7E0EC
Cannot be verified as accurate (confidence 10) [0EA54826], AccurateRip returned EF7EE2F
Copy OK

Track 21 Filename D:\Fiamma\Stan Getz - The Complete Roost Recordings (1951-1954) [FLAC] (BN Ron McMaster)\CD 1\21 - The Best Thing For You.wav Pre-gap length 0:00:02.20 Peak level 75.2 %
Extraction speed 0.9 X
Track quality 100.0 %
Test CRC 3FCCE9C2
Copy CRC 3FCCE9C2
Cannot be verified as accurate (confidence 10) [250A0D91], AccurateRip returned [0300A3FE]
Copy OK

Track 22 Filename D:\Fiamma\Stan Getz - The Complete Roost Recordings (1951-1954) [FLAC] (BN Ron McMaster)\CD 1\22 - Signal (alt tk).wav Pre-gap length 0:00:02.33 Peak level 79.9 %
Extraction speed 0.9 X
Track quality 99.9 %
Test CRC 543F7F45
Copy CRC 543F7F45
Cannot be verified as accurate (confidence 10) [E3D11363], AccurateRip returned [52783DD5]
Copy OK

Track 23 Filename D:\Fiamma\Stan Getz - The Complete Roost Recordings (1951-1954) [FLAC] (BN Ron McMaster)\CD 1\23 - Budo (alt tk).wav Pre-gap length 0:00:02.37 Peak level 98.2 %
Extraction speed 1.0 X
Track quality 100.0 %
Test CRC 9F7932C8
Copy CRC 9F7932C8
Cannot be verified as accurate (confidence 10) [8A15E1D0], AccurateRip returned [8DD54949]
Copy OK

No tracks could be verified as accurate
You may have a different pressing from the one(s) in the database

No errors occurred

End of status report

==== Log checksum 66A1BD39C421A375F752A5AC8251689655ECC53B70895286327DA6CDC29B5D16 ====

Exact Audio Copy V1.0 beta 1 from 15. November 2010

EAC extraction logfile from 28. May 2011, 0:35

Stan Getz / Complete Roost Recordings CD 2

Used drive : HL-DT-STDVDRAM GSA-T50N Adapter: 0 ID: 1

Read mode : Secure
Utilize accurate stream : Yes
Defeat audio cache : Yes
Make use of C2 pointers : No

Read offset correction

: 667
Overread into Lead-In and Lead-Out : No
Fill up missing offset samples with silence : Yes
Delete leading and trailing silent blocks : No
Null samples used in CRC calculations : Yes
Used interface
: Native Win32 interface for Win NT & 2000
Gap handling
: Appended to previous track

Used output format : User Defined Encoder
Selected bitrate : 320 kBit/s
Quality : High
Add ID3 tag : No
Command line compressor : C:\Program Files\Exact Audio Copy\Flac\flac.exe
Additional command line options : -8 -V -T "ARTIST=%a" -T "TITLE=%t" -T "ALBUM=%g" -T "DATE=%y" -T "TRACKNUMBER=%n" -T "TOTALTRACKS=%x" -T "GENRE=%m" -T "ALBUMARTIST=%v" -T "ALBUM ARTIST=%v" -T "COMMENT=EAC Secure Mode, Test & Copy, AccurateRip, FLAC -8" %s

TOC of the extracted CD Track | Start | Length | Start sector | End sector
--1 | 0:00.00 | 4:26.55 | 0 | 20004 2 | 4:26.55 | 7:11.32 | 20005 | 52361 3 | 11:38.12 | 5:24.43 | 52362 | 76704 4 | 17:02.55 | 5:09.72 | 76705 | 99951 5 | 22:12.52 | 6:05.45 | 99952 | 127371 6 | 28:18.22 | 6:09.45 | 127372 | 155091 7 | 34:27.67 | 3:35.08 | 155092 | 171224 8 | 38:03.00 | 4:27.65 | 171225 | 191314 9 | 42:30.65 | 5:54.27 | 191315 | 217891
10 | 48:25.17 | 3:24.15 | 217892 | 233206
11 | 51:49.32 | 7:28.15 | 233207 | 266821
12 | 59:17.47 | 3:01.23 | 266822 | 280419
13 | 62:18.70 | 5:14.50 | 280420 | 304019
14 | 67:33.45 | 4:57.32 | 304020 | 326326

Track 1 Filename D:\Fiamma\Stan Getz - The Complete Roost Recordings (1951-1954) [FLAC] (BN Ron McMaster)\CD 2\01 - Thou Swell.wav Pre-gap length 0:00:02.00 Peak level 84.5 %
Extraction speed 2.5 X
Track quality 100.0 %
Test CRC EF95FA27
Copy CRC EF95FA27
Cannot be verified as accurate (confidence 10) [7E97CD15], AccurateRip returned [80F70E97]
Copy OK

Track 2 Filename D:\Fiamma\Stan Getz - The Complete Roost Recordings (1951-1954) [FLAC] (BN Ron McMaster)\CD 2\02 - The Song Is You.wav Pre-gap length 0:00:02.35 Peak level 79.5 %
Extraction speed 3.0 X
Track quality 100.0 %
Test CRC 476C9637
Copy CRC 476C9637
Cannot be verified as accurate (confidence 10) [E2EC0900], AccurateRip returned [D4652D23]
Copy OK

Track 3 Filename D:\Fiamma\Stan Getz - The Complete Roost Recordings (1951-1954) [FLAC] (BN Ron McMaster)\CD 2\03 - Mosquito Knees.wav Pre-gap length 0:00:02.16 Peak level 98.9 %
Extraction speed 3.2 X
Track quality 100.0 %
Test CRC FC4FAB17
Copy CRC FC4FAB17
Cannot be verified as accurate (confidence 10) [EE33811C], AccurateRip returned [A027668A]
Copy OK

Track 4 Filename D:\Fiamma\Stan Getz - The Complete Roost Recordings (1951-1954) [FLAC] (BN Ron McMaster)\CD 2\04 - Pennies From Heaven.wav Pre-gap length 0:00:02.65 Peak level 92.8 %
Extraction speed 3.5 X
Track quality 100.0 %
Test CRC 6D403F0D
Copy CRC 6D403F0D
Cannot be verified as accurate (confidence 10) [85EE7170], AccurateRip returned [8910CCA8]
Copy OK

Track 5 Filename D:\Fiamma\Stan Getz - The Complete Roost Recordings (1951-1954) [FLAC] (BN Ron McMaster)\CD 2\05 - Move.wav Pre-gap length 0:00:02.27 Peak level 92.6 %
Extraction speed 3.4 X
Track quality 99.9 %
Test CRC 3631E9CA
Copy CRC 3631E9CA
Cannot be verified as accurate (confidence 10) [6C1A10B7], AccurateRip returned [2947E781]
Copy OK

Track 6 Filename D:\Fiamma\Stan Getz - The Complete Roost Recordings (1951-1954) [FLAC] (BN Ron McMaster)\CD 2\06 - Parker 51.wav Pre-gap length 0:00:02.70 Peak level 96.6 %
Extraction speed 3.7 X
Track quality 99.9 %
Test CRC B43D0161
Copy CRC B43D0161
Cannot be verified as accurate (confidence 10) [2621FA9A], AccurateRip returned [F5F40B43]
Copy OK

Track 7 Filename D:\Fiamma\Stan Getz - The Complete Roost Recordings (1951-1954) [FLAC] (BN Ron McMaster)\CD 2\07 - Hershey Bar.wav Pre-gap length 0:00:02.67 Peak level 91.2 %
Extraction speed 3.9 X
Track quality 100.0 %
Test CRC DCB8E17E
Copy CRC DCB8E17E
Cannot be verified as accurate (confidence 10) [845D81EB], AccurateRip returned [3BC060DA]
Copy OK

Track 8 Filename D:\Fiamma\Stan Getz - The Complete Roost Recordings (1951-1954) [FLAC] (BN Ron McMaster)\CD 2\08 - Rubberneck.wav Pre-gap length 0:00:03.63 Peak level 87.3 %
Extraction speed 4.1 X
Track quality 100.0 %
Test CRC C6E13C0D
Copy CRC C6E13C0D
Cannot be verified as accurate (confidence 10) [E63C7BB1], AccurateRip returned [1E99EDA5]
Copy OK

Track 9 Filename D:\Fiamma\Stan Getz - The Complete Roost Recordings (1951-1954) [FLAC] (BN Ron McMaster)\CD 2\09 - Signal.wav Pre-gap length 0:00:02.50 Peak level 89.9 %
Extraction speed 4.6 X
Track quality 100.0 %
Test CRC 6C8E78FC
Copy CRC 6C8E78FC
Cannot be verified as accurate (confidence 10) [65A1E1CF], AccurateRip returned 07932C6
Copy OK

Track 10 Filename D:\Fiamma\Stan Getz - The Complete Roost Recordings (1951-1954) [FLAC] (BN Ron McMaster)\CD 2\10 - Everything Happens To Me.wav Pre-gap length 0:00:02.52 Peak level 73.0 %
Extraction speed 3.7 X
Track quality 99.9 %
Test CRC B233961E
Copy CRC B233961E
Cannot be verified as accurate (confidence 10) [4477887B], AccurateRip returned A45172C
Copy OK

Track 11 Filename D:\Fiamma\Stan Getz - The Complete Roost Recordings (1951-1954) [FLAC] (BN Ron McMaster)\CD 2\11 - Jumpin' With Symphony Sid.wav Pre-gap length 0:00:02.32 Peak level 97.3 %
Extraction speed 4.9 X
Track quality 100.0 %
Test CRC DA1A3B0F
Copy CRC DA1A3B0F
Cannot be verified as accurate (confidence 10) [455EC837], AccurateRip returned [530BA3A2]
Copy OK

Track 12 Filename D:\Fiamma\Stan Getz - The Complete Roost Recordings (1951-1954) [FLAC] (BN Ron McMaster)\CD 2\12 - Yesterdays.wav Pre-gap length 0:00:03.30 Peak level 88.4 %
Extraction speed 3.8 X
Track quality 99.9 %
Test CRC 000C7EB3
Copy CRC 000C7EB3
Cannot be verified as accurate (confidence 10) [FDC4B68E], AccurateRip returned [8C0D9DF1]
Copy OK

Track 13 Filename D:\Fiamma\Stan Getz - The Complete Roost Recordings (1951-1954) [FLAC] (BN Ron McMaster)\CD 2\13 - Budo.wav Pre-gap length 0:00:02.60 Peak level 98.5 %
Extraction speed 5.0 X
Track quality 100.0 %
Test CRC 813FEF92
Copy CRC 813FEF92
Cannot be verified as accurate (confidence 8) 8064687, AccurateRip returned [77A108BA]
Copy OK

Track 14 Filename D:\Fiamma\Stan Getz - The Complete Roost Recordings (1951-1954) [FLAC] (BN Ron McMaster)\CD 2\14 - Wildwood.wav Pre-gap length 0:00:02.58 Peak level 98.3 %
Extraction speed 5.2 X
Track quality 100.0 %
Test CRC 73D8BF5E
Copy CRC 73D8BF5E
Cannot be verified as accurate (confidence 9) [2B627614], AccurateRip returned [29CC1AEC]
Copy OK

No tracks could be verified as accurate
You may have a different pressing from the one(s) in the database

No errors occurred

End of status report

==== Log checksum B68D7D4745900F49339B561DF42362A039E4E41C644BA6A3D73EB806B9C6351F ====

Exact Audio Copy V1.0 beta 1 from 15. November 2010

EAC extraction logfile from 28. May 2011, 1:58

Stan Getz / Complete Roost Recordings CD 3

Used drive : HL-DT-STDVDRAM GSA-T50N Adapter: 0 ID: 1

Read mode : Secure
Utilize accurate stream : Yes
Defeat audio cache : Yes
Make use of C2 pointers : No

Read offset correction

: 667
Overread into Lead-In and Lead-Out : No
Fill up missing offset samples with silence : Yes
Delete leading and trailing silent blocks : No
Null samples used in CRC calculations : Yes
Used interface
: Native Win32 interface for Win NT & 2000
Gap handling
: Appended to previous track

Used output format : User Defined Encoder
Selected bitrate : 320 kBit/s
Quality : High
Add ID3 tag : No
Command line compressor : C:\Program Files\Exact Audio Copy\Flac\flac.exe
Additional command line options : -8 -V -T "ARTIST=%a" -T "TITLE=%t" -T "ALBUM=%g" -T "DATE=%y" -T "TRACKNUMBER=%n" -T "TOTALTRACKS=%x" -T "GENRE=%m" -T "ALBUMARTIST=%v" -T "ALBUM ARTIST=%v" -T "COMMENT=EAC Secure Mode, Test & Copy, AccurateRip, FLAC -8" %s

TOC of the extracted CD Track | Start | Length | Start sector | End sector
--1 | 0:00.00 | 2:47.22 | 0 | 12546 2 | 2:47.22 | 2:58.18 | 12547 | 25914 3 | 5:45.40 | 2:41.50 | 25915 | 38039 4 | 8:27.15 | 2:49.42 | 38040 | 50756 5 | 11:16.57 | 3:06.10 | 50757 | 64716 6 | 14:22.67 | 2:25.58 | 64717 | 75649 7 | 16:48.50 | 3:01.20 | 75650 | 89244 8 | 19:49.70 | 3:07.55 | 89245 | 103324 9 | 22:57.50 | 2:27.20 | 103325 | 114369
10 | 25:24.70 | 2:32.35 | 114370 | 125804
11 | 27:57.30 | 3:01.50 | 125805 | 139429
12 | 30:59.05 | 2:27.30 | 139430 | 150484
13 | 33:26.35 | 2:42.25 | 150485 | 162659
14 | 36:08.60 | 3:15.57 | 162660 | 177341
15 | 39:24.42 | 2:34.23 | 177342 | 188914
16 | 41:58.65 | 2:20.47 | 188915 | 199461
17 | 44:19.37 | 3:05.50 | 199462 | 213386
18 | 47:25.12 | 2:26.60 | 213387 | 224396
19 | 49:51.72 | 3:26.23 | 224397 | 239869
20 | 53:18.20 | 2:36.25 | 239870 | 251594
21 | 55:54.45 | 4:20.60 | 251595 | 271154
22 | 60:15.30 | 3:53.50 | 271155 | 288679

Track 1 Filename D:\Fiamma\Stan Getz - The Complete Roost Recordings (1951-1954) [FLAC] (BN Ron McMaster)\CD 3\01 - Melody Express.wav Pre-gap length 0:00:02.00 Peak level 94.5 %
Extraction speed 1.8 X
Track quality 100.0 %
Test CRC D654684C
Copy CRC D654684C
Accurately ripped (confidence 2) [00F24740]
Copy OK

Track 2 Filename D:\Fiamma\Stan Getz - The Complete Roost Recordings (1951-1954) [FLAC] (BN Ron McMaster)\CD 3\02 - Yvette.wav Pre-gap length 0:00:02.37 Peak level 92.6 %
Extraction speed 1.9 X
Track quality 100.0 %
Test CRC 02ACA7CC
Copy CRC 02ACA7CC
Accurately ripped (confidence 2) 575BDC0
Copy OK

Track 3 Filename D:\Fiamma\Stan Getz - The Complete Roost Recordings (1951-1954) [FLAC] (BN Ron McMaster)\CD 3\03 - Potter's Luck.wav Pre-gap length 0:00:02.40 Peak level 94.2 %
Extraction speed 2.0 X
Track quality 100.0 %
Test CRC BDF6ABCB
Copy CRC BDF6ABCB
Cannot be verified as accurate (confidence 10) 5EB8D04, AccurateRip returned [F0FA707E]
Copy OK

Track 4 Filename D:\Fiamma\Stan Getz - The Complete Roost Recordings (1951-1954) [FLAC] (BN Ron McMaster)\CD 3\04 - The Song Is You.wav Pre-gap length 0:00:02.38 Peak level 62.0 %
Extraction speed 2.2 X
Track quality 100.0 %
Test CRC 3ECD32A9
Copy CRC 3ECD32A9
Accurately ripped (confidence 2) [DACABCE8]
Copy OK

Track 5 Filename D:\Fiamma\Stan Getz - The Complete Roost Recordings (1951-1954) [FLAC] (BN Ron McMaster)\CD 3\05 - Wildwood.wav Pre-gap length 0:00:02.40 Peak level 90.0 %
Extraction speed 2.3 X
Track quality 100.0 %
Test CRC E5BC4047
Copy CRC E5BC4047
Accurately ripped (confidence 2) [E3502232]
Copy OK

Track 6 Filename D:\Fiamma\Stan Getz - The Complete Roost Recordings (1951-1954) [FLAC] (BN Ron McMaster)\CD 3\06 - Lullaby Of Birdland.wav Pre-gap length 0:00:02.35 Peak level 66.8 %
Extraction speed 1.6 X
Track quality 99.9 %
Test CRC F35ED3E7
Copy CRC F35ED3E7
Accurately ripped (confidence 2) [638C5950]
Copy OK

Track 7 Filename D:\Fiamma\Stan Getz - The Complete Roost Recordings (1951-1954) [FLAC] (BN Ron McMaster)\CD 3\07 - Autumn Leaves.wav Pre-gap length 0:00:02.25 Peak level 57.5 %
Extraction speed 2.5 X
Track quality 100.0 %
Test CRC CADC1007
Copy CRC CADC1007
Accurately ripped (confidence 2) [7A459618]
Copy OK

Track 8 Filename D:\Fiamma\Stan Getz - The Complete Roost Recordings (1951-1954) [FLAC] (BN Ron McMaster)\CD 3\08 - Autumn Leaves (alt tk).wav Pre-gap length 0:00:02.38 Peak level 62.4 %
Extraction speed 2.7 X
Track quality 100.0 %
Test CRC 5FC49799
Copy CRC 5FC49799
Accurately ripped (confidence 2) [45540EB7]
Copy OK

Track 9 Filename D:\Fiamma\Stan Getz - The Complete Roost Recordings (1951-1954) [FLAC] (BN Ron McMaster)\CD 3\09 - Fools Rush In.wav Pre-gap length 0:00:02.40 Peak level 59.4 %
Extraction speed 2.6 X
Track quality 100.0 %
Test CRC 3E4F6A6E
Copy CRC 3E4F6A6E
Accurately ripped (confidence 2) [993EE670]
Copy OK

Track 10 Filename D:\Fiamma\Stan Getz - The Complete Roost Recordings (1951-1954) [FLAC] (BN Ron McMaster)\CD 3\10 - Fools Rush In (alt tk).wav Pre-gap length 0:00:02.40 Peak level 70.2 %
Extraction speed 2.8 X
Track quality 100.0 %
Test CRC 4150800D
Copy CRC 4150800D
Accurately ripped (confidence 2) [42E2E301]
Copy OK

Track 11 Filename D:\Fiamma\Stan Getz - The Complete Roost Recordings (1951-1954) [FLAC] (BN Ron McMaster)\CD 3\11 - These Foolish Things.wav Pre-gap length 0:00:02.40 Peak level 69.4 %
Extraction speed 2.1 X
Track quality 99.9 %
Test CRC D4900DCB
Copy CRC D4900DCB
Accurately ripped (confidence 2) [E06B38C2]
Copy OK

Track 12 Filename D:\Fiamma\Stan Getz - The Complete Roost Recordings (1951-1954) [FLAC] (BN Ron McMaster)\CD 3\12 - Where Or When.wav Pre-gap length 0:00:02.40 Peak level 93.4 %
Extraction speed 1.9 X
Track quality 99.9 %
Test CRC 52ADEEB0
Copy CRC 52ADEEB0
Accurately ripped (confidence 2) [9CD929DB]
Copy OK

Track 13 Filename D:\Fiamma\Stan Getz - The Complete Roost Recordings (1951-1954) [FLAC] (BN Ron McMaster)\CD 3\13 - Tabu.wav Pre-gap length 0:00:02.40 Peak level 91.2 %
Extraction speed 3.0 X
Track quality 100.0 %
Test CRC 03C7B80A
Copy CRC 03C7B80A
Accurately ripped (confidence 2) [1B6BDD9F]
Copy OK

Track 14 Filename D:\Fiamma\Stan Getz - The Complete Roost Recordings (1951-1954) [FLAC] (BN Ron McMaster)\CD 3\14 - Moonlight In Vermont.wav Pre-gap length 0:00:02.43 Peak level 66.5 %
Extraction speed 3.2 X
Track quality 100.0 %
Test CRC 675858B1
Copy CRC 675858B1
Accurately ripped (confidence 2) [F78E7705]
Copy OK

Track 15 Filename D:\Fiamma\Stan Getz - The Complete Roost Recordings (1951-1954) [FLAC] (BN Ron McMaster)\CD 3\15 - Jaguar.wav Pre-gap length 0:00:02.42 Peak level 93.8 %
Extraction speed 3.1 X
Track quality 100.0 %
Test CRC ED71767C
Copy CRC ED71767C
Accurately ripped (confidence 2) [C30BD143]
Copy OK

Track 16 Filename D:\Fiamma\Stan Getz - The Complete Roost Recordings (1951-1954) [FLAC] (BN Ron McMaster)\CD 3\16 - Sometimes I'm Happy.wav Pre-gap length 0:00:02.38 Peak level 90.4 %
Extraction speed 3.1 X
Track quality 100.0 %
Test CRC 2B77049B
Copy CRC 2B77049B
Accurately ripped (confidence 2) [1AFAFC57]
Copy OK

Track 17 Filename D:\Fiamma\Stan Getz - The Complete Roost Recordings (1951-1954) [FLAC] (BN Ron McMaster)\CD 3\17 - Stars Fell On Alabama.wav Pre-gap length 0:00:02.35 Peak level 85.2 %
Extraction speed 3.5 X
Track quality 100.0 %
Test CRC F1A8B486
Copy CRC F1A8B486
Accurately ripped (confidence 2) [EF8024D1]
Copy OK

Track 18 Filename D:\Fiamma\Stan Getz - The Complete Roost Recordings (1951-1954) [FLAC] (BN Ron McMaster)\CD 3\18 - Nice Work If You Can Get It.wav Pre-gap length 0:00:02.42 Peak level 93.0 %
Extraction speed 2.3 X
Track quality 99.9 %
Test CRC 7C825CE6
Copy CRC 7C825CE6
Accurately ripped (confidence 2) [C99B7C51]
Copy OK

Track 19 Filename D:\Fiamma\Stan Getz - The Complete Roost Recordings (1951-1954) [FLAC] (BN Ron McMaster)\CD 3\19 - Tenderly.wav Pre-gap length 0:00:02.40 Peak level 81.1 %
Extraction speed 3.7 X
Track quality 100.0 %
Test CRC 1D1E256B
Copy CRC 1D1E256B
Accurately ripped (confidence 2) [C8F7E595]
Copy OK

Track 20 Filename D:\Fiamma\Stan Getz - The Complete Roost Recordings (1951-1954) [FLAC] (BN Ron McMaster)\CD 3\20 - Little Pony.wav Pre-gap length 0:00:02.40 Peak level 90.6 %
Extraction speed 3.5 X
Track quality 100.0 %
Test CRC 4CD7023F
Copy CRC 4CD7023F
Accurately ripped (confidence 2) [2B16EF32]
Copy OK

Track 21 Filename D:\Fiamma\Stan Getz - The Complete Roost Recordings (1951-1954) [FLAC] (BN Ron McMaster)\CD 3\21 - Easy Living.wav Peak level 83.1 %
Extraction speed 4.0 X
Track quality 100.0 %
Test CRC B8FB6ACE
Copy CRC B8FB6ACE
Accurately ripped (confidence 2) [4EE9788F]
Copy OK

Track 22 Filename D:\Fiamma\Stan Getz - The Complete Roost Recordings (1951-1954) [FLAC] (BN Ron McMaster)\CD 3\22 - Nails.wav Peak level 98.0 %
Extraction speed 4.0 X
Track quality 100.0 %
Test CRC D12FDE25
Copy CRC D12FDE25
Accurately ripped (confidence 2) [EB906E6B]
Copy OK

21 track(s) accurately ripped
1 track(s) could not be verified as accurate

Some tracks could not be verified as accurate

No errors occurred

End of status report

==== Log checksum CFF9EE85CE6F9006BDB1122C91829A3E18C7A55E509CC5A7A50403AE296AC2E9 ====

Stan Getz - The Complete Roost Recordings (1950-1954) [3CD Set] {1997 Blue Note Ron McMaster Remaster}


All thanks goes to the original releaser!
DOWNLOAD LINKS:
Buy Premium To Support Me & Get Resumable Support & Max Speed


Links are Interchangeable - No Password - Single Extraction

Direct Download

Tags: Complete, Recordings, McMaster, Remaster

Stan Getz - The Complete Roost Recordings (1950-1954) [3CD Set] {1997 Blue Note Ron McMaster Remaster} Download via Hotfile Rapidshare Fileserve Megaupload & FileSonic, Stan Getz - The Complete Roost Recordings (1950-1954) [3CD Set] {1997 Blue Note Ron McMaster Remaster} free torrent downloads included crack, serial, keygen.


Attention!Information

Members of Guest cannot leave comments.