Russell Allen - Russell Allen's Atomic Soul (2005)

Download Now

Russell Allen - Russell Allen's Atomic Soul (2005)

Russell Allen - Russell Allen's Atomic Soul (2005)
EAC | Flac(Image) + Cue + Log & MP3 CBR 320Kbps
Over the Rainbow, OTR025 | ~ 408 or 140 Mb | Scans Included
Progressive Metal / Hard Rock

"Atomic Soul is Symphony X's lead singer Russell Allen's debut solo album. It was released on April 26, 2005. The album is different from Symphony X's harder, more progressive sound, and has been dubbed by many, including Allen himself, as "Hard Rock". The album was released in 2005 on the InsideOut Music label..."


Tracklist:

01. Blackout (4:26)
02. Unjustified (3:43)
03. Voodoo Hand (3:55)
04. Angel (5:15)
05. The Distance (4:50)
06. Seasons Of Insanity (4:20)
07. Gaia (4:34)
08. Loosin' You (4:02)
09. Saucey Jack (4:03)
10. We Will Fly (7:55)
11. Atomic Soul (3:10)

Musicians:

* Russell Allen: Vocals, Bass & Acoustic Guitars, Keyboards
* Brendan Anthony: Electric & Acoustic Guitars
* Jason Freudberg: Electric & Acoustic Guitars
* Iceberg: Electric & Acoustic Guitars
* Michael Romeo: Electric, Slide & Bass Guitars
* Larry Salvatore: Bass
* Michael Pinnella: Piano
* Jens Johansson: Keyboards
* Robert Nelson: Drums, Percussion


Exact Audio Copy V1.0 beta 3 from 29. August 2011

EAC extraction logfile from 18. March 2012, 20:34

Russell Allen / Russell Allen's Atomic Soul

Used drive : Optiarc DVD RW AD-7173A Adapter: 0 ID: 0

Read mode : Secure
Utilize accurate stream : Yes
Defeat audio cache : Yes
Make use of C2 pointers : No

Read offset correction

: 48
Overread into Lead-In and Lead-Out : No
Fill up missing offset samples with silence : Yes
Delete leading and trailing silent blocks : No
Null samples used in CRC calculations : Yes
Used interface
: Native Win32 interface for Win NT & 2000

Used output format : User Defined Encoder
Selected bitrate : 1024 kBit/s
Quality : High
Add ID3 tag : No
Command line compressor : C:\Program Files\Exact Audio Copy\FLAC\FLAC.EXE
Additional command line options : -V -8 -T "Date=%year%" -T "Genre=%genre%" %source%

TOC of the extracted CD Track | Start | Length | Start sector | End sector
--1 | 0:00.00 | 4:25.53 | 0 | 19927 2 | 4:25.53 | 3:43.24 | 19928 | 36676 3 | 8:09.02 | 3:54.42 | 36677 | 54268 4 | 12:03.44 | 5:14.59 | 54269 | 77877 5 | 17:18.28 | 4:49.61 | 77878 | 99613 6 | 22:08.14 | 4:19.72 | 99614 | 119110 7 | 26:28.11 | 4:34.03 | 119111 | 139663 8 | 31:02.14 | 4:01.68 | 139664 | 157806 9 | 35:04.07 | 4:02.40 | 157807 | 175996
10 | 39:06.47 | 7:55.17 | 175997 | 211638
11 | 47:01.64 | 3:09.59 | 211639 | 225872

Range status and errors

Selected range Filename J:\Russell Allen - Russell Allen's Atomic Soul.wav Peak level 100.0 %
Extraction speed 2.0 X
Range quality 100.0 %
Test CRC 7DB1495B
Copy CRC 7DB1495B
Copy OK

No errors occurred


AccurateRip summary

Track 1 cannot be verified as accurate (confidence 17) [6B0B6A96], AccurateRip returned [357BC11C] (AR v2)
Track 2 cannot be verified as accurate (confidence 16) [5BE9C521], AccurateRip returned [FAE97908] (AR v2)
Track 3 cannot be verified as accurate (confidence 17) [D9119FA5], AccurateRip returned [1CB8F5CA] (AR v2)
Track 4 cannot be verified as accurate (confidence 17) [F7E04039], AccurateRip returned [957FBC16] (AR v2)
Track 5 cannot be verified as accurate (confidence 17) [DEADFEE8], AccurateRip returned [ADA0200D] (AR v2)
Track 6 cannot be verified as accurate (confidence 17) [54058515], AccurateRip returned [3D3637AF] (AR v2)
Track 7 cannot be verified as accurate (confidence 17) [5B6FDC10], AccurateRip returned [C448281B] (AR v2)
Track 8 cannot be verified as accurate (confidence 17) [FF668EA7], AccurateRip returned [603D6A34] (AR v2)
Track 9 cannot be verified as accurate (confidence 17) [C5400E8B], AccurateRip returned [E3C4F53A] (AR v2)
Track 10 cannot be verified as accurate (confidence 17) [4EC75E72], AccurateRip returned [FBE82CB6] (AR v2)
Track 11 cannot be verified as accurate (confidence 17) [F165A999], AccurateRip returned [2CD5AF04] (AR v2)

No tracks could be verified as accurate
You may have a different pressing from the one(s) in the database

End of status report

- CUETools DB Plugin V2.1.3

[CTDB TOCID: 4tY_xx3_xaZp8cAwgxwD8W6dau4-] found, Submit result: 4tY_xx3_xaZp8cAwgxwD8W6dau4- has been confirmed
[3d36c362] (15/15) Accurately ripped

==== Log checksum 3ECBD1774E21B35299380E758164867255CB67AC8B6F563FD9CB397F614F5032 ====

foobar2000 1.2.9 / Dynamic Range Meter 1.1.1
log date: 2015-08-08 15:15:59

Analyzed: Russell Allen / Russell Allen's Atomic Soul

DR Peak RMS Duration Track

DR6 -0.08 dB -7.39 dB 4:26 01-Blackout
DR6 -0.08 dB -7.45 dB 3:43 02-Unjustified
DR6 -0.08 dB -7.47 dB 3:55 03-Voodoo Hand
DR7 -0.08 dB -8.20 dB 5:15 04-Angel
DR6 0.00 dB -8.35 dB 4:50 05-The Distance
DR6 -0.08 dB -7.19 dB 4:20 06-Seasons Of Insanity
DR6 -0.08 dB -7.56 dB 4:34 07-Gaia
DR7 -0.08 dB -7.68 dB 4:02 08-Loosin' You
DR6 -0.08 dB -8.21 dB 4:03 09-Saucey Jack
DR6 0.00 dB -7.96 dB 7:55 10-We Will Fly
DR6 -0.08 dB -6.72 dB 3:10 11-Atomic Soul

Number of tracks: 11
Official DR value: DR6

Samplerate: 44100 Hz
Channels: 2
Bits per sample: 16
Bitrate: 1045 kbps
Codec: FLAC

[CUETools log; Date: 08.08.2015 15:16:28; Version: 2.1.4]
[CTDB TOCID: 4tY_xx3_xaZp8cAwgxwD8W6dau4-] found.
Track | CTDB Status
1 | (12/12) Accurately ripped
2 | (12/12) Accurately ripped
3 | (12/12) Accurately ripped
4 | (12/12) Accurately ripped
5 | (12/12) Accurately ripped
6 | (12/12) Accurately ripped
7 | (12/12) Accurately ripped
8 | (12/12) Accurately ripped
9 | (12/12) Accurately ripped
10 | (12/12) Accurately ripped
11 | (12/12) Accurately ripped
[AccurateRip ID: 00141e39-00afd719-840bc30b] found.
Track [ CRC | V2 ] Status
01 [ee88ba02|6b0b6a96] (00+02/27) Accurately ripped
02 [940ab9a7|5be9c521] (00+02/26) Accurately ripped
03 [1ce62a88|d9119fa5] (00+02/27) Accurately ripped
04 [3b7b4e8e|f7e04039] (00+02/27) Accurately ripped
05 [5667b15d|deadfee8] (00+02/27) Accurately ripped
06 [fd180401|54058515] (00+02/27) Accurately ripped
07 [eee4d7fa|5b6fdc10] (00+02/27) Accurately ripped
08 [6d948525|ff668ea7] (00+02/27) Accurately ripped
09 [eff89978|c5400e8b] (00+02/27) Accurately ripped
10 [ad276598|4ec75e72] (00+02/27) Accurately ripped
11 [fc14dbbe|f165a999] (00+02/27) Accurately ripped
Offsetted by 664:
01 [357bc11c] (18/27) Accurately ripped
02 [fae97908] (17/26) Accurately ripped
03 [1cb8f5ca] (18/27) Accurately ripped
04 [957fbc16] (18/27) Accurately ripped
05 [ada0200d] (18/27) Accurately ripped
06 [3d3637af] (18/27) Accurately ripped
07 [c448281b] (18/27) Accurately ripped
08 [603d6a34] (18/27) Accurately ripped
09 [e3c4f53a] (18/27) Accurately ripped
10 [fbe82cb6] (18/27) Accurately ripped
11 [2cd5af04] (18/27) Accurately ripped

Track Peak [ CRC32 ] [W/O NULL] [ LOG ]
-- 100,0 [7DB1495B] [C3ED2ACF] CRC32
01 99,0 [6B8CDE88] BE29A0A
02 99,0 [A368BE4D] BD27FAE
03 99,0 [77299013] [DE56E160]
04 99,0 [32ECF942] [9593A5B1]
05 100,0 [FF13E2BD] [4D0E66B6]
06 99,0 [7FD67525] [2F124830]
07 99,0 [5ADC3132] [94637C6C]
08 99,0 [A6EC4646] 73F45FB
09 99,0 [02DEA806] [376A1006]
10 100,0 [F1C84DEE] [06750B8A]
11 99,0 [51711D3A] [267A6B08]

Russell Allen - Russell Allen's Atomic Soul (2005)

All thanks go to mikuh

Download Russell Allen - Russell Allen's Atomic Soul (2005):


DOWNLOAD LINKS:
Buy Premium To Support Me & Get Resumable Support & Max Speed


Links are Interchangeable - No Password - Single Extraction

Direct Download

Tags: Russell, Russell, Atomic

Russell Allen - Russell Allen's Atomic Soul (2005) Download via Hotfile Rapidshare Fileserve Megaupload & FileSonic, Russell Allen - Russell Allen's Atomic Soul (2005) free torrent downloads included crack, serial, keygen.


Attention!Information

Members of Guest cannot leave comments.