Beegie Adair - The Good Life: A Jazz Tribute to Tony Bennett (2014)

Download Now

Beegie Adair - The Good Life: A Jazz Tribute to Tony Bennett (2014)

Beegie Adair - The Good Life: A Jazz Tribute to Tony Bennett (2014)
EAC | FLAC | Image (Cue&Log) ~ 299 Mb (incl 5%) | Scans included | Time: 00:47:04
Genre: Piano Jazz, Lounge, Standarts | Label: Green Hill Productions | # GHD5965

"Another gem from the creative Beegie Adair and her trio. This time, she is accompanied by Jeff Steinberg and his orchestra. A loving tribute to Tony Bennett and his illustrious career. As usual, Beegie includes one selection on the album where she plays solo piano and she picked 'I Left My Heart In San Francisco'. A beautiful rendition. This is a great album tinged with jazz overtones without losing the melodic memories of Tony's original sound. The orchestra is perfectly balanced and adds just the right touch while still allowing the familiar Beegie Adair Trio sound to shine through. If you are new to Beegie's music, this album will make you a convert to her impeccable sound and those like myself, have added it as another gem to her large catalog of great music."

"Born in Cave City, Kentucky, a small farming community of 1,400 residents, Beegie Adair (pronounced B-G) grew up avidly listening to music. At age four she started the "two-finger-hunt-and-peck" system on the piano, but began actual lessons when she was five and continued studying piano through college at Western Kentucky University in Bowling Green where she received her Bachelor of Science Degree in Music Education. Arriving in Nashville during the heyday of Country music allowed her the opportunity to accompany such legendary performers as Chet Atkins, Johnny Cash, and Dolly Parton. Because Nashville was a hot bed of musical television tapings and live performances during that time, Adair also worked with such entertainers as Neil Diamond, Mama Cass Elliott, and Peggy Lee in her position as in-house pianist for The Johnny Cash Show for ABC-TV plus other television programs featuring Lucille Ball, Carol Burnette, and Dinah Shore. Adair serves as adjunct professor in jazz studies at Vanderbilt University's Blair School of Music and currently teaches singers repertoire at the Nashville Jazz Workshop. Beegie credits as her main influences Jimmy Jones, George Shearing, Teddy Wilson, Tommy Flanagan, Oscar Peterson, Bill Evans, and Russ Freeman (the pianist who played with Chet Baker in the Fifties)."




Tracklist:

01. For Once In My Life (03:20)
02. Because Of You (04:01)
03. The Best Is Yet To Come (03:15)
04. Smile (02:56)
05. Maybe September (03:34)
06. The Good Life (04:25)
07. I Wanna Be Around (04:04)
08. Young And Foolish (04:39)
09. Rags To Riches (03:57)
10. The Pawnbroker (03:27)
11. Steppin' Out With My Baby (02:49)
12. Cold, Cold Heart (03:07)
13. I Left My Heart In San Francisco (03:25)


Exact Audio Copy V1.0 beta 3 from 29. August 2011

Отчёт EAC об извлечении, выполненном 20. марта 2015, 16:17

Beegie Adair / The Good Life - A Jazz Tribute to Tony Bennett

Дисковод: ATAPI iHAS122 C Adapter: 1 ID: 1

Режим чтения : Достоверность
Использование точного потока : Да
Отключение кэша аудио : Да
Использование указателей C2 : Нет

Коррекция смещения при чтении : 6
Способность читать области Lead-in и Lead-out : Нет
Заполнение пропущенных сэмплов тишиной : Да
Удаление блоков с тишиной в начале и конце : Нет
При вычислениях CRC использовались нулевые сэмплы : Да
Интерфейс : Встроенный Win32-интерфейс для Win NT/2000

Выходной формат : Пользовательский кодировщик
Выбранный битрейт : 768 kBit/s
Качество : Высокий
Добавление ID3-тега : Нет
Утилита сжатия : C:\Program Files\Exact Audio Copy\FLAC\FLAC.EXE
Дополнительные параметры : -6 -V -T "ARTIST=%artist%" -T "TITLE=%title%" -T "ALBUM=%albumtitle%" -T "DATE=%year%" -T "TRACKNUMBER=%tracknr%" -T "GENRE=%genre%" -T "COMMENT=%comment%" -T "BAND=%albuminterpret%" -T "ALBUMARTIST=%albuminterpret%" -T "COMPOSER=%composer%" %haslyrics%--tag-from-file=LYRICS="%lyricsfile%"%haslyrics% -T "DISCNUMBER=%cdnumber%" -T "TOTALDISCS=%totalcds%" -T "TOTALTRACKS=%numtracks%" %hascover%--picture="%coverfile%"%hascover% %source% -o %dest%

TOC извлечённого CD Трек | Старт | Длительность | Начальный сектор | Конечный сектор

1 | 0:00.00 | 3:20.27 | 0 | 15026
2 | 3:20.27 | 4:01.19 | 15027 | 33120
3 | 7:21.46 | 3:15.66 | 33121 | 47811
4 | 10:37.37 | 2:56.35 | 47812 | 61046
5 | 13:33.72 | 3:34.10 | 61047 | 77106
6 | 17:08.07 | 4:25.11 | 77107 | 96992
7 | 21:33.18 | 4:04.28 | 96993 | 115320
8 | 25:37.46 | 4:39.14 | 115321 | 136259
9 | 30:16.60 | 3:57.72 | 136260 | 154106
10 | 34:14.57 | 3:27.24 | 154107 | 169655
11 | 37:42.06 | 2:49.50 | 169656 | 182380
12 | 40:31.56 | 3:07.41 | 182381 | 196446
13 | 43:39.22 | 3:25.11 | 196447 | 211832

Характеристики диапазона извлечения и сообщения об ошибках

Выбранный диапазон Имя файла E:\Torrents\Beegie Adair - The Good Life - A Jazz Tribute to Tony Bennett - 2014 - 47'06''\Beegie Adair - The Good Life - A Jazz Tribute to Tony Bennett.wav Пиковый уровень 98.1 %
Скорость извлечения 8.3 X
Качество диапазона 100.0 %
CRC теста 8B1F8D1D
CRC копии 8B1F8D1D
Копирование... OK

Ошибок не произошло

Конец отчёта

==== Контрольная сумма отчёта 3B5E574C582479757B06CDF0046A0129A48E83B2407BDB1E92D5E4B45342EA5E ====

foobar2000 1.2 / Dynamic Range Meter 1.1.1
log date: 2015-08-14 13:10:33

Analyzed: Beegie Adair / The Good Life - A Jazz Tribute to Tony Bennett

DR Peak RMS Duration Track

DR12 -0.16 dB -15.82 dB 3:20 01-For Once In My Life
DR12 -0.16 dB -15.25 dB 4:01 02-Because Of You
DR13 -0.21 dB -16.68 dB 3:16 03-The Best Is Yet To Come
DR12 -0.19 dB -17.34 dB 2:56 04-Smile
DR14 -0.19 dB -17.99 dB 3:34 05-Maybe September
DR14 -0.19 dB -16.82 dB 4:25 06-The Good Life
DR13 -0.17 dB -15.87 dB 4:04 07-I Wanna Be Around
DR12 -0.17 dB -16.49 dB 4:39 08-Young And Foolish
DR14 -0.20 dB -16.28 dB 3:58 09-Rags To Riches
DR12 -0.16 dB -15.75 dB 3:27 10-The Pawnbroker
DR14 -0.19 dB -16.13 dB 2:50 11-Steppin' Out With My Baby
DR13 -0.17 dB -16.24 dB 3:08 12-Cold, Cold Heart
DR13 -0.18 dB -17.04 dB 3:25 13-I Left My Heart In San Francisco

Number of tracks: 13
Official DR value: DR13

Samplerate: 44100 Hz
Channels: 2
Bits per sample: 16
Bitrate: 686 kbps
Codec: FLAC

Beegie Adair - The Good Life: A Jazz Tribute to Tony Bennett (2014)

Beegie Adair - The Good Life: A Jazz Tribute to Tony Bennett (2014)

All thanks to original releaser - RedHotBlues
Password: designol

DOWNLOAD LINKS
Buy Premium From My Links To Get Resumable Support & Max Speed & To Support Me


Links are Interchangeable - No Password - Single Extraction

Direct Download

Tags: Beegie, Tribute, Bennett

Beegie Adair - The Good Life: A Jazz Tribute to Tony Bennett (2014) Download via Hotfile Rapidshare Fileserve Megaupload & FileSonic, Beegie Adair - The Good Life: A Jazz Tribute to Tony Bennett (2014) free torrent downloads included crack, serial, keygen.


Attention!Information

Members of Guest cannot leave comments.