VA - The Many Faces Of Joy Division: A Journey Through The Inner World Of Joy Division (2015)

Download Now

VA - The Many Faces Of Joy Division: A Journey Through The Inner World Of Joy Division (2015)

VA - The Many Faces Of Joy Division: A Journey Through The Inner World Of Joy Division (2015)
3CD | EAC Rip | FLAC (Img) + Cue + Log ~ 1,15 Gb | MP3 CBR320 ~ 465 Mb
Scans Included (JPG, 400 dpi) | RAR 5% Recovery
Post-Punk | Music Brokers #MBB7184

"Joy Division is one of the definitive bands from the rock culture. With their dark poetic inception and a sound marked by a new way of thinking about how music should be created, the Manchester band served as a model for countless artists. Today, just as it marks 35 years of the death of Ian Curtis (the legendary singer and lyricist of the group) The Many Faces Of Joy Division shows the hidden world behind the group, their rare recordings, side projects, their influences and the Manchester scene where the band bloomed. With a wonderful cover art, remastered sound and extensive liner notes, The Many Faces of Joy Division is an album not only for fans but for anyone who wants to understand the influence (and enjoy the music) of a truly transcendent bad, which made beauty out of sadness."

Wiki | Discogs | All Music
***************

VA - The Many Faces Of Joy Division: A Journey Through The Inner World Of Joy Division (2015)

Track List CD1 - Joy Division - The Martin Hannett Sessions:

01. Heart And Soul [05:51]
02. Love Will Tear Us Apart [03:04]
03. Twenty Four Hours [04:28]
04. Passover [04:46]
05. Decades [06:11]
06. Autosuggestion [06:06]
07. Leaders Of Men [02:24]
08. Shadowplay [03:40]
09. New Dawn Fades [04:20]
10. Ice Age [02:28]
11. Transmission [04:16]
12. At A Later Date [03:18]

Exact Audio Copy V1.0 beta 3 from 29. August 2011

EAC extraction logfile from 10. August 2015, 23:42

Joy Division / The Many Faces of Joy Division CD1

Used drive : PIONEER BD-RW BDR-TD03 Adapter: 0 ID: 1

Read mode : Secure
Utilize accurate stream : Yes
Defeat audio cache : Yes
Make use of C2 pointers : No

Read offset correction

: 667
Overread into Lead-In and Lead-Out : No
Fill up missing offset samples with silence : Yes
Delete leading and trailing silent blocks : No
Null samples used in CRC calculations : Yes
Used interface
: Native Win32 interface for Win NT & 2000

Used output format : User Defined Encoder
Selected bitrate : 768 kBit/s
Quality : High
Add ID3 tag : No
Command line compressor : C:\Program Files (x86)\Exact Audio Copy\FLAC\FLAC.EXE
Additional command line options : -6 -V -T "ARTIST=%artist%" -T "TITLE=%title%" -T "ALBUM=%albumtitle%" -T "DATE=%year%" -T "TRACKNUMBER=%tracknr%" -T "GENRE=%genre%" -T "COMMENT=%comment%" -T "BAND=%albuminterpret%" -T "ALBUMARTIST=%albuminterpret%" -T "COMPOSER=%composer%" %haslyrics%--tag-from-file=LYRICS="%lyricsfile%"%haslyrics% -T "DISCNUMBER=%cdnumber%" -T "TOTALDISCS=%totalcds%" -T "TOTALTRACKS=%numtracks%" %hascover%--picture="%coverfile%"%hascover% %source% -o %dest%

TOC of the extracted CD Track | Start | Length | Start sector | End sector
--1 | 0:00.00 | 5:50.60 | 0 | 26309 2 | 5:50.60 | 3:04.00 | 26310 | 40109 3 | 8:54.60 | 4:27.22 | 40110 | 60156 4 | 13:22.07 | 4:45.07 | 60157 | 81538 5 | 18:07.14 | 6:10.45 | 81539 | 109333 6 | 24:17.59 | 6:05.13 | 109334 | 136721 7 | 30:22.72 | 2:23.04 | 136722 | 147450 8 | 32:46.01 | 3:40.00 | 147451 | 163950 9 | 36:26.01 | 4:20.00 | 163951 | 183450
10 | 40:46.01 | 2:27.37 | 183451 | 194512
11 | 43:13.38 | 4:15.67 | 194513 | 213704
12 | 47:29.30 | 3:17.16 | 213705 | 228495

Range status and errors

Selected range Filename C:\Users\Deris\Desktop\TriJoDiv\cd1\Joy Division - The Many Faces of Joy Division CD1.wav Peak level 100.0 %
Extraction speed 4.6 X
Range quality 100.0 %
Test CRC 3CB77069
Copy CRC 3CB77069
Copy OK

No errors occurred


AccurateRip summary

Track 1 not present in database
Track 2 not present in database
Track 3 not present in database
Track 4 not present in database
Track 5 not present in database
Track 6 not present in database
Track 7 not present in database
Track 8 not present in database
Track 9 not present in database
Track 10 not present in database
Track 11 not present in database
Track 12 not present in database

None of the tracks are present in the AccurateRip database

End of status report

- CUETools DB Plugin V2.1.3

[CTDB TOCID: VcU5Np20YsDTY974mgdWW859eiA-] found, Submit result: VcU5Np20YsDTY974mgdWW859eiA- has been confirmed
[6dd978a1] (1/1) Accurately ripped

==== Log checksum 6DDBD2B21437A08D22D0CD076DE414A9B56405E799CB177572C2645DA633CA69 ====

foobar2000 1.2.6 / Dynamic Range Meter 1.1.1
log date: 2015-08-17 10:26:19

Analyzed: Albrecht/Hook/Morris/Curtis / The Many Faces of Joy Division CD1

DR Peak RMS Duration Track

DR7 0.00 dB -8.49 dB 5:51 01-Heart And Soul
DR5 0.00 dB -7.10 dB 3:04 02-Love Will Tear Us Apart
DR8 0.00 dB -9.94 dB 4:27 03-Twenty Four Hours
DR8 0.00 dB -9.17 dB 4:45 04-Passover
DR10 0.00 dB -11.78 dB 6:11 05-Decades
DR7 0.00 dB -10.24 dB 6:05 06-Autosuggestion
DR7 0.00 dB -7.37 dB 2:23 07-Leaders Of Men
DR5 0.00 dB -6.03 dB 3:40 08-Shadowplay
DR5 0.00 dB -5.50 dB 4:20 09-New Dawn Fades
DR7 0.00 dB -7.80 dB 2:27 10-Ice Age
DR5 0.00 dB -5.77 dB 4:16 11-Transmission
DR6 0.00 dB -6.30 dB 3:17 12-At A Later Date

Number of tracks: 12
Official DR value: DR7

Samplerate: 44100 Hz
Channels: 2
Bits per sample: 16
Bitrate: 831 kbps
Codec: FLAC

[CUETools log; Date: 17.08.2015 10:26:16; Version: 2.1.5]
[CTDB TOCID: VcU5Np20YsDTY974mgdWW859eiA-] found.
Track | CTDB Status
1 | (2/2) Accurately ripped
2 | (2/2) Accurately ripped
3 | (2/2) Accurately ripped
4 | (2/2) Accurately ripped
5 | (2/2) Accurately ripped
6 | (2/2) Accurately ripped
7 | (2/2) Accurately ripped
8 | (2/2) Accurately ripped
9 | (2/2) Accurately ripped
10 | (2/2) Accurately ripped
11 | (2/2) Accurately ripped
12 | (2/2) Accurately ripped
[AccurateRip ID: 0018324b-00dec1a0-bc0be60c] disk not present in database.

Track Peak [ CRC32 ] [W/O NULL] [ LOG ]
-- 100,0 [3CB77069] [C76E58B3] CRC32
01 100,0 44BF586 [4BBED53F]
02 100,0 [145B7EAA] [914A32FB]
03 100,0 [ED7D4BDA] [17D2017D]
04 100,0 0F16031 [11B5DCB9]
05 100,0 [D35117E4] [41413C1D]
06 100,0 [18AEB6A8] [018DCC60]
07 100,0 [A3613514] [F2AA52A1]
08 100,0 [70B95473] [F61F9CF7]
09 100,0 [F9129E00] [5A31203A]
10 100,0 [3954B747] [4FE19794]
11 100,0 [73B81FA3] [74A1D43A]
12 100,0 [2B9715E3] [A5AFB353]

VA - The Many Faces Of Joy Division: A Journey Through The Inner World Of Joy Division (2015)

Track List CD2 - Peter Hook & The Light - "Unknown Pleasures" Live In Australia:

01. No Love Lost [04:46]
02. Leaders Of Men [02:46]
03. Glass [03:40]
04. Digital [02:54]
05. Disorder [03:24]
06. Day Of The Lords [05:02]
07. Candidate [03:01]
08. Insight [04:30]
09. New Dawn Fades [06:02]
10. She's Lost Control [04:16]
11. Shadowplay [04:11]
12. Wilderness [02:56]
13. Interzone [02:19]
14. I Remember Nothing [06:53]
15. Transmission [03:55]
16. Love Will Tear Us Apart [05:14]

Exact Audio Copy V1.0 beta 3 from 29. August 2011

EAC extraction logfile from 11. August 2015, 23:36

Peter Hook And Light, The (10) / Unknown Pleasures В· Live In Australia

Used drive : PIONEER BD-RW BDR-TD03 Adapter: 0 ID: 1

Read mode : Secure
Utilize accurate stream : Yes
Defeat audio cache : Yes
Make use of C2 pointers : No

Read offset correction

: 667
Overread into Lead-In and Lead-Out : No
Fill up missing offset samples with silence : Yes
Delete leading and trailing silent blocks : No
Null samples used in CRC calculations : Yes
Used interface
: Native Win32 interface for Win NT & 2000

Used output format : User Defined Encoder
Selected bitrate : 768 kBit/s
Quality : High
Add ID3 tag : No
Command line compressor : C:\Program Files (x86)\Exact Audio Copy\FLAC\FLAC.EXE
Additional command line options : -6 -V -T "ARTIST=%artist%" -T "TITLE=%title%" -T "ALBUM=%albumtitle%" -T "DATE=%year%" -T "TRACKNUMBER=%tracknr%" -T "GENRE=%genre%" -T "COMMENT=%comment%" -T "BAND=%albuminterpret%" -T "ALBUMARTIST=%albuminterpret%" -T "COMPOSER=%composer%" %haslyrics%--tag-from-file=LYRICS="%lyricsfile%"%haslyrics% -T "DISCNUMBER=%cdnumber%" -T "TOTALDISCS=%totalcds%" -T "TOTALTRACKS=%numtracks%" %hascover%--picture="%coverfile%"%hascover% %source% -o %dest%

TOC of the extracted CD Track | Start | Length | Start sector | End sector
--1 | 0:00.00 | 4:45.41 | 0 | 21415 2 | 4:45.41 | 2:45.67 | 21416 | 33857 3 | 7:31.33 | 3:39.14 | 33858 | 50296 4 | 11:10.47 | 2:53.12 | 50297 | 63283 5 | 14:03.59 | 3:23.25 | 63284 | 78533 6 | 17:27.09 | 5:01.72 | 78534 | 101180 7 | 22:29.06 | 3:00.35 | 101181 | 114715 8 | 25:29.41 | 4:29.48 | 114716 | 134938 9 | 29:59.14 | 6:01.72 | 134939 | 162085
10 | 36:01.11 | 4:15.41 | 162086 | 181251
11 | 40:16.52 | 4:10.33 | 181252 | 200034
12 | 44:27.10 | 2:55.42 | 200035 | 213201
13 | 47:22.52 | 2:18.21 | 213202 | 223572
14 | 49:40.73 | 6:52.42 | 223573 | 254514
15 | 56:33.40 | 3:54.10 | 254515 | 272074
16 | 60:27.50 | 5:13.28 | 272075 | 295577

Range status and errors

Selected range Filename C:\Users\Deris\Desktop\TriJoDiv\cd2\Peter Hook And Light, The - Unknown Pleasures В· Live In Australia.wav Peak level 100.0 %
Extraction speed 4.9 X
Range quality 100.0 %
Test CRC 0DAECD48
Copy CRC 0DAECD48
Copy OK

No errors occurred


AccurateRip summary

Track 1 not present in database
Track 2 not present in database
Track 3 not present in database
Track 4 not present in database
Track 5 not present in database
Track 6 not present in database
Track 7 not present in database
Track 8 not present in database
Track 9 not present in database
Track 10 not present in database
Track 11 not present in database
Track 12 not present in database
Track 13 not present in database
Track 14 not present in database
Track 15 not present in database
Track 16 not present in database

None of the tracks are present in the AccurateRip database

End of status report

- CUETools DB Plugin V2.1.3

[CTDB TOCID: V4oorKAiiTgXTSdKU4dwWhhxmck-] found, Submit result: V4oorKAiiTgXTSdKU4dwWhhxmck- has been confirmed
e9369d1 (1/1) Accurately ripped

==== Log checksum 0D94B7F84B540E84B3D5040C913F3B3946026010D8B362D98916F21D10FB9207 ====

foobar2000 1.2.6 / Dynamic Range Meter 1.1.1
log date: 2015-08-17 10:28:27

Analyzed: Peter Hook And Light, The (10) / Unknown Pleasures В· Live In Australia

DR Peak RMS Duration Track

DR8 0.00 dB -9.79 dB 4:46 01-No Love Lost
DR8 0.00 dB -8.70 dB 2:46 02-Leaders Of Men
DR7 0.00 dB -8.43 dB 3:39 03-Glass
DR8 0.00 dB -8.91 dB 2:53 04-Digital
DR8 0.00 dB -8.95 dB 3:23 05-Disorder
DR7 0.00 dB -8.54 dB 5:02 06-Day Of The Lords
DR9 0.00 dB -10.37 dB 3:00 07-Candidate
DR7 0.00 dB -8.81 dB 4:30 08-Insight
DR7 0.00 dB -8.71 dB 6:02 09-New Dawn Fades
DR8 0.00 dB -8.85 dB 4:16 10-She's Lost Control
DR7 0.00 dB -8.54 dB 4:10 11-Shadowplay
DR8 0.00 dB -9.13 dB 2:56 12-Wilderness
DR6 0.00 dB -7.90 dB 2:18 13-Interzone
DR7 0.00 dB -8.78 dB 6:53 14-I Remember Nothing
DR6 0.00 dB -7.57 dB 3:54 15-Transmission
DR7 0.00 dB -8.68 dB 5:13 16-Love Will Tear Us Apart

Number of tracks: 16
Official DR value: DR8

Samplerate: 44100 Hz
Channels: 2
Bits per sample: 16
Bitrate: 974 kbps
Codec: FLAC

[CUETools log; Date: 17.08.2015 10:28:27; Version: 2.1.5]
[CTDB TOCID: V4oorKAiiTgXTSdKU4dwWhhxmck-] found.
Track | CTDB Status
1 | (2/2) Accurately ripped
2 | (2/2) Accurately ripped
3 | (2/2) Accurately ripped
4 | (2/2) Accurately ripped
5 | (2/2) Accurately ripped
6 | (2/2) Accurately ripped
7 | (2/2) Accurately ripped
8 | (2/2) Accurately ripped
9 | (2/2) Accurately ripped
10 | (2/2) Accurately ripped
11 | (2/2) Accurately ripped
12 | (2/2) Accurately ripped
13 | (2/2) Accurately ripped
14 | (2/2) Accurately ripped
15 | (2/2) Accurately ripped
16 | (2/2) Accurately ripped
[AccurateRip ID: 0024a11d-01bbd1a4-ec0f6510] disk not present in database.

Track Peak [ CRC32 ] [W/O NULL] [ LOG ]
-- 100,0 [0DAECD48] [E7CA8C9C] CRC32
01 100,0 [EEAD91B3] [AFAA1B16]
02 100,0 [1EBCBF7C] [270900EE]
03 100,0 [6F00466F] [90A68640]
04 100,0 [6DC75A64] [76802C57]
05 100,0 [AD0A25F2] [7CCEEA43]
06 100,0 [1F733739] 0CA8E85
07 100,0 [88CFF7FB] [6E697AD2]
08 100,0 [6F9BEEA8] EC515C6
09 100,0 [262BC0C1] [2B881989]
10 100,0 [82F93D35] [0472CA1D]
11 100,0 [D2C26985] [DDA69F8A]
12 100,0 [ADCB972E] [63F2EA1C]
13 100,0 C21FBFA [C4956BE8]
14 100,0 [95216957] [3138B903]
15 100,0 [57272C66] [5693C28F]
16 100,0 [07105788] [D17FC9FF]

VA - The Many Faces Of Joy Division: A Journey Through The Inner World Of Joy Division (2015)

Track List CD3 - The Roots & The Manchester Scene:

01. Nolan Porter - Keep On Keeping On [03:08]
02. The Fall - Totally Wired [03:25]
03. The Passage - Fleck [03:32]
04. The Velvet Underground - IТ‘m Waiting For The Man [05:29]
05. Iggy Pop - Sister Midnight [04:02]
06. The Glitter Band - Rock And Roll Part 1 [03:01]
07. Cockney Rebel - Sebastian [09:27]
08. Giorgio Moroder - E=Mc 2 (Rodion Gran Manigheo Remix) [05:42]
09. John Cooper Clarke - The Face Behind The Scream [04:25]
10. Sex Pistols - I Wanna Be Me [03:11]
11. Buzzcocks - Ever Falling In Love [02:39]
12. Slaughter And The Dogs - Boston Babies [03:42]

Exact Audio Copy V1.0 beta 3 from 29. August 2011

EAC extraction logfile from 12. August 2015, 13:35

Various Artists / The Many Faces Of Joy Division CD3

Used drive : PIONEER BD-RW BDR-TD03 Adapter: 0 ID: 1

Read mode : Secure
Utilize accurate stream : Yes
Defeat audio cache : Yes
Make use of C2 pointers : No

Read offset correction

: 667
Overread into Lead-In and Lead-Out : No
Fill up missing offset samples with silence : Yes
Delete leading and trailing silent blocks : No
Null samples used in CRC calculations : Yes
Used interface
: Native Win32 interface for Win NT & 2000

Used output format : User Defined Encoder
Selected bitrate : 768 kBit/s
Quality : High
Add ID3 tag : No
Command line compressor : C:\Program Files (x86)\Exact Audio Copy\FLAC\FLAC.EXE
Additional command line options : -6 -V -T "ARTIST=%artist%" -T "TITLE=%title%" -T "ALBUM=%albumtitle%" -T "DATE=%year%" -T "TRACKNUMBER=%tracknr%" -T "GENRE=%genre%" -T "COMMENT=%comment%" -T "BAND=%albuminterpret%" -T "ALBUMARTIST=%albuminterpret%" -T "COMPOSER=%composer%" %haslyrics%--tag-from-file=LYRICS="%lyricsfile%"%haslyrics% -T "DISCNUMBER=%cdnumber%" -T "TOTALDISCS=%totalcds%" -T "TOTALTRACKS=%numtracks%" %hascover%--picture="%coverfile%"%hascover% %source% -o %dest%

TOC of the extracted CD Track | Start | Length | Start sector | End sector
--1 | 0:00.00 | 3:07.15 | 0 | 14039 2 | 3:07.15 | 3:24.15 | 14040 | 29354 3 | 6:31.30 | 3:32.00 | 29355 | 45254 4 | 10:03.30 | 5:28.29 | 45255 | 69883 5 | 15:31.59 | 4:01.22 | 69884 | 87980 6 | 19:33.06 | 3:00.22 | 87981 | 101502 7 | 22:33.28 | 9:26.07 | 101503 | 143959 8 | 31:59.35 | 5:41.22 | 143960 | 169556 9 | 37:40.57 | 4:24.58 | 169557 | 189414
10 | 42:05.40 | 3:10.60 | 189415 | 203724
11 | 45:16.25 | 2:38.45 | 203725 | 215619
12 | 47:54.70 | 3:41.54 | 215620 | 232248

Range status and errors

Selected range Filename C:\Users\Deris\Desktop\TriJoDiv\cd2\Various Artists - The Many Faces Of Joy Division CD3.wav Peak level 100.0 %
Extraction speed 4.6 X
Range quality 100.0 %
Test CRC 2B8A6033
Copy CRC 2B8A6033
Copy OK

No errors occurred


AccurateRip summary

Track 1 not present in database
Track 2 not present in database
Track 3 not present in database
Track 4 not present in database
Track 5 not present in database
Track 6 not present in database
Track 7 not present in database
Track 8 not present in database
Track 9 not present in database
Track 10 not present in database
Track 11 not present in database
Track 12 not present in database

None of the tracks are present in the AccurateRip database

End of status report

- CUETools DB Plugin V2.1.3

[CTDB TOCID: 6WabJD9cW4LCyfuzRm1o4LWzSbo-] found, Submit result: 6WabJD9cW4LCyfuzRm1o4LWzSbo- has been confirmed
[490af7c5] (1/1) Accurately ripped

==== Log checksum 3D14F2A652391013822AD22CCED8235B7A0B921E62C7C6BCF102CC322DD042AA ====

foobar2000 1.2.6 / Dynamic Range Meter 1.1.1
log date: 2015-08-17 10:31:51

Analyzed: Cockney Rebel / The Many Faces Of Joy Division CD3 (1) Giorgio Moroder / The Many Faces Of Joy Division CD3 (2)

DR Peak RMS Duration Track

DR5 0.00 dB -7.05 dB 9:26 07-SEBASTIAN
DR6 -1.40 dB -9.27 dB 5:41 08-E=MC 2 (Rodion Gran Manigheo Remix)

Number of tracks: 2
Official DR value: DR5

Samplerate: 44100 Hz
Channels: 2
Bits per sample: 16
Bitrate: 839 kbps
Codec: FLAC

Analyzed: Iggy Pop / The Many Faces Of Joy Division CD3 (1) John Cooper Clarke / The Many Faces Of Joy Division CD3 (2)

DR Peak RMS Duration Track

DR7 0.00 dB -8.71 dB 4:01 05-SISTER MIDNIGHT
DR5 0.00 dB -6.24 dB 4:25 09-THE FACE BEHIND THE SCREAM

Number of tracks: 2
Official DR value: DR6

Samplerate: 44100 Hz
Channels: 2
Bits per sample: 16
Bitrate: 839 kbps
Codec: FLAC

Analyzed: Nolan Porter / The Many Faces Of Joy Division CD3 (1) Sex Pistols / The Many Faces Of Joy Division CD3 (2) Slaughter And The Dogs / The Many Faces Of Joy Division CD3 (3)

DR Peak RMS Duration Track

DR7 0.00 dB -8.02 dB 3:07 01-KEEP ON KEEPING ON
DR4 -0.74 dB -5.94 dB 3:11 10-I WANNA BE ME
DR8 0.00 dB -8.67 dB 3:42 12-BOSTON BABIES

Number of tracks: 3
Official DR value: DR6

Samplerate: 44100 Hz
Channels: 2
Bits per sample: 16
Bitrate: 839 kbps
Codec: FLAC

Analyzed: The Fall / The Many Faces Of Joy Division CD3 (1) The Glitter Band / The Many Faces Of Joy Division CD3 (2)

DR Peak RMS Duration Track

DR7 0.00 dB -8.31 dB 3:24 02-TOTALLY WIRED
DR8 0.00 dB -9.83 dB 3:00 06-ROCK AND ROLL PART 1

Number of tracks: 2
Official DR value: DR8

Samplerate: 44100 Hz
Channels: 2
Bits per sample: 16
Bitrate: 839 kbps
Codec: FLAC

Analyzed: The Passage / The Many Faces Of Joy Division CD3 (1) The Velvet Underground / The Many Faces Of Joy Division CD3 (2)

DR Peak RMS Duration Track

DR8 0.00 dB -9.33 dB 3:32 03-FLECK
DR5 0.00 dB -6.68 dB 5:28 04-IТ‘M WAITING FOR THE MAN

Number of tracks: 2
Official DR value: DR7

Samplerate: 44100 Hz
Channels: 2
Bits per sample: 16
Bitrate: 839 kbps
Codec: FLAC

foobar2000 1.2.6 / Dynamic Range Meter 1.1.1
log date: 2015-08-17 10:31:47

Statistics for: 11-EVER FALLING IN LOVE
Number of samples: 6994260
Duration: 2:39
Left Right

Peak Value: 0.00 dB 0.00 dB
Avg RMS: -9.10 dB -8.92 dB
DR channel: 8.33 dB 8.15 dB

Official DR Value: DR8

Samplerate: 44100 Hz
Channels: 2
Bits per sample: 16
Bitrate: 839 kbps
Codec: FLAC

[CUETools log; Date: 17.08.2015 10:31:45; Version: 2.1.5]
[CTDB TOCID: 6WabJD9cW4LCyfuzRm1o4LWzSbo-] found.
Track | CTDB Status
1 | (2/2) Accurately ripped
2 | (2/2) Accurately ripped
3 | (2/2) Accurately ripped
4 | (2/2) Accurately ripped
5 | (2/2) Accurately ripped
6 | (2/2) Accurately ripped
7 | (2/2) Accurately ripped
8 | (2/2) Accurately ripped
9 | (2/2) Accurately ripped
10 | (2/2) Accurately ripped
11 | (2/2) Accurately ripped
12 | (2/2) Accurately ripped
[AccurateRip ID: 0016ed50-00da44e8-ab0c180c] disk not present in database.

Track Peak [ CRC32 ] [W/O NULL] [ LOG ]
-- 100,0 [2B8A6033] [6B12D77E] CRC32
01 100,0 [00C9F56E] [C2F0B704]
02 100,0 [CE553728] [061B1836]
03 100,0 [82E48617] 576FEFB
04 100,0 [CB3A0193] [119555BF]
05 100,0 [A27D63F7] [95878C50]
06 100,0 [8413BB08] [4D8C1A00]
07 100,0 [59C7776C] [24915691]
08 85,1 [17F236FE] [0AC11616]
09 100,0 [CBEA6583] A10F1EF
10 91,8 [C26082EF] [17BA08BB]
11 100,0 [44229937] [C52C8B6A]
12 100,0 [7D9EB113] [083375EF]

VA - The Many Faces Of Joy Division: A Journey Through The Inner World Of Joy Division (2015)

All thanks go to Boris1


DOWNLOAD LINKS
(Premium Recommended)


Links are Interchangeable - No Password - Single Extraction

Direct Download

Tags: Division, Journey, Through, Division

VA - The Many Faces Of Joy Division: A Journey Through The Inner World Of Joy Division (2015) Download via Hotfile Rapidshare Fileserve Megaupload & FileSonic, VA - The Many Faces Of Joy Division: A Journey Through The Inner World Of Joy Division (2015) free torrent downloads included crack, serial, keygen.


Attention!Information

Members of Guest cannot leave comments.