Manfred Mann's Earth Band - Budapest Live (1984) [Bronze Rec., 610 163-222]

Download Now

Manfred Mann's Earth Band - Budapest Live (1984) [Bronze Rec., 610 163-222]

Manfred Mann's Earth Band - Budapest Live (1984)
EAC | Flac(Image) + Cue + Log & MP3 CBR 320Kbps
Bronze Rec., 610 163-222 | ~ 260 or 104 Mb | Scans(png) -> 91 Mb
Progressive Rock

"Manfred Mann's Earth Band had no shortage of albums to their credit across the 1970s and 1980s, though how many of them made it into the hands of American listeners is questionable -- you'd have thought a live album would have been forthcoming sometime fairly soon after they scored their chart-topping hit with "Blinded by the Light," but that wasn't the case..."


Tracklist:

01. Spirits In The Night
02. Demolition Man
03. For You
04. Davy's On The Road Again
05. Lies (Through The 80's)
06. Blinded By The Light
07. Redemption Song (No Kwazulu)
08. Mighty Quinn

Exact Audio Copy V1.1 from 23. June 2015

EAC extraction logfile from 17. July 2015, 15:12

Manfred Mann's Earth Band / Budapest - LIVE

Used drive : SONY BD RW BDX-S600U Adapter: 1 ID: 2

Read mode : Secure
Utilize accurate stream : Yes
Defeat audio cache : Yes
Make use of C2 pointers : No

Read offset correction

: 48
Overread into Lead-In and Lead-Out : No
Fill up missing offset samples with silence : Yes
Delete leading and trailing silent blocks : No
Null samples used in CRC calculations : Yes
Used interface
: Native Win32 interface for Win NT & 2000

Used output format : User Defined Encoder
Selected bitrate : 768 kBit/s
Quality : High
Add ID3 tag : No
Command line compressor : C:\Program Files (x86)\Exact Audio Copy\FLAC\FLAC.EXE
Additional command line options : -6 -V -T "ARTIST=%artist%" -T "TITLE=%title%" -T "ALBUM=%albumtitle%" -T "DATE=%year%" -T "TRACKNUMBER=%tracknr%" -T "GENRE=%genre%" -T "COMMENT=%comment%" -T "BAND=%albuminterpret%" -T "ALBUMARTIST=%albuminterpret%" -T "COMPOSER=%composer%" %haslyrics%--tag-from-file=LYRICS="%lyricsfile%"%haslyrics% -T "DISCNUMBER=%cdnumber%" -T "TOTALDISCS=%totalcds%" -T "TOTALTRACKS=%numtracks%" %hascover%--picture="%coverfile%"%hascover% %source% -o %dest%

TOC of the extracted CD Track | Start | Length | Start sector | End sector
--1 | 0:00.00 | 6:05.25 | 0 | 27399 2 | 6:05.25 | 4:26.67 | 27400 | 47416 3 | 10:32.17 | 6:48.63 | 47417 | 78079 4 | 17:21.05 | 4:40.32 | 78080 | 99111 5 | 22:01.37 | 4:35.23 | 99112 | 119759 6 | 26:36.60 | 7:46.37 | 119760 | 154746 7 | 34:23.22 | 3:24.40 | 154747 | 170086 8 | 37:47.62 | 4:12.40 | 170087 | 189026

Range status and errors

Selected range Filename D:\Manfred Mann's Earth Band Discography\1983. Manfred Mann's Earth Band - Live In Budapest\1983. Manfred Mann's Earth Band - Live In Budapest (Bronze Rec.,610 163-222,Germany)\Manfred Mann's Earth Band - Budapest - LIVE.wav Peak level 95.5 %
Extraction speed 13.7 X
Range quality 100.0 %
Test CRC D52127E5
Copy CRC D52127E5
Copy OK

No errors occurred


AccurateRip summary

Track 1 accurately ripped (confidence 16) [F4E387A3] (AR v2)
Track 2 accurately ripped (confidence 17) [CDEF2699] (AR v2)
Track 3 accurately ripped (confidence 15) [D94E7770] (AR v2)
Track 4 accurately ripped (confidence 17) 8B4BF7A (AR v2)
Track 5 accurately ripped (confidence 16) [1C71E061] (AR v2)
Track 6 accurately ripped (confidence 17) [E206870C] (AR v2)
Track 7 accurately ripped (confidence 17) [22728035] (AR v2)
Track 8 accurately ripped (confidence 16) F6D399A (AR v2)

All tracks accurately ripped

End of status report

- CUETools DB Plugin V2.1.6

[CTDB TOCID: S15KHUs.ytTz.Ori2zd6Vfn6KCo-] found
Submit result: S15KHUs.ytTz.Ori2zd6Vfn6KCo- has been confirmed
Track | CTDB Status
1 | (24/25) Accurately ripped
2 | (25/25) Accurately ripped
3 | (23/25) Accurately ripped
4 | (25/25) Accurately ripped
5 | (25/25) Accurately ripped
6 | (24/25) Accurately ripped
7 | (25/25) Accurately ripped
8 | (25/25) Accurately ripped

==== Log checksum 79670D80A7D91276CC5CBC30082A63D507CDD4668D081E217B05020983E8A857 ====

foobar2000 1.2.9 / Dynamic Range Meter 1.1.1
log date: 2015-08-16 01:01:42

Analyzed: Manfred Mann's Earth Band / Budapest - LIVE

DR Peak RMS Duration Track

DR13 -1.44 dB -17.34 dB 6:05 01-Spirits In The Night
DR12 -2.71 dB -17.31 dB 4:27 02-Demolition Man
DR13 -1.72 dB -17.98 dB 6:49 03-For You
DR13 -0.40 dB -16.93 dB 4:40 04-Davy's On The Road Again
DR13 -1.18 dB -17.45 dB 4:35 05-Lies (Through The 80's)
DR13 -1.42 dB -17.10 dB 7:46 06-Blinded By The Light
DR12 -3.02 dB -18.82 dB 3:25 07-Redemption Song (No Kwazulu)
DR13 -1.74 dB -17.22 dB 4:13 08-Mighty Quinn

Number of tracks: 8
Official DR value: DR13

Samplerate: 44100 Hz
Channels: 2
Bits per sample: 16
Bitrate: 840 kbps
Codec: FLAC

[CUETools log; Date: 16.08.2015 0:54:11; Version: 2.1.4]
[CTDB TOCID: S15KHUs.ytTz.Ori2zd6Vfn6KCo-] found.
Track | CTDB Status
1 | (25/26) Accurately ripped
2 | (26/26) Accurately ripped
3 | (24/26) Accurately ripped
4 | (26/26) Accurately ripped
5 | (26/26) Accurately ripped
6 | (25/26) Accurately ripped
7 | (26/26) Accurately ripped
8 | (26/26) Accurately ripped
[AccurateRip ID: 000d837e-00598c74-6709d808] found.
Track [ CRC | V2 ] Status
01 [abb2f0aa|f4e387a3] (20+16/36) Accurately ripped
02 [7cdfab25|cdef2699] (20+17/37) Accurately ripped
03 [0c136dd6|d94e7770] (20+15/35) Accurately ripped
04 [fbcb4f8f|b8b4bf7a] (20+17/37) Accurately ripped
05 [1854ee0f|1c71e061] (20+16/36) Accurately ripped
06 [51faf1e0|e206870c] (19+17/36) Accurately ripped
07 [c6e7185e|22728035] (20+17/37) Accurately ripped
08 [21a44d2d|bf6d399a] (20+16/36) Accurately ripped

Track Peak [ CRC32 ] [W/O NULL] [ LOG ]
-- 95,5 [D52127E5] [141A4C17] CRC32
01 84,7 [C2917B88] [6DB70CEC]
02 73,1 [3BC558C8] [3FDE3E7D]
03 82,0 [8FDAF33E] [054D4447]
04 95,5 5351E90 [0263FA2F]
05 87,3 [717B023D] 25CF0DA
06 84,8 [4CDFC87C] [D7EC6DEE]
07 70,6 [DB9F81B9] [33532EDA]
08 81,8 [50DD0B9F] [9A4D9910]

Manfred Mann's Earth Band - Budapest Live (1984) [Bronze Rec., 610 163-222]

All thanks go to alonzo



Download Manfred Mann's Earth Band - Budapest Live (1984):


Download Links:
(Premium Recommended)


All above links are interchangable. No password

Direct Download

Tags: Manfred, Budapest, Bronze

Manfred Mann's Earth Band - Budapest Live (1984) [Bronze Rec., 610 163-222] Download via Hotfile Rapidshare Fileserve Megaupload & FileSonic, Manfred Mann's Earth Band - Budapest Live (1984) [Bronze Rec., 610 163-222] free torrent downloads included crack, serial, keygen.


Attention!Information

Members of Guest cannot leave comments.