Sly & The Family Stone - Anthology (1981)

Download Now

Sly & The Family Stone - Anthology (1981)

Sly & The Family Stone - Anthology (1981)
EAC | Flac(Image) + Cue + Log & MP3 CBR 320Kbps
1989 | Epic, EGK 37071 | ~ 442 or 177 Mb | Scans Included
Funk / Soul

"Anthology essentially replicates the previous collection Greatest Hits and adds singles from There's a Riot Goin' On and Fresh to the end of the album. Where Greatest Hits didn't follow chronological order, Anthology presents every single in the order it was released -- and, with the exception of the latter-day singles and the inclusion of "Don't Call Me Nigger, Whitey," that is the major difference between the two collections..."


Tracklist:

01. Dance To The Music (2:57)
02. M'Lady (2:43)
03. Life (2:58)
04. Fun (2:21)
05. Sing A Simple Song (3:54)
06. Everyday People (2:20)
07. Stand! (3:04)
08. I Want To Take You Higher (5:22)
09. Don't Call Me Nigger, Whitey (5:56)
10. You Can Make It If You Try (3:35)
11. Hot Fun In The Summertime (2:37)
12. Thank You (Falettinme Be Mice Elf Agin) (4:42)
13. Everybody Is A Star (2:57)
14. Family Affair (3:01)
15. Runnin' Away (2:53)
16. (You Caught Me) Smilin' (2:52)
17. Thank You For Talkin' To Me Africa (7:09)
18. Babies Makin' Babies (3:35)
19. If You Want Me To Stay (2:57)
20. Que Sera, Sera (Whatever Will Be, Will Be) (5:18)

Exact Audio Copy V1.0 beta 1 from 15. November 2010

EAC extraction logfile from 9. June 2011, 6:49

Sly & The Family Stone / Anthology

Used drive : LITE-ON DVDRW LH-20A1L Adapter: 2 ID: 0

Read mode : Secure
Utilize accurate stream : Yes
Defeat audio cache : Yes
Make use of C2 pointers : No

Read offset correction

: 6
Overread into Lead-In and Lead-Out : No
Fill up missing offset samples with silence : Yes
Delete leading and trailing silent blocks : No
Null samples used in CRC calculations : No
Used interface
: Native Win32 interface for Win NT & 2000
Gap handling
: Appended to previous track

Used output format : User Defined Encoder
Selected bitrate : 768 kBit/s
Quality : High
Add ID3 tag : No
Command line compressor : C:\Program Files\Exact Audio Copy\FLAC\FLAC.EXE
Additional command line options : -V -8 -T "artist=%a" -T "title=%t" -T "album=%g" -T "date=%y" -T "tracknumber=%n" -T "genre=%m" %s

TOC of the extracted CD Track | Start | Length | Start sector | End sector
--1 | 0:00.00 | 2:59.67 | 0 | 13491 2 | 2:59.67 | 2:46.23 | 13492 | 25964 3 | 5:46.15 | 3:00.60 | 25965 | 39524 4 | 8:47.00 | 2:21.40 | 39525 | 50139 5 | 11:08.40 | 3:56.72 | 50140 | 67911 6 | 15:05.37 | 2:22.15 | 67912 | 78576 7 | 17:27.52 | 3:06.60 | 78577 | 92586 8 | 20:34.37 | 5:23.48 | 92587 | 116859 9 | 25:58.10 | 5:57.42 | 116860 | 143676
10 | 31:55.52 | 3:38.33 | 143677 | 160059
11 | 35:34.10 | 2:37.25 | 160060 | 171859
12 | 38:11.35 | 4:48.20 | 171860 | 193479
13 | 42:59.55 | 3:00.70 | 193480 | 207049
14 | 46:00.50 | 3:04.20 | 207050 | 220869
15 | 49:04.70 | 2:54.07 | 220870 | 233926
16 | 51:59.02 | 2:52.73 | 233927 | 246899
17 | 54:52.00 | 7:12.42 | 246900 | 279341
18 | 62:04.42 | 3:36.70 | 279342 | 295611
19 | 65:41.37 | 2:57.63 | 295612 | 308949
20 | 68:39.25 | 5:21.12 | 308950 | 333036

Track 1 Filename F:\Incoming\Non-Music\Seeding\Sly & The Family Stone - Anthology (1981) [FLAC]\01 - Dance To The Music.wav Pre-gap length 0:00:02.00 Peak level 85.1 %
Extraction speed 1.8 X
Track quality 100.0 %
Test CRC EF90E548
Copy CRC EF90E548
Cannot be verified as accurate (confidence 8) [11CE74B6], AccurateRip returned [9443660B]
Copy OK

Track 2 Filename F:\Incoming\Non-Music\Seeding\Sly & The Family Stone - Anthology (1981) [FLAC]\02 - M'lady.wav Peak level 85.1 %
Extraction speed 2.0 X
Track quality 100.0 %
Test CRC FD549568
Copy CRC FD549568
Cannot be verified as accurate (confidence 8) [CCC157D5], AccurateRip returned [26A1C085]
Copy OK

Track 3 Filename F:\Incoming\Non-Music\Seeding\Sly & The Family Stone - Anthology (1981) [FLAC]\03 - Life.wav Pre-gap length 0:00:00.55 Peak level 85.1 %
Extraction speed 2.2 X
Track quality 100.0 %
Test CRC 2E3D28F4
Copy CRC 2E3D28F4
Cannot be verified as accurate (confidence 8) 2B201D8, AccurateRip returned [22D3D3D1]
Copy OK

Track 4 Filename F:\Incoming\Non-Music\Seeding\Sly & The Family Stone - Anthology (1981) [FLAC]\04 - Fun.wav Pre-gap length 0:00:00.70 Peak level 85.1 %
Extraction speed 2.2 X
Track quality 100.0 %
Test CRC 8BC20509
Copy CRC 8BC20509
Cannot be verified as accurate (confidence 8) [8873C596], AccurateRip returned [1D1EA9ED]
Copy OK

Track 5 Filename F:\Incoming\Non-Music\Seeding\Sly & The Family Stone - Anthology (1981) [FLAC]\05 - Sing A Simple Song.wav Peak level 85.1 %
Extraction speed 2.5 X
Track quality 100.0 %
Test CRC 56ED7D69
Copy CRC 56ED7D69
Cannot be verified as accurate (confidence 8) [C0DB3865], AccurateRip returned D097D4D
Copy OK

Track 6 Filename F:\Incoming\Non-Music\Seeding\Sly & The Family Stone - Anthology (1981) [FLAC]\06 - Everyday People.wav Pre-gap length 0:00:01.07 Peak level 85.1 %
Extraction speed 2.4 X
Track quality 100.0 %
Test CRC AA5F1BDA
Copy CRC AA5F1BDA
Cannot be verified as accurate (confidence 8) [3B209924], AccurateRip returned [E52C98C2]
Copy OK

Track 7 Filename F:\Incoming\Non-Music\Seeding\Sly & The Family Stone - Anthology (1981) [FLAC]\07 - Stand!.wav Pre-gap length 0:00:00.67 Peak level 85.1 %
Extraction speed 2.7 X
Track quality 100.0 %
Test CRC E74A6EE5
Copy CRC E74A6EE5
Cannot be verified as accurate (confidence 8) [5794BDAD], AccurateRip returned FA6893A
Copy OK

Track 8 Filename F:\Incoming\Non-Music\Seeding\Sly & The Family Stone - Anthology (1981) [FLAC]\08 - I Want To Take You Higher.wav Peak level 85.1 %
Extraction speed 3.0 X
Track quality 100.0 %
Test CRC 4E8CA013
Copy CRC 4E8CA013
Cannot be verified as accurate (confidence 8) [C71D0A65], AccurateRip returned [D077BFBA]
Copy OK

Track 9 Filename F:\Incoming\Non-Music\Seeding\Sly & The Family Stone - Anthology (1981) [FLAC]\09 - Don't You Call Me Nigger, Whitey.wav Pre-gap length 0:00:00.13 Peak level 85.1 %
Extraction speed 3.3 X
Track quality 100.0 %
Test CRC 2B04D7F5
Copy CRC 2B04D7F5
Cannot be verified as accurate (confidence 8) [62F14492], AccurateRip returned [144805F1]
Copy OK

Track 10 Filename F:\Incoming\Non-Music\Seeding\Sly & The Family Stone - Anthology (1981) [FLAC]\10 - You Can Make It If You Try.wav Pre-gap length 0:00:00.19 Peak level 85.1 %
Extraction speed 3.3 X
Track quality 100.0 %
Test CRC F840F221
Copy CRC F840F221
Cannot be verified as accurate (confidence 7) [4AB5A935], AccurateRip returned [72840C35]
Copy OK

Track 11 Filename F:\Incoming\Non-Music\Seeding\Sly & The Family Stone - Anthology (1981) [FLAC]\11 - Hot Fun In The Summertime.wav Peak level 85.1 %
Extraction speed 3.2 X
Track quality 100.0 %
Test CRC DA022B93
Copy CRC DA022B93
Cannot be verified as accurate (confidence 8) [E3925E90], AccurateRip returned [E40E4AD5]
Copy OK

Track 12 Filename F:\Incoming\Non-Music\Seeding\Sly & The Family Stone - Anthology (1981) [FLAC]\12 - Thank You (Falettinme Be Mice Elf Again).wav Peak level 85.1 %
Extraction speed 3.6 X
Track quality 100.0 %
Test CRC B832D757
Copy CRC B832D757
Cannot be verified as accurate (confidence 7) [25C28576], AccurateRip returned [9CE71F39]
Copy OK

Track 13 Filename F:\Incoming\Non-Music\Seeding\Sly & The Family Stone - Anthology (1981) [FLAC]\13 - Everybody Is A Star.wav Peak level 85.1 %
Extraction speed 3.5 X
Track quality 100.0 %
Test CRC 812759E2
Copy CRC 812759E2
Cannot be verified as accurate (confidence 8) [C0E77537], AccurateRip returned [C349C972]
Copy OK

Track 14 Filename F:\Incoming\Non-Music\Seeding\Sly & The Family Stone - Anthology (1981) [FLAC]\14 - Family Affair.wav Peak level 85.1 %
Extraction speed 2.5 X
Track quality 99.9 %
Test CRC CECB5014
Copy CRC CECB5014
Cannot be verified as accurate (confidence 8) [1B6CCCED], AccurateRip returned [4D3AF9C2]
Copy OK

Track 15 Filename F:\Incoming\Non-Music\Seeding\Sly & The Family Stone - Anthology (1981) [FLAC]\15 - Runnin' Away.wav Peak level 81.6 %
Extraction speed 3.6 X
Track quality 100.0 %
Test CRC 091CE178
Copy CRC 091CE178
Cannot be verified as accurate (confidence 7) [FD46B314], AccurateRip returned [3625E66B]
Copy OK

Track 16 Filename F:\Incoming\Non-Music\Seeding\Sly & The Family Stone - Anthology (1981) [FLAC]\16 - (You Caught Me) Smilin'.wav Peak level 85.1 %
Extraction speed 3.7 X
Track quality 100.0 %
Test CRC E0224A91
Copy CRC E0224A91
Cannot be verified as accurate (confidence 7) [6D41BF11], AccurateRip returned [40ED4323]
Copy OK

Track 17 Filename F:\Incoming\Non-Music\Seeding\Sly & The Family Stone - Anthology (1981) [FLAC]\17 - Thank You For Talkin' To Me Africa.wav Pre-gap length 0:00:00.10 Peak level 85.1 %
Extraction speed 4.3 X
Track quality 100.0 %
Test CRC A25AFAB2
Copy CRC A25AFAB2
Cannot be verified as accurate (confidence 6) [D6DFE252], AccurateRip returned [D464C013]
Copy OK

Track 18 Filename F:\Incoming\Non-Music\Seeding\Sly & The Family Stone - Anthology (1981) [FLAC]\18 - Babies Makin' Babies.wav Peak level 85.1 %
Extraction speed 4.1 X
Track quality 100.0 %
Test CRC A5037181
Copy CRC A5037181
Cannot be verified as accurate (confidence 7) [FCE094B2], AccurateRip returned [F6BCEB4E]
Copy OK

Track 19 Filename F:\Incoming\Non-Music\Seeding\Sly & The Family Stone - Anthology (1981) [FLAC]\19 - If You Want Me To Stay.wav Peak level 85.1 %
Extraction speed 4.1 X
Track quality 100.0 %
Test CRC FD49AA02
Copy CRC FD49AA02
Cannot be verified as accurate (confidence 8) [DFE23611], AccurateRip returned [22DA4B8F]
Copy OK

Track 20 Filename F:\Incoming\Non-Music\Seeding\Sly & The Family Stone - Anthology (1981) [FLAC]\20 - Que Sera, Sera (Whatever Will Be, Will Be).wav Pre-gap length 0:00:00.43 Peak level 79.3 %
Extraction speed 4.5 X
Track quality 100.0 %
Test CRC F3ACC433
Copy CRC F3ACC433
Cannot be verified as accurate (confidence 7) [21DA3717], AccurateRip returned [F2CD1F86]
Copy OK

No tracks could be verified as accurate
You may have a different pressing from the one(s) in the database

No errors occurred

End of status report

foobar2000 1.2.9 / Dynamic Range Meter 1.1.1
log date: 2015-08-18 15:26:29

Analyzed: Sly & The Family Stone / Anthology

DR Peak RMS Duration Track

DR13 -1.40 dB -16.67 dB 3:00 01-Dance To The Music
DR10 -1.40 dB -14.32 dB 2:46 02-M'lady
DR12 -1.40 dB -15.89 dB 3:01 03-Life
DR12 -1.40 dB -15.29 dB 2:22 04-Fun
DR11 -1.40 dB -15.45 dB 3:57 05-Sing A Simple Song
DR11 -1.40 dB -14.79 dB 2:22 06-Everyday People
DR10 -1.40 dB -13.15 dB 3:07 07-Stand!
DR11 -1.40 dB -13.34 dB 5:24 08-I Want To Take You Higher
DR11 -1.40 dB -15.22 dB 5:58 09-Don't You Call Me Nigger, Whitey
DR12 -1.40 dB -16.15 dB 3:38 10-You Can Make It If You Try
DR11 -1.40 dB -14.75 dB 2:37 11-Hot Fun In The Summertime
DR12 -1.40 dB -15.68 dB 4:48 12-Thank You (Falettinme Be Mice Elf Again)
DR12 -1.40 dB -14.84 dB 3:01 13-Everybody Is A Star
DR14 -1.40 dB -16.51 dB 3:04 14-Family Affair
DR13 -1.76 dB -16.88 dB 2:54 15-Runnin' Away
DR13 -1.40 dB -16.76 dB 2:53 16-(You Caught Me) Smilin'
DR14 -1.40 dB -16.44 dB 7:13 17-Thank You For Talkin' To Me Africa
DR13 -1.40 dB -16.13 dB 3:37 18-Babies Makin' Babies
DR13 -1.40 dB -17.07 dB 2:58 19-If You Want Me To Stay
DR13 -2.00 dB -17.28 dB 5:21 20-Que Sera, Sera (Whatever Will Be, Will Be)

Number of tracks: 20
Official DR value: DR12

Samplerate: 44100 Hz
Channels: 2
Bits per sample: 16
Bitrate: 806 kbps
Codec: FLAC

[CUETools log; Date: 18.08.2015 15:26:18; Version: 2.1.4]
[CTDB TOCID: HKF9yL4YtjNEXDNUX4Cu2d6KGV4-] found.
Track | CTDB Status
1 | (21/24) Accurately ripped
2 | (21/24) Accurately ripped
3 | (21/24) Accurately ripped
4 | (20/24) Accurately ripped
5 | (21/24) Accurately ripped
6 | (21/24) Accurately ripped
7 | (21/24) Accurately ripped
8 | (18/24) Accurately ripped
9 | (21/24) Accurately ripped
10 | (21/24) Accurately ripped
11 | (20/24) Accurately ripped
12 | (19/24) Accurately ripped
13 | (21/24) Accurately ripped
14 | (21/24) Accurately ripped
15 | (21/24) Accurately ripped
16 | (21/24) Accurately ripped
17 | (19/24) Accurately ripped
18 | (19/24) Accurately ripped
19 | (19/24) Accurately ripped
20 | (19/24) Accurately ripped
[AccurateRip ID: 00320bcf-02ebcdbc-19115814] found.
Track [ CRC | V2 ] Status
01 [11ce74b6|d20b5736] (00+02/64) Accurately ripped
02 [ccc157d5|d528a271] (00+02/63) Accurately ripped
03 2b201d8|30171ad8 (00+02/64) Accurately ripped
04 [8873c596|de818639] (00+02/64) Accurately ripped
05 [c0db3865|389b2f93] (00+02/64) Accurately ripped
06 [3b209924|37dcdc5e] (00+02/64) Accurately ripped
07 [5794bdad|75bfb3b2] (00+02/64) Accurately ripped
08 [c71d0a65|0eccb56f] (00+02/63) Accurately ripped
09 [62f14492|025669bd] (00+02/64) Accurately ripped
10 [4ab5a935|ab5308ae] (00+02/63) Accurately ripped
11 [e3925e90|0cbe79c4] (00+02/66) Accurately ripped
12 [25c28576|744bdfb6] (00+02/60) Accurately ripped
13 [c0e77537|bc8c1481] (00+02/64) Accurately ripped
14 [1b6ccced|4e1b917c] (00+02/63) Accurately ripped
15 [fd46b314|d4716eb6] (00+02/62) Accurately ripped
16 [6d41bf11|410852e1] (00+02/60) Accurately ripped
17 [d6dfe252|0fea94f2] (00+02/58) Accurately ripped
18 [fce094b2|62777027] (00+02/59) Accurately ripped
19 [dfe23611|95c87793] (00+02/61) Accurately ripped
20 [21da3717|87c52326] (00+02/56) Accurately ripped
Offsetted by -61:
01 [7decd84d] (02/64) Accurately ripped
02 [00eb2865] (02/63) Accurately ripped
03 [e5258f3b] (02/64) Accurately ripped
04 [f32b8ca3] (02/64) Accurately ripped
05 [726181dd] (02/64) Accurately ripped
06 [1a5ac08e] (02/64) Accurately ripped
07 [3be2242c] (02/64) Accurately ripped
08 2b399fc (02/63) Accurately ripped
09 [7caf8477] (02/64) Accurately ripped
10 [82b97a35] (02/63) Accurately ripped
11 [af0d04f9] (02/66) Accurately ripped
12 [9ae98a5d] (02/60) Accurately ripped
13 [45d7f708] (02/64) Accurately ripped
14 [8dbf6704] (02/63) Accurately ripped
15 [aa6077d4] (02/62) Accurately ripped
16 44c4a4e (02/60) Accurately ripped
17 [66632ae4] (02/58) Accurately ripped
18 [aec9fe1a] (02/59) Accurately ripped
19 [214363ee] (02/61) Accurately ripped
20 [11c787ac] (02/56) Accurately ripped
Offsetted by 9:
01 [59fc553b] (07/64) Accurately ripped
02 [42f5ed85] (07/63) Accurately ripped
03 [a70e12c1] (07/64) Accurately ripped
04 [f69bcdfd] (07/64) Accurately ripped
05 [9a12f2cd] (07/64) Accurately ripped
06 [db3dc9e2] (07/64) Accurately ripped
07 [f2bfe0ea] (08/64) Accurately ripped
08 [71fe6eea] (08/63) Accurately ripped
09 [aaaf6d81] (07/64) Accurately ripped
10 [81655c35] (07/63) Accurately ripped
11 [d0818927] (08/66) Accurately ripped
12 [df7aba55] (07/60) Accurately ripped
13 [ca234894] (07/64) Accurately ripped
14 [23bcf0f2] (07/63) Accurately ripped
15 [7ed80e64] (07/62) Accurately ripped
16 [2ec2b6ae] (06/60) Accurately ripped
17 [de7e0dab] (06/58) Accurately ripped
18 [f6bceb4e] (07/59) Accurately ripped
19 [22da4b8f] (08/61) Accurately ripped
20 [3502be16] (06/56) Accurately ripped
Offsetted by 51:
01 [aad26cfd] (03/64) Accurately ripped
02 [6a95fd65] (03/63) Accurately ripped
03 [1b6661ab] (03/64) Accurately ripped
04 [f8abf533] (03/64) Accurately ripped
05 [e517035d] (03/64) Accurately ripped
06 [1bc602ae] (03/64) Accurately ripped
07 [c6de855c] (03/64) Accurately ripped
08 [e4c4eeac] (03/63) Accurately ripped
09 [f97c2c87] (03/64) Accurately ripped
10 [80994a35] (03/63) Accurately ripped
11 [af2ec2a5] (03/66) Accurately ripped
12 [92c2bd4d] (03/60) Accurately ripped
13 [48de774c] (03/64) Accurately ripped
14 [4a8843b4] (03/63) Accurately ripped
15 [6817e520] (03/62) Accurately ripped
16 [0aeb8064] (03/60) Accurately ripped
17 [73d4c1b1] (03/58) Accurately ripped
18 [ce048cc9] (03/59) Accurately ripped
19 [5e0d01a4] (02/61) Accurately ripped
20 [e3bfdebc] (02/56) Accurately ripped
Offsetted by 196:
01 [e06038ea] (05/64) Accurately ripped
02 [85ac4c95] (04/63) Accurately ripped
03 [d1a3721c] (04/64) Accurately ripped
04 [92147c92] (04/64) Accurately ripped
05 [c998db05] (04/64) Accurately ripped
06 d9c4cdc (04/64) Accurately ripped
07 [8ace67c1] (04/64) Accurately ripped
08 [debb5e99] (04/63) Accurately ripped
09 [7d576aae] (04/64) Accurately ripped
10 [46fd5535] (04/63) Accurately ripped
11 [cbff8f6a] (04/66) Accurately ripped
12 [d7ee2f15] (04/60) Accurately ripped
13 7e9389a (05/64) Accurately ripped
14 [25cc4f21] (04/63) Accurately ripped
15 [9a0e74a4] (04/62) Accurately ripped
16 [0369e9d9] (04/60) Accurately ripped
17 [4e49cbac] (04/58) Accurately ripped
18 [6a438790] (04/59) Accurately ripped
19 [91851a55] (04/61) Accurately ripped
20 [514ccf73] (04/56) Accurately ripped
Offsetted by 793:
01 [9443660b] (09/64) Accurately ripped
02 [26a1c085] (09/63) Accurately ripped
03 [22d3d3d1] (09/64) Accurately ripped
04 [1d1ea9ed] (09/64) Accurately ripped
05 d097d4d (09/64) Accurately ripped
06 [e52c98c2] (09/64) Accurately ripped
07 fa6893a (09/64) Accurately ripped
08 [d077bfba] (09/63) Accurately ripped
09 [144805f1] (09/64) Accurately ripped
10 [72840c35] (08/63) Accurately ripped
11 [e40e4ad5] (09/66) Accurately ripped
12 [9ce71f39] (08/60) Accurately ripped
13 [c349c972] (09/64) Accurately ripped
14 [4d3af9c2] (09/63) Accurately ripped
15 [3625e66b] (08/62) Accurately ripped
16 [40ed4323] (08/60) Accurately ripped
17 [d464c013] (07/58) Accurately ripped
18 [de3fb3f7] (07/59) Accurately ripped
19 [69ee394e] (08/61) Accurately ripped
20 [f2cd1f86] (08/56) Accurately ripped
Offsetted by 1531:
01 2f550a5 (02/64) Accurately ripped
02 [0379b2e5] (02/63) Accurately ripped
03 [68513e73] (02/64) Accurately ripped
04 [65f15aeb] (02/64) Accurately ripped
05 [50e3329d] (02/64) Accurately ripped
06 [2e86359e] (02/64) Accurately ripped
07 [7377d2c4] (02/64) Accurately ripped
08 [8ca9f254] (02/63) Accurately ripped
09 [0f31227f] (02/64) Accurately ripped
10 [f6cb6235] (02/63) Accurately ripped
11 [31234acc] (02/66) Accurately ripped
12 [9e1191e2] (02/60) Accurately ripped
13 [76a08308] (02/64) Accurately ripped
14 [f6e6835c] (02/63) Accurately ripped
15 [71c16a56] (02/62) Accurately ripped
16 [1c3b9f01] (02/60) Accurately ripped
17 [1109a800] (02/58) Accurately ripped
18 [c037e022] (02/59) Accurately ripped
19 [67d479c5] (02/61) Accurately ripped
20 [15c85d34] (02/56) Accurately ripped
Offsetted by 1643:
01 [dfdae555] (04/64) Accurately ripped
02 [6d2487e5] (04/63) Accurately ripped
03 [9e9210e3] (04/64) Accurately ripped
04 [6b71c37b] (04/64) Accurately ripped
05 [c398b41d] (04/64) Accurately ripped
06 [2ff177be] (03/64) Accurately ripped
07 [fe7433f4] (03/64) Accurately ripped
08 ebb4704 (04/63) Accurately ripped
09 [8bfdca8f] (04/64) Accurately ripped
10 [f4ab3235] (04/63) Accurately ripped
11 [c1216282] (04/66) Accurately ripped
12 bcd026c (04/60) Accurately ripped
13 b7840d8 (04/64) Accurately ripped
14 3af600c (04/63) Accurately ripped
15 [5327aaca] (04/62) Accurately ripped
16 f110ea1 (03/60) Accurately ripped
17 [a04ba38a] (03/58) Accurately ripped
18 349a9c8 (03/59) Accurately ripped
19 [9e474065] (03/61) Accurately ripped
20 [e7c0b444] (02/56) Accurately ripped
Offsetted by 1621:
01 [84c015d7] (00/64) No match (V2 was not tested)
02 [a1878bc5] (00/63) No match (V2 was not tested)
03 [f3e9e78d] (00/64) No match (V2 was not tested)
04 381aef1 (00/64) No match (V2 was not tested)
05 [cd107aad] (00/64) No match (V2 was not tested)
06 [6faa1d0a] (00/64) No match (V2 was not tested)
07 [83273326] (00/64) No match (V2 was not tested)
08 [3977df86] (00/63) No match (V2 was not tested)
09 [dc9ebbd5] (00/64) No match (V2 was not tested)
10 [19a86035] (00/63) No match (V2 was not tested)
11 [d5d5c96d] (00/66) No match (V2 was not tested)
12 [12d9e881] (00/60) No match (V2 was not tested)
13 [09602946] (00/64) No match (V2 was not tested)
14 [4a07eb8e] (00/63) No match (V2 was not tested)
15 [37233170] (00/62) No match (V2 was not tested)
16 [9a074ae8] (00/60) No match (V2 was not tested)
17 [68898094] (00/58) No match (V2 was not tested)
18 [85e1f8dd] (00/59) No match (V2 was not tested)
19 [fcb9d961] (00/61) No match (V2 was not tested)
20 [d55da32a] (00/56) No match (V2 was not tested)

Track Peak [ CRC32 ] [W/O NULL] [ LOG ]
-- 85,1 [0D69923F] [0E4222A5]
01 85,1 [95C41173] [EF90E548] W/O NULL
02 85,1 [7835F600] [FD549568] W/O NULL
03 85,1 [20DD29D3] [2E3D28F4] W/O NULL
04 85,1 [E92731EC] [8BC20509] W/O NULL
05 85,1 [0E96D27E] [56ED7D69] W/O NULL
06 85,1 [36D5834E] [AA5F1BDA] W/O NULL
07 85,1 [EBB12542] [E74A6EE5] W/O NULL
08 85,1 [F3033958] [4E8CA013] W/O NULL
09 85,1 [EFB95BA5] [2B04D7F5] W/O NULL
10 85,1 [CF3C2B82] [F840F221] W/O NULL
11 85,1 [27A090F6] [DA022B93] W/O NULL
12 85,1 [DD89F8D1] 832D757 W/O NULL
13 85,1 [24FEC8D2] [812759E2] W/O NULL
14 85,1 [D2B38D06] [CECB5014] W/O NULL
15 81,6 [078F6486] [091CE178] W/O NULL
16 85,1 [6A58DFE7] [E0224A91] W/O NULL
17 85,1 [D4231592] [A25AFAB2] W/O NULL
18 85,1 [9C61E401] [A5037181] W/O NULL
19 85,1 [376692CD] [FD49AA02] W/O NULL
20 79,3 [F18643E6] [F3ACC433] W/O NULL

Sly & The Family Stone - Anthology (1981)

DOWNLOAD LINKS:
(Premium Recommended)


All above links are interchangable. No password

Direct Download

Tags: Family, Anthology

Sly & The Family Stone - Anthology (1981) Download via Hotfile Rapidshare Fileserve Megaupload & FileSonic, Sly & The Family Stone - Anthology (1981) free torrent downloads included crack, serial, keygen.


Attention!Information

Members of Guest cannot leave comments.