Led Zeppelin - BBC Sessions (2CD, 1997) RESTORED

Download Now


Led Zeppelin - BBC Sessions (2CD, 1997) RESTORED
Led Zeppelin - BBC Sessions (2CD, 1997)
WV-IMG+CUE+LOGs or MP3 CBR 320 | All Covers | 1067 or 365 MB

Led Zeppelin - BBC Sessions (2CD, 1997) RESTORED

CD 1 - Sessions:
(Recorded: March & June 1969)

01. You Shook Me
02. I Can't Quit You Baby
03. Communication Breakdown
04. Dazed And Confused
05. The Girl I Love She Got Long Black Wavy Hair
06. What Is And What Should Never Be
07. Communication Breakdown
08. Travelling Riverside Blues
09. Whole Lotta Love
10. Somethin' Else
11. Communication Breakdown
12. I Can't Quit You Baby
13. You Shook Me
14. How Many More Times

Exact Audio Copy V0.99 prebeta 4 from 23. January 2008

EAC extraction logfile from 2. October 2008, 12:17

Led Zeppelin / BBC Sessions (CD 1)

Used drive : PLEXTOR CD-R PREMIUM2 Adapter: 1 ID: 1

Read mode : Secure
Utilize accurate stream : Yes
Defeat audio cache : Yes
Make use of C2 pointers : No

Read offset correction

: 30
Overread into Lead-In and Lead-Out : Yes
Fill up missing offset samples with silence : Yes
Delete leading and trailing silent blocks : No
Null samples used in CRC calculations : Yes
Used interface
: Installed external ASPI interface

Used output format : Internal WAV Routines
Sample format : 44.100 Hz; 16 Bit; Stereo

TOC of the extracted CD Track | Start | Length | Start sector | End sector
--1 | 0:00.00 | 5:15.67 | 0 | 23691 2 | 5:15.67 | 4:23.58 | 23692 | 43474 3 | 9:39.50 | 3:12.45 | 43475 | 57919 4 | 12:52.20 | 6:41.65 | 57920 | 88059 5 | 19:34.10 | 3:03.20 | 88060 | 101804 6 | 22:37.30 | 4:20.45 | 101805 | 121349 7 | 26:58.00 | 2:41.07 | 121350 | 133431 8 | 29:39.07 | 5:11.73 | 133432 | 156829 9 | 34:51.05 | 6:13.25 | 156830 | 184829
10 | 41:04.30 | 2:07.60 | 184830 | 194414
11 | 43:12.15 | 3:05.15 | 194415 | 208304
12 | 46:17.30 | 6:20.37 | 208305 | 236841
13 | 52:37.67 | 10:19.30 | 236842 | 283296
14 | 62:57.22 | 11:51.58 | 283297 | 336679

Range status and errors

Selected range Filename C:\200\Led Zeppelin - BBC Sessions (1997)\Led Zeppelin - BBC Sessions (CD1).wav Peak level 97.6 %
Range quality 100.0 %
Copy CRC 63CC6AD6
Copy OK

No errors occurred


AccurateRip summary

Track 1 accurately ripped (confidence 68) [D2E34A8F]
Track 2 accurately ripped (confidence 67) [CFCA5074]
Track 3 accurately ripped (confidence 70) [415D3A1F]
Track 4 accurately ripped (confidence 67) [E2085F6A]
Track 5 accurately ripped (confidence 67) [1B620374]
Track 6 accurately ripped (confidence 67) 0EAC682
Track 7 accurately ripped (confidence 68) [5F56F42A]
Track 8 accurately ripped (confidence 68) [60664A80]
Track 9 accurately ripped (confidence 67) [587FE96A]
Track 10 accurately ripped (confidence 69) [E4090065]
Track 11 accurately ripped (confidence 67) [A2B4D84D]
Track 12 accurately ripped (confidence 67) [4857F551]
Track 13 accurately ripped (confidence 66) [2E770479]
Track 14 accurately ripped (confidence 65) [CAB97E1A]

All tracks accurately ripped

End of status report

CD 2 - Concert from the Paris Theatre in London
(Recording Date: Thursday April 1, 1971)

01. Immigrant Song
02. Heartbreaker
03. Since I've Been Loving You
04. Black Dog
05. Dazed And Confused
06. Stairway To Heaven
07. Going To California
08. That's The Way
09. Whole Lotta Love (Medley: Boogie Chillun/
Fixin' To Die/That's Alright Mama/A Mess Of Blues)
10. Thank You

Exact Audio Copy V0.99 prebeta 4 from 23. January 2008

EAC extraction logfile from 2. October 2008, 12:49

Led Zeppelin / BBC Sessions (CD 2)

Used drive : PLEXTOR CD-R PREMIUM2 Adapter: 1 ID: 1

Read mode : Secure
Utilize accurate stream : Yes
Defeat audio cache : Yes
Make use of C2 pointers : No

Read offset correction

: 30
Overread into Lead-In and Lead-Out : Yes
Fill up missing offset samples with silence : Yes
Delete leading and trailing silent blocks : No
Null samples used in CRC calculations : Yes
Used interface
: Installed external ASPI interface

Used output format : Internal WAV Routines
Sample format : 44.100 Hz; 16 Bit; Stereo

TOC of the extracted CD Track | Start | Length | Start sector | End sector
--1 | 0:00.00 | 3:21.12 | 0 | 15086 2 | 3:21.12 | 5:16.00 | 15087 | 38786 3 | 8:37.12 | 6:56.20 | 38787 | 70006 4 | 15:33.32 | 5:17.40 | 70007 | 93821 5 | 20:50.72 | 18:36.48 | 93822 | 177569 6 | 39:27.45 | 8:49.42 | 177570 | 217286 7 | 48:17.12 | 3:54.38 | 217287 | 234874 8 | 52:11.50 | 5:43.25 | 234875 | 260624 9 | 57:55.00 | 13:45.00 | 260625 | 322499
10 | 71:40.00 | 6:38.12 | 322500 | 352361

Range status and errors

Selected range Filename C:\200\Led Zeppelin - BBC Sessions (1997)\Led Zeppelin - BBC Sessions (CD2).wav Peak level 100.0 %
Range quality 100.0 %
Copy CRC EB785B7C
Copy OK

No errors occurred


AccurateRip summary

Track 1 accurately ripped (confidence 72) [8E2329D3]
Track 2 accurately ripped (confidence 71) [38696973]
Track 3 accurately ripped (confidence 72) [813A9F6E]
Track 4 accurately ripped (confidence 71) [2A768B5C]
Track 5 accurately ripped (confidence 71) [15A00D16]
Track 6 accurately ripped (confidence 69) [CBD066F0]
Track 7 accurately ripped (confidence 70) DADB0FC
Track 8 accurately ripped (confidence 70) [9D595FC8]
Track 9 accurately ripped (confidence 69) [DA153A28]
Track 10 accurately ripped (confidence 65) [D5ECF2F1]

All tracks accurately ripped

End of status report

Produced for Compilation & Mastered by Jimmy Page

* Robert Plant * Jimmy Page * John Paul Jones * John Bonham

Release Date: November 11, 1997
Label: Atlantic Recording Corp.
Catalog No.: 7567-83061-2
Download Links:
(Premium Recommended)


All above links are interchangable. No password

Direct Download

Tags: Zeppelin, Sessions, RESTORED

Led Zeppelin - BBC Sessions (2CD, 1997) RESTORED Download via Hotfile Rapidshare Fileserve Megaupload & FileSonic, Led Zeppelin - BBC Sessions (2CD, 1997) RESTORED free torrent downloads included crack, serial, keygen.


Attention!Information

Members of Guest cannot leave comments.