If - If 2 (1971) (2006 Remaster) [Re-Up]

Download Now

If - If 2 (1971) (2006 Remaster) [Re-Up]

If - If 2 (1971) (2006 Remaster)
Jazz Rock | EAC Rip | Flac + Cue + Log | Covers
Repertoire, REPUK 1038 | rel: 2006 | 300Mb

The second If album came out within the same year as the first, and continues in the same distinctive jazz-rock vein the band worked on its debut. The playing is excellent, with the sax and flute work of Dave Quincy and Dick Morrissey carrying the group's sound to a level unmatched by other, better known contemporaries like Chicago and Blood, Sweat & Tears. J. W. Hodkinson's unique vocals continue to sail through the music, while Terry Smith employs a deeper, grittier guitar tone than he used on the first LP.
The material here is not as interesting as on the earlier release, but the soloists have plenty of space to stretch out and strut their stuff over John Mealing's organ/electric piano bed of chord changes. Jim Richardson lays down some inventive basslines and drummer Dennis Elliott keeps the band on track through various rhythmic twists and turns.

Track listing
1. "Your City Is Falling" (Dave Quincy) - 5:04
2. "Sunday Sad" (Dick Morrissey) - 8:18
3. "Tarmac T. Pirate and the Lonesome Nymphomaniac" (John Mealing, Preston) - 5:12
4. "I Couldn't Write and Tell You" (Dave Quincy) - 8:23
5. "Shadows and Echoes" (Margaret Busby, Lionel Grigson) - 4:24
6. "Song for Elsa, Three Days Before Her 25th Birthday" (J. W. Hodkinson) - 5:11

Personnel
- Dennis Elliott - drums
- J.W. Hodkinson - vocals, percussion
- John Mealing - organ, electric piano, backing vocals
- Dick Morrissey - tenor saxophone, soprano saxophone, flute
- Dave Quincy - tenor saxophone, alto saxophone, flute
- Jim Richardson - bass
- Terry Smith - guitar

Exact Audio Copy V0.99 prebeta 4 from 23. January 2008

EAC extraction logfile from 14. February 2009, 20:44

If / If 2

Used drive : Optiarc DVD RW AD-7170S Adapter: 2 ID: 0

Read mode : Secure
Utilize accurate stream : Yes
Defeat audio cache : Yes
Make use of C2 pointers : No

Read offset correction

: 48
Overread into Lead-In and Lead-Out : No
Fill up missing offset samples with silence : Yes
Delete leading and trailing silent blocks : No
Null samples used in CRC calculations : Yes
Used interface
: Installed external ASPI interface

Used output format : Internal WAV Routines
Sample format : 44.100 Hz; 16 Bit; Stereo

TOC of the extracted CD Track | Start | Length | Start sector | End sector
--1 | 0:00.00 | 5:05.62 | 0 | 22936 2 | 5:05.62 | 8:23.00 | 22937 | 60661 3 | 13:28.62 | 4:33.70 | 60662 | 81206 4 | 18:02.57 | 8:20.16 | 81207 | 118722 5 | 26:22.73 | 4:26.35 | 118723 | 138707 6 | 30:49.33 | 5:44.19 | 138708 | 164526

Range status and errors

Selected range Filename F:\If - If 2.wav Peak level 98.8 %
Range quality 100.0 %
Copy CRC 40D0AFFC
Copy OK

No errors occurred

End of status report

[CUETools log; Date: 2015.08.18. 22:40:46; Version: 2.1.5]
[CTDB TOCID: N55zcjiDgyw26qlhIXotaLICizU-] found.
Track | CTDB Status
1 | (10/10) Accurately ripped
2 | (10/10) Accurately ripped
3 | (10/10) Accurately ripped
4 | (10/10) Accurately ripped
5 | (10/10) Accurately ripped
6 | (10/10) Accurately ripped
[AccurateRip ID: 0008f40c-002fc381-43089106] found.
Track [ CRC | V2 ] Status
01 [12706a1a|0e171cb9] (03+09/12) Accurately ripped
02 [8bd66d06|0d6288f4] (03+09/12) Accurately ripped
03 [20310e93|4ea825c9] (03+09/12) Accurately ripped
04 1b0a3c9|2988817a (03+09/12) Accurately ripped
05 [8d0c5506|58805a70] (03+09/12) Accurately ripped
06 bd7ad3f|3385e7ae (03+09/12) Accurately ripped

Track Peak [ CRC32 ] [W/O NULL] [ LOG ]
-- 98,8 [40D0AFFC] [91EA27D6] CRC32
01 98,8 [4C74314A] 64135B4
02 98,8 [2C4AC25F] [223D1741]
03 98,8 [7FBCF4B3] [48EF6C1B]
04 98,8 [E059F677] [AFBD12E3]
05 98,8 [6ED4A01C] 674CC9F
06 98,8 [505B0CB3] [042CEB95]

original uploader unknown
password: asd
DOWNLOAD LINKS
Buy Premium From My Links To Get Resumable Support & Max Speed & To Support Me


Links are Interchangeable - No Password - Single Extraction

Direct Download

Tags: Remaster

If - If 2 (1971) (2006 Remaster) [Re-Up] Download via Hotfile Rapidshare Fileserve Megaupload & FileSonic, If - If 2 (1971) (2006 Remaster) [Re-Up] free torrent downloads included crack, serial, keygen.


Attention!Information

Members of Guest cannot leave comments.