Kin Ping Meh - Kin Ping Meh (1972)

Download Now

Kin Ping Meh - Kin Ping Meh (1972)

Kin Ping Meh - Kin Ping Meh (1972)
EAC | Flac(Image) + Cue + Log & MP3 CBR 320Kbps
2004 | Polydor/Universal Music, 06024 9822368 | ~ 307 or 107 Mb | Scans(600dpi, jpg) -> 107 Mb
Krautrock / Psychedelic Rock / Prog Rock

"Debut album from this Mannheim (west of Frankfurt) quintet (standard prog quartet plus a lead singer and acoustic guitarist) that will have a relatively long life, starting at the dawn of the 70's and ending just before close to the end of it. Their sound was a relatively hard prog rocking album where the organ and guitar alternate at the front of the music, while the English lyrics singing from Werner Stephan is pleasant and apt..."


Tracklist:

01. Fairy-Tales (Wagner) 09:53
02. Sometime (Schmitt, Weber, Wagner) 05:50
03. Don't You Know (Weber, Herzog) 07:18
04. Too Many People (Weber, Stephan) 05:02
05. Drugson's Trip (Gassenmaier, Herzog) 05:53
06. My Dove (Schmitt, Weber, Stephan) 03:37
07. Everything (Weber, Stephan) 05:16
08. My Future (Herzog, Stephan, Wagner) 02:46

Musicians:

Torsten Herzog - Bass, Vocals
Kalle Weber - Drums, Percussion
Willie Wagner - Guitar, Vocals, Harmonica [Mouth Organ]
Werner Stephan - Lead Vocals, Acoustic Guitar, Percussion
Frieder Schmitt - Organ, Piano, Electric Piano, Mellotron [400], Vocals


Exact Audio Copy V1.0 beta 3 from 29. August 2011

EAC extraction logfile from 25. June 2015, 11:36

Kin Ping Meh / Kin Ping Meh

Used drive : HL-DT-STDVDRAM GH24NS95 Adapter: 3 ID: 0

Read mode : Secure
Utilize accurate stream : Yes
Defeat audio cache : Yes
Make use of C2 pointers : No

Read offset correction

: 6
Overread into Lead-In and Lead-Out : No
Fill up missing offset samples with silence : Yes
Delete leading and trailing silent blocks : No
Null samples used in CRC calculations : Yes
Used interface
: Native Win32 interface for Win NT & 2000
Gap handling
: Appended to previous track

Used output format : User Defined Encoder
Selected bitrate : 128 kBit/s
Quality : High
Add ID3 tag : Yes
Command line compressor : C:\Program Files\FLAC\flac.exe
Additional command line options : -V -8 -T "Genre=%genre%" -T "Artist=%artist%" -T "Title=%title%" -T "Album=%albumtitle%" -T "Date=%year%" -T "Tracknumber=%tracknr%" -T "Comment=%comment%" %source%

TOC of the extracted CD Track | Start | Length | Start sector | End sector
--1 | 0:00.00 | 9:52.48 | 0 | 44447 2 | 9:52.48 | 5:50.09 | 44448 | 70706 3 | 15:42.57 | 7:17.68 | 70707 | 103549 4 | 23:00.50 | 5:02.34 | 103550 | 126233 5 | 28:03.09 | 5:52.51 | 126234 | 152684 6 | 33:55.60 | 3:37.05 | 152685 | 168964 7 | 37:32.65 | 5:16.10 | 168965 | 192674 8 | 42:49.00 | 2:45.45 | 192675 | 205094

Track 1 Filename F:\Extract Audio Copy\by fovit\01 - Fairy Tales.wav Pre-gap length 0:00:02.00 Peak level 98.8 %
Extraction speed 4.6 X
Track quality 100.0 %
Copy CRC D1C250C2
Accurately ripped (confidence 12) [9D8793DF] (AR v2)
Copy OK

Track 2 Filename F:\Extract Audio Copy\by fovit\02 - Sometime.wav Pre-gap length 0:00:03.08 Peak level 98.8 %
Extraction speed 1.4 X
Track quality 100.0 %
Copy CRC 37AA82C6
Accurately ripped (confidence 12) [26AFCB84] (AR v2)
Copy OK

Track 3 Filename F:\Extract Audio Copy\by fovit\03 - Don't You Know.wav Pre-gap length 0:00:03.15 Peak level 98.8 %
Extraction speed 1.5 X
Track quality 99.9 %
Copy CRC 1B7C0B6F
Accurately ripped (confidence 12) [9218F302] (AR v2)
Copy OK

Track 4 Filename F:\Extract Audio Copy\by fovit\04 - Too Many People.wav Pre-gap length 0:00:03.54 Peak level 98.8 %
Extraction speed 1.5 X
Track quality 99.9 %
Copy CRC C7396650
Accurately ripped (confidence 12) [8AAC9CA5] (AR v2)
Copy OK

Track 5 Filename F:\Extract Audio Copy\by fovit\05 - Drugson's Trip.wav Pre-gap length 0:00:03.12 Peak level 95.5 %
Extraction speed 1.8 X
Track quality 100.0 %
Copy CRC 78686381
Accurately ripped (confidence 12) [C5ED732F] (AR v2)
Copy OK

Track 6 Filename F:\Extract Audio Copy\by fovit\06 - My Dove.wav Pre-gap length 0:00:03.06 Peak level 91.7 %
Extraction speed 1.8 X
Track quality 100.0 %
Copy CRC E5DCA178
Accurately ripped (confidence 11) [A8DE99D7] (AR v2)
Copy OK

Track 7 Filename F:\Extract Audio Copy\by fovit\07 - Everything.wav Pre-gap length 0:00:03.25 Peak level 98.8 %
Extraction speed 2.0 X
Track quality 100.0 %
Copy CRC 48D46DDF
Accurately ripped (confidence 12) [863D2DB3] (AR v2)
Copy OK

Track 8 Filename F:\Extract Audio Copy\by fovit\08 - My Future.wav Pre-gap length 0:00:03.60 Peak level 87.0 %
Extraction speed 1.8 X
Track quality 100.0 %
Copy CRC E3ECE338
Accurately ripped (confidence 12) [3E5CA4F8] (AR v2)
Copy OK

All tracks accurately ripped

No errors occurred

End of status report

==== Log checksum EA856101E99DE6E8E503BA24CCBDD72D3E2712620A3111535064075B1F655165 ====

foobar2000 1.2.9 / Dynamic Range Meter 1.1.1
log date: 2015-08-19 12:12:54

Analyzed: Kin Ping Meh / Kin Ping Meh

DR Peak RMS Duration Track

DR9 -0.10 dB -12.21 dB 9:53 01-Fairy Tales
DR10 -0.10 dB -13.65 dB 5:50 02-Sometime
DR10 -0.10 dB -12.37 dB 7:18 03-Don't You Know
DR10 -0.10 dB -12.41 dB 5:02 04-Too Many People
DR10 -0.40 dB -12.81 dB 5:53 05-Drugson's Trip
DR11 -0.75 dB -14.16 dB 3:37 06-My Dove
DR10 -0.10 dB -11.66 dB 5:16 07-Everything
DR10 -1.20 dB -13.78 dB 2:46 08-My Future

Number of tracks: 8
Official DR value: DR10

Samplerate: 44100 Hz
Channels: 2
Bits per sample: 16
Bitrate: 915 kbps
Codec: FLAC

[CUETools log; Date: 19.08.2015 12:12:59; Version: 2.1.4]
[CTDB TOCID: BaqAbU05Qq9PcYeyMV10D2SIur4-] found.
Track | CTDB Status
1 | (8/8) Accurately ripped
2 | (8/8) Accurately ripped
3 | (8/8) Accurately ripped
4 | (8/8) Accurately ripped
5 | (8/8) Accurately ripped
6 | (8/8) Accurately ripped
7 | (8/8) Accurately ripped
8 | (8/8) Accurately ripped
[AccurateRip ID: 00103da7-0068417c-6f0aae08] found.
Track [ CRC | V2 ] Status
01 [aefa25f4|9d8793df] (10+13/23) Accurately ripped
02 [224f505c|26afcb84] (10+13/23) Accurately ripped
03 [600a85e7|9218f302] (10+13/23) Accurately ripped
04 [5cad92be|8aac9ca5] (10+13/23) Accurately ripped
05 [51eb306b|c5ed732f] (10+13/23) Accurately ripped
06 [2c460fd9|a8de99d7] (10+12/22) Accurately ripped
07 [1798c1ec|863d2db3] (10+13/23) Accurately ripped
08 [26f97c88|3e5ca4f8] (10+13/23) Accurately ripped

Track Peak [ CRC32 ] [W/O NULL] [ LOG ]
-- 98,8 [E27E8AF1] [3DDA21BE]
01 98,8 [D1C250C2] [3ACB0228] CRC32
02 98,8 [37AA82C6] [862F8241] CRC32
03 98,8 [1B7C0B6F] [46D86655] CRC32
04 98,8 [C7396650] [7C57698C] CRC32
05 95,5 [78686381] [A812592A] CRC32
06 91,7 [E5DCA178] [7BDEDC3A] CRC32
07 98,8 [48D46DDF] [CADF8E38] CRC32
08 87,0 [E3ECE338] [A22B4F71] CRC32

Kin Ping Meh - Kin Ping Meh (1972)

DOWNLOAD LINKS:
Buy Premium To Support Me & Get Resumable Support & Max Speed


Links are Interchangeable - No Password - Single Extraction

Direct Download

Kin Ping Meh - Kin Ping Meh (1972) Download via Hotfile Rapidshare Fileserve Megaupload & FileSonic, Kin Ping Meh - Kin Ping Meh (1972) free torrent downloads included crack, serial, keygen.


Attention!Information

Members of Guest cannot leave comments.