Morton Feldman - RSO Saarbrücken / Hans Zender - Flute, Cello, Oboe, Piano & Orchestra (1997, CPO # 999 483-2)

Download Now


Morton Feldman - RSO Saarbrücken / Hans Zender - Flute, Cello, Oboe, Piano & Orchestra (1997, CPO # 999 483-2)
Morton Feldman - Flute, Cello, Oboe, Piano & Orchestra
Rundfunk-Sinfonieorchester Saarbrücken / Hans Zender
2xCD | EAC+LOG+CUE | FLAC: 422 MB | Full Artwork: 53 MB | 5% Recovery Info
Label/Cat#: CPO # 999 483-2 | Country/Year: Germany 1997, 1970's
Genre: Classical | Style: Contemporary, Post-Modern

""Johannes (Hans) Wolfgang Zender (born 22 November 1936 in Wiesbaden) is a German conductor and composer. (...) From 1988 until 2000 Zender taught composition at the Hochschule für Musik und Darstellende Kunst in Frankfurt am Main. In 1997 Zender was awarded the Goethe Prize of the City of Frankfurt. Since 1999 he has been Permanent Guest Conductor of the Southwest German Radio (SWR) Symphony Orchestra in Baden-Baden and Freiburg...""




Morton Feldman - RSO Saarbrücken / Hans Zender - Flute, Cello, Oboe, Piano & Orchestra (1997, CPO # 999 483-2)



Exact Audio Copy V1.0 beta 3 from 29. August 2011

EAC extraction logfile from 24. September 2013, 17:06

Hans Zender / Morton Feldman CD1

Used drive : PIONEER BD-RW BDR-206 Adapter: 0 ID: 2

Read mode : Secure
Utilize accurate stream : Yes
Defeat audio cache : Yes
Make use of C2 pointers : No

Read offset correction

: 667
Overread into Lead-In and Lead-Out : No
Fill up missing offset samples with silence : Yes
Delete leading and trailing silent blocks : No
Null samples used in CRC calculations : Yes
Used interface
: Native Win32 interface for Win NT & 2000

Used output format : User Defined Encoder
Selected bitrate : 1024 kBit/s
Quality : High
Add ID3 tag : Yes
Command line compressor : C:\Program Files\FLAC\flac.exe
Additional command line options : -5 -T "Artist=%artist%" -T "Title=%title%" -T "Album=%albumtitle%" -T "Date=%year%" -T "Tracknumber=%tracknr%" -T "Genre=%genre%" %source% -o %dest%

TOC of the extracted CD Track | Start | Length | Start sector | End sector
--1 | 0:00.00 | 32:47.00 | 0 | 147524 2 | 32:47.00 | 18:41.00 | 147525 | 231599

Range status and errors

Selected range Filename F:\=== VINYL RIPS ===\=== EAC===\X FRESH RIP\Hans Zender - Morton Feldman CD1.wav Peak level 89.9 %
Extraction speed 7.2 X
Range quality 100.0 %
Test CRC 7C9D5152
Copy CRC 7C9D5152
Copy OK

No errors occurred


AccurateRip summary

Track 1 accurately ripped (confidence 3) [8AF49676] (AR v2)
Track 2 accurately ripped (confidence 3) 9E99ECD (AR v2)

All tracks accurately ripped

End of status report

- CUETools DB Plugin V2.1.3

[CTDB TOCID: SdgZ9Lrazis1FMlE8ajnZr26v5E-] disk not present in database, Submit result: SdgZ9Lrazis1FMlE8ajnZr26v5E- has been uploaded

==== Log checksum 55D6E0D1CA399C460D634B26AB9322D253621642BFF226733B69B8A9C9B65184 ====

Exact Audio Copy V1.0 beta 3 from 29. August 2011

EAC extraction logfile from 24. September 2013, 17:21

Hans Zender / Morton Feldman CD2

Used drive : PIONEER BD-RW BDR-206 Adapter: 0 ID: 2

Read mode : Secure
Utilize accurate stream : Yes
Defeat audio cache : Yes
Make use of C2 pointers : No

Read offset correction

: 667
Overread into Lead-In and Lead-Out : No
Fill up missing offset samples with silence : Yes
Delete leading and trailing silent blocks : No
Null samples used in CRC calculations : Yes
Used interface
: Native Win32 interface for Win NT & 2000

Used output format : User Defined Encoder
Selected bitrate : 1024 kBit/s
Quality : High
Add ID3 tag : Yes
Command line compressor : C:\Program Files\FLAC\flac.exe
Additional command line options : -5 -T "Artist=%artist%" -T "Title=%title%" -T "Album=%albumtitle%" -T "Date=%year%" -T "Tracknumber=%tracknr%" -T "Genre=%genre%" %source% -o %dest%

TOC of the extracted CD Track | Start | Length | Start sector | End sector
--1 | 0:00.00 | 21:21.00 | 0 | 96074 2 | 21:21.00 | 26:37.00 | 96075 | 215849

Range status and errors

Selected range Filename F:\=== VINYL RIPS ===\=== EAC===\X FRESH RIP\Hans Zender - Morton Feldman CD2.wav Peak level 99.1 %
Extraction speed 7.1 X
Range quality 100.0 %
Test CRC 72081204
Copy CRC 72081204
Copy OK

No errors occurred


AccurateRip summary

Track 1 accurately ripped (confidence 2) [18266AA8] (AR v2)
Track 2 accurately ripped (confidence 2) [9FC29E20] (AR v2)

All tracks accurately ripped

End of status report

- CUETools DB Plugin V2.1.3

[CTDB TOCID: oNpC.dVtkGeBMDf77WvvhZOYhIk-] found, Submit result: oNpC.dVtkGeBMDf77WvvhZOYhIk- has been uploaded
[2eeea248] (1/1) Differs in 33093 samples @01:59:19-01:59:20,02:43:30-02:43:31,14:50:46-14:51:00
You can use CUETools to repair this rip.

==== Log checksum 35B1F3EB6B79F4773086A82207BD6A6559E72A9F720C18FCF27C1BC60C83CDF0 ====

foobar2000 1.1.14a / Dynamic Range Meter 1.1.1
log date: 2013-10-02 09:48:01

Analyzed: Hans Zender / Morton Feldman CD1

DR Peak RMS Duration Track

DR18 -0.92 dB -25.49 dB 32:47 01-Morton Feldman - Flute and Orchestra (1977-78)
DR13 -2.00 dB -22.11 dB 18:41 02-Morton Feldman - Cello and Orchestra (1972)

Number of tracks: 2
Official DR value: DR16

Samplerate: 44100 Hz
Channels: 2
Bits per sample: 16
Bitrate: 610 kbps
Codec: FLAC

Analyzed: Hans Zender / Morton Feldman CD2

DR Peak RMS Duration Track

DR20 -0.30 dB -27.34 dB 21:21 01-Oboe and Orchestra (1976)
DR21 -0.07 dB -29.10 dB 26:37 02-Piano and Orchestra (1975)

Number of tracks: 2
Official DR value: DR21

Samplerate: 44100 Hz
Channels: 2
Bits per sample: 16
Bitrate: 576 kbps
Codec: FLAC

CD Info:

Morton Feldman - Flute, Cello, Oboe, Piano & Orchestra

Rundfunk-Sinfonieorchester Saarbrücken / Hans Zender

Label: CPO
Series: Hans Zender Edition
Catalog#: 999 483-2
Format: 2xCD, Compilation
Country: Germany
Released: 1997
Recorded: 06/1973, 11/1975, 06/1977 & 05/1978
Genre: Classical
Style: Contemporary, Post-Modern

Tracklist:

1 Flute and Orchestra (1977-78) 32:47
2 Cello and Orchestra (1972) 18:41
1 Oboe and Orchestra (1976) 21:21
2 Piano and Orchestra (1975) 26:37

Artists:

Roswitha Staege, Flute
Siegfried Palm, Violoncello
Armin Aussem, Oboe
Roger Woodward, Piano

Recording: Saarländischer Rundfunk Großer Sendesaal, 1 June 1973 (1-2), 6 June 1977 (2-1) & 21 November 1975 (2-2).
Live: Festival >>Musik im 20. Jh.
Publisher: Universal Edition
Digital Mastering: Stephan Reh Musikproduktion, Detmold

Part 11 in the Hans Zender Edition.

(P) 1997
Made in Germany

12-page booklet includes notes in German, English and French.

"Johannes (Hans) Wolfgang Zender (born 22 November 1936 in Wiesbaden) is a German conductor and composer.

From 1956 to 1959 Zender studied piano, conducting, and composition (the latter with Wolfgang Fortner) at the Hochschule für Musik Frankfurt and at the Hochschule für Musik Freiburg.

From 1959 to 1963 he was Kapellmeister of the Municipal Theatres in Freiburg im Breisgau, after which he became Principal Conductor at the Stadttheater in Bonn. In 1964-65 he attended the Second Cologne Courses for New Music at the Rheinische Musikhochschule, under the artistic direction of Karlheinz Stockhausen. In 1968 he was called to Kiel, where he was General Music Director of the Kiel Opera House until 1972. In this year he began his activity as Principal Conductor of the Radio-Symphony Orchestra in Saarbrücken. In 1984 he became Head of the Hamburg State Opera and General Music Director of the orchestra there, changing in 1987 to the position of Conductor in Chief of the Chamber Orchestra of Radio Netherlands in Hilversum, where he worked until 1990.

From 1988 until 2000 Zender taught composition at the Hochschule für Musik und Darstellende Kunst in Frankfurt am Main. In 1997 Zender was awarded the Goethe Prize of the City of Frankfurt. Since 1999 he has been Permanent Guest Conductor of the Southwest German Radio (SWR) Symphony Orchestra in Baden-Baden and Freiburg.

Invited by Walter Fink, he was in 2011 the 21st composer featured in the annual Komponistenporträt of the Rheingau Musik Festival. Music included denn wiederkommen (Hölderlin lesen III) for string quartet and speaking voice (1991) and Mnemosyne (Hölderlin lesen IV) for female voice, string quartet, and tape (2000), performed by Salome Kammer and the Athena Quartet. ~wikipedia"



Morton Feldman - RSO Saarbrücken / Hans Zender - Flute, Cello, Oboe, Piano & Orchestra (1997, CPO # 999 483-2)


DOWNLOAD LINKS
(Premium Recommended)


Links are Interchangeable - No Password - Single Extraction

Direct Download

Tags: Morton, Feldman, Saarbr, Zender, Orchestra

Morton Feldman - RSO Saarbrücken / Hans Zender - Flute, Cello, Oboe, Piano & Orchestra (1997, CPO # 999 483-2) Download via Hotfile Rapidshare Fileserve Megaupload & FileSonic, Morton Feldman - RSO Saarbrücken / Hans Zender - Flute, Cello, Oboe, Piano & Orchestra (1997, CPO # 999 483-2) free torrent downloads included crack, serial, keygen.


Attention!Information

Members of Guest cannot leave comments.