Cliff Richard - Wired For Sound (1981) [1988, Original Sound Recordings]

Download Now

Cliff Richard - Wired For Sound (1981) [1988, Original Sound Recordings]

Cliff Richard - Wired For Sound (1981) [1988, Original Sound Recordings]
Pop/Rock, Rock 'N' Roll, Easy Listening | EAC Rip | FLAC, Img+CUE + LOG + Full Scans-600dpi (JPEG) | 43:45 Min | 311,63 Mb
Label: EMI Records Ltd. / Fame (EU) | Released: 1988

"
Wired for Sound is a studio album by Cliff Richard, released in August 1981. The album peaked at #4 in the UK album charts upon release and spent a total of 25 weeks on the chart in 1981-82. The album was certified Platinum by the BPI and achieved sales over one million globally.
The title track was released as the lead single of the album and was followed up by a cover of Shep and the Limelites 1961 US doo-wop hit, "Daddy's Home". The singles peaked at #4 and 2 respectively on the UK singles chart. "Daddy's Home" was held off #1 for 4 weeks running by the Human League's "Don't You Want Me", but earned gold certification from the BPI for sales over half a million. The track was recorded live on 1 May 1981 at the Hammersmith Odeon for a rock 'n' roll special to be broadcast later by BBC Television.
"

Cliff Richard - Wired For Sound (1981) [1988, Original Sound Recordings]

Cliff Richard - Wired For Sound (1981) [1988, Original Sound Recordings]


Release of the album: 1981, September [LP EMI, Cat.# EMI ‎- EMC 3377, EMI ‎- OC 062-07 541, UK]
Release of this CD: 1988 [CD EMI Records Ltd. / Fame (EU), Cat.# CD-FA 3159 (CDM 7 52027 2) / EAN: 077775202724]
℗ 1981 EMI Records Ltd., except * ℗ 1981 Orig. Sound Rec. made by the BBC
Distributed by EMI Records. HAYES, MIDDX
Note: this CD was manufactured in West Germany

Produced by: Alan Tarney (tracks: 01 - 10), Cliff Richard (track: 11)
Arranged by: Alan Tarney
Engineer: Nick Glennie-Smith
Engineer [Assistant]: Ian Little
Engineer [Mastering]: John Dent
Photography By: Rebecca Swearingen

Backing Vocals - Alan Tarney, Cliff Richard
Instruments [All Except Credit Listings] - Alan Tarney
Drums - Graham Jarvis (tracks: 01, 03 - 07, 10), Trevor Spencer (tracks: 02, 08, 09)
Guitar [Additional] - John Clark (tracks: 02)
Piano - Nick Glennie-Smith (tracks: 09)


Tracklist:

01. Wired For Sound (03:41)
(Alan Tarney / Brian Alexander Robertson)
02. Once In A While (04:42)
(Alan Tarney)
03. Better Than I Know Myself (03:44)
(Dave Cooke / Judy MacKenzie)
04. Oh No, Don't Let Go (03:30)
(Alan Tarney)
05. 'Cos I Love That Rock 'N' Roll (04:13)
(Alan Tarney)
06. Broken Doll (04:20)
(Eric Goulden / Walter Hacon)
07. Lost In A Lonely World (04:05)
(Chris Eaton)
08. Summer Rain (04:18)
(Chris Eaton)
09. Young Love (04:07)
(Alan Tarney)
10. Say You Don't Mind (04:05)
(Alan Tarney)
11. Daddy's Home* (03:00)
(James Sheppard / William Miller)

Exact Audio Copy V1.0 beta 3 from 29. August 2011

EAC extraction logfile from 30. August 2014, 0:19

Cliff Richard / Wired For Sound

Used drive : ATAPI DVD DW 8X16X8X16 Adapter: 0 ID: 2

Read mode : Secure
Utilize accurate stream : Yes
Defeat audio cache : Yes
Make use of C2 pointers : No

Read offset correction

: 618
Overread into Lead-In and Lead-Out : No
Fill up missing offset samples with silence : Yes
Delete leading and trailing silent blocks : No
Null samples used in CRC calculations : Yes
Used interface
: Native Win32 interface for Win NT & 2000

Used output format : Internal WAV Routines
Sample format : 44.100 Hz; 16 Bit; Stereo

TOC of the extracted CD Track | Start | Length | Start sector | End sector
--1 | 0:00.33 | 3:40.52 | 33 | 16584 2 | 3:41.10 | 4:42.10 | 16585 | 37744 3 | 8:23.20 | 3:43.43 | 37745 | 54512 4 | 12:06.63 | 3:30.37 | 54513 | 70299 5 | 15:37.25 | 4:13.33 | 70300 | 89307 6 | 19:50.58 | 4:20.10 | 89308 | 108817 7 | 24:10.68 | 4:05.22 | 108818 | 127214 8 | 28:16.15 | 4:18.23 | 127215 | 146587 9 | 32:34.38 | 4:06.40 | 146588 | 165077
10 | 36:41.03 | 4:05.07 | 165078 | 183459
11 | 40:46.10 | 2:59.50 | 183460 | 196934

Range status and errors

Selected range Filename C:\BlondStyle\Cliff Richard - Wired For Sound.wav Peak level 100.0 %
Extraction speed 7.2 X
Range quality 99.9 %
Test CRC 64779B2F
Copy CRC 64779B2F
Copy OK

No errors occurred


AccurateRip summary

Track 1 cannot be verified as accurate (confidence 4) [196A4FCF], AccurateRip returned 3F898BD (AR v2)
Track 2 accurately ripped (confidence 4) [29385D43] (AR v2)
Track 3 accurately ripped (confidence 4) [424EF3CB] (AR v2)
Track 4 accurately ripped (confidence 4) [8A0D4514] (AR v2)
Track 5 accurately ripped (confidence 4) [7251226D] (AR v2)
Track 6 accurately ripped (confidence 4) [175A4965] (AR v2)
Track 7 accurately ripped (confidence 4) A9CF7CF (AR v2)
Track 8 accurately ripped (confidence 4) [034FA8AD] (AR v2)
Track 9 accurately ripped (confidence 4) [E2554506] (AR v2)
Track 10 accurately ripped (confidence 4) [07E220C9] (AR v2)
Track 11 accurately ripped (confidence 4) [EE518163] (AR v2)

10 track(s) accurately ripped
1 track(s) could not be verified as accurate

Some tracks could not be verified as accurate

End of status report

==== Log checksum 56A38B84AE14B304F96118D69A99A28A5F3A0BE1183D834B9B4BE395BB3E079A ====

foobar2000 1.3.7 / Dynamic Range Meter 1.1.1
log date: 2015-08-20 02:16:53

Analyzed: Cliff Richard / Wired For Sound

DR Peak RMS Duration Track

DR12 -1.00 dB -15.00 dB 3:41 01-Wired For Sound
DR13 0.00 dB -15.26 dB 4:42 02-Once In A While
DR14 -0.31 dB -18.88 dB 3:44 03-Better Than I Know Myself
DR14 0.00 dB -16.42 dB 3:30 04-Oh No, Don't Let Go
DR12 -1.52 dB -15.28 dB 4:13 05-'Cos I Love That Rock 'N' Roll
DR13 -0.03 dB -15.13 dB 4:20 06-Broken Doll
DR14 -0.95 dB -17.50 dB 4:05 07-Lost In A Lonely World
DR12 -1.50 dB -17.53 dB 4:18 08-Summer Rain
DR11 -1.51 dB -14.78 dB 4:07 09-Young Love
DR13 -2.10 dB -18.22 dB 4:05 10-Say You Don't Mind
DR14 -0.45 dB -17.11 dB 3:00 11-Daddy's Home

Number of tracks: 11
Official DR value: DR13

Samplerate: 44100 Hz
Channels: 2
Bits per sample: 16
Bitrate: 842 kbps
Codec: FLAC



password: BlondStyle


DOWNLOAD LINKS:
Buy Premium To Support Me & Get Resumable Support & Max Speed


Links are Interchangeable - No Password - Single Extraction

Direct Download

Tags: Richard, Original, Recordings

Cliff Richard - Wired For Sound (1981) [1988, Original Sound Recordings] Download via Hotfile Rapidshare Fileserve Megaupload & FileSonic, Cliff Richard - Wired For Sound (1981) [1988, Original Sound Recordings] free torrent downloads included crack, serial, keygen.


Attention!Information

Members of Guest cannot leave comments.