Faces - Stay With Me: Faces Anthology (2012) 2CD

Download Now

Faces - Stay With Me: Faces Anthology (2012) 2CD

Faces - Stay With Me: Faces Anthology (2012) 2CD
EAC | FLAC | Tracks (Cue&Log) ~ 969 Mb (incl 5%) | Mp3 (CBR320) ~ 354 Mb (incl 5%) | Scans ~ 126 Mb
Genre: Classic Rock, Blues Rock, Rock & Roll | Label: Warner Bros./Rhino | # 8122797179 | Time: 02:27:14

"The Faces were unanthologized on CD prior to 1999, but ever since Rhino's corking single-disc Good Boys...When They're Asleep..., the group has seen a number of different compilations of different sizes, of which Rhino U.K.'s 2012 set Stay with Me: Anthology is the fifth. At two discs, this has 2007's The Definitive Rock Collection as its closest cousin: they're both double discs that cover a tremendous amount of ground, but Stay with Me has a slight edge, weighing in at 36 tracks compared to Definitive's 30. Of those 30 tracks, 27 cuts are present and accounted for on Stay with Me -- the missing numbers are "Open to Ideas," "Jodie," and "(I Know) I'm Losing You," the latter two cuts from solo Rod Stewart albums where he was backed by the Faces -- and those other nine songs include some of the Faces' very best, including the roaring rocker "That's All You Need," Ronnie Lane's sweet, plaintive "Richmond," and the gloriously shambolic "On the Beach"."



Tracklist:

CD1:

01. Stay With Me (04:38)
02. Miss Judy's Farm (03:38)
03. Cindy Incidentally (02:35)
04. You're So Rude (03:42)
05. Flying (04:13)
06. That's All You Need (05:05)
07. My Fault (03:05)
08. Had Me A Real Good Time (05:48)
09. Richmond (03:04)
10. Too Much Woman (For A Henpecked Man) [Live - Fillmore East, New York 11/10/70] (05:26)
11. Love Lives Here (03:06)
12. Debris (04:34)
13. Just Another Honky (03:32)
14. On The Beach (04:15)
15. Wicked Messenger (04:06)
16. Too Bad (03:13)
17. Rear Wheel Skid (04:44)
18. Love In Vain (Live - Fillmore East, New York 11/10/70) (06:22)

CD2:

01. Ooh La La (03:31)
02. Maybe I'm Amazed (03:37)
03. Memphis, Tennessee (05:28)
04. Pool Hall Richard (04:23)
05. Bad 'N' Ruin (05:23)
06. You Can Make Me Dance, Sing Or Anything (04:30)
07. Last Orders Please (02:35)
08. Around The Plynth (05:49)
09. Three Button Hand Me Down (05:44)
10. As Long As You Tell Him (04:18)
11. Glad And Sorry (03:06)
12. Pineapple And the Monkey (04:22)
13. Flags And Banners (02:00)
14. Sweet Lady Mary (05:46)
15. Silicone Grown (03:06)
16. Shake, Shudder Shiver (03:13)
17. Borstal Boys (02:53)
18. Gasoline Alley (Live - Fillmore East, New York 11/10/70) (02:05)


Exact Audio Copy V1.0 beta 6 from 9. April 2015

EAC extraction logfile from 13. August 2015, 1:17

Faces / The Faces Anthology [Disc 1]

Used drive : HL-DT-STBD-RE GGW-H20L Adapter: 1 ID: 0

Read mode : Secure
Utilize accurate stream : Yes
Defeat audio cache : Yes
Make use of C2 pointers : No

Read offset correction

: 667
Overread into Lead-In and Lead-Out : No
Fill up missing offset samples with silence : Yes
Delete leading and trailing silent blocks : No
Null samples used in CRC calculations : Yes
Used interface
: Native Win32 interface for Win NT & 2000
Gap handling
: Appended to previous track

Used output format : User Defined Encoder
Selected bitrate : 1024 kBit/s
Quality : High
Add ID3 tag : No
Command line compressor : C:\Program Files (x86)\Exact Audio Copy\Flac\flac.exe
Additional command line options : -8 -V -T "ARTIST=%artist%" -T "TITLE=%title%" -T "ALBUM=%albumtitle%" -T "DATE=%year%" -T "TRACKNUMBER=%tracknr%" -T "GENRE=%genre%" -T "PERFORMER=%albuminterpret%" -T "COMPOSER=%composer%" %haslyrics%--tag-from-file=LYRICS="%lyricsfile%"%haslyrics% -T "ALBUMARTIST=%albumartist%" -T "ALBUM ARTIST=%albumartist%" -T "DISCNUMBER=%cdnumber%" -T "TOTALDISCS=%totalcds%" -T "TOTALTRACKS=%numtracks%" -T "COMMENT=EAC V1.0 beta 6, Secure Mode, Test & Copy, AccurateRip, FLAC - 8 - oneanight oan" %source%

TOC of the extracted CD Track | Start | Length | Start sector | End sector
--1 | 0:00.00 | 4:38.55 | 0 | 20904 2 | 4:38.55 | 3:38.23 | 20905 | 37277 3 | 8:17.03 | 2:35.19 | 37278 | 48921 4 | 10:52.22 | 3:42.62 | 48922 | 65633 5 | 14:35.09 | 4:13.40 | 65634 | 84648 6 | 18:48.49 | 5:05.07 | 84649 | 107530 7 | 23:53.56 | 3:05.62 | 107531 | 121467 8 | 26:59.43 | 5:48.25 | 121468 | 147592 9 | 32:47.68 | 3:04.40 | 147593 | 161432
10 | 35:52.33 | 5:26.24 | 161433 | 185906
11 | 41:18.57 | 3:06.17 | 185907 | 199873
12 | 44:24.74 | 4:34.36 | 199874 | 220459
13 | 48:59.35 | 3:32.56 | 220460 | 236415
14 | 52:32.16 | 4:15.05 | 236416 | 255545
15 | 56:47.21 | 4:06.61 | 255546 | 274056
16 | 60:54.07 | 3:13.04 | 274057 | 288535
17 | 64:07.11 | 4:44.21 | 288536 | 309856
18 | 68:51.32 | 6:22.46 | 309857 | 338552

Track 1 Filename C:\oneanight\01 - Stay With Me (2006 Remastered Version).wav Pre-gap length 0:00:02.00 Peak level 100.0 %
Extraction speed 1.2 X
Track quality 100.0 %
Test CRC 90086ADB
Copy CRC 90086ADB
Accurately ripped (confidence 3) [311F562B] (AR v2)
Copy OK

Track 2 Filename C:\oneanight\02 - Miss Judy's Farm (2006 Remastered Version).wav Peak level 100.0 %
Extraction speed 1.2 X
Track quality 100.0 %
Test CRC 1BAFE86F
Copy CRC 1BAFE86F
Accurately ripped (confidence 3) [4B0197A1] (AR v2)
Copy OK

Track 3 Filename C:\oneanight\03 - Cindy Incidentally (2006 Remastered Version).wav Peak level 100.0 %
Extraction speed 1.2 X
Track quality 100.0 %
Test CRC A5DCB33E
Copy CRC A5DCB33E
Accurately ripped (confidence 3) [D18B7970] (AR v2)
Copy OK

Track 4 Filename C:\oneanight\04 - You're So Rude (2006 Remastered Version).wav Peak level 100.0 %
Extraction speed 1.4 X
Track quality 100.0 %
Test CRC 3D597153
Copy CRC 3D597153
Accurately ripped (confidence 3) [D2C57052] (AR v2)
Copy OK

Track 5 Filename C:\oneanight\05 - Flying (2006 Remastered Version).wav Peak level 100.0 %
Extraction speed 1.5 X
Track quality 100.0 %
Test CRC 3338AC12
Copy CRC 3338AC12
Accurately ripped (confidence 3) [17773A09] (AR v2)
Copy OK

Track 6 Filename C:\oneanight\06 - That's All You Need (Remastered Album Version).wav Peak level 96.7 %
Extraction speed 1.5 X
Track quality 99.9 %
Test CRC E7F0630A
Copy CRC E7F0630A
Accurately ripped (confidence 3) [7D2B2577] (AR v2)
Copy OK

Track 7 Filename C:\oneanight\07 - My Fault (2006 Remasterd Version).wav Peak level 100.0 %
Extraction speed 1.6 X
Track quality 100.0 %
Test CRC 73F3E423
Copy CRC 73F3E423
Accurately ripped (confidence 3) [52300DC6] (AR v2)
Copy OK

Track 8 Filename C:\oneanight\08 - Had Me A Real Good Time (2006 Remastered Version).wav Peak level 97.7 %
Extraction speed 1.9 X
Track quality 100.0 %
Test CRC C7791056
Copy CRC C7791056
Accurately ripped (confidence 3) [672F4DEC] (AR v2)
Copy OK

Track 9 Filename C:\oneanight\09 - Richmond (Remasterd Album Version).wav Peak level 100.0 %
Extraction speed 1.8 X
Track quality 100.0 %
Test CRC 2F9A2876
Copy CRC 2F9A2876
Accurately ripped (confidence 3) [1C4427E0] (AR v2)
Copy OK

Track 10 Filename C:\oneanight\10 - Too Much Woman (For A Henpecked Man) [Live - Fillmore East, New York 11,10,70].wav Peak level 100.0 %
Extraction speed 1.8 X
Track quality 99.9 %
Test CRC 623C562F
Copy CRC 623C562F
Accurately ripped (confidence 3) [6C7A15B5] (AR v2)
Copy OK

Track 11 Filename C:\oneanight\11 - Love Lives Here (2006 Remastered Version).wav Peak level 100.0 %
Extraction speed 1.7 X
Track quality 99.9 %
Test CRC E1B44A2F
Copy CRC E1B44A2F
Accurately ripped (confidence 3) [A8CD86F8] (AR v2)
Copy OK

Track 12 Filename C:\oneanight\12 - Debris (2006 Remastered Version).wav Peak level 100.0 %
Extraction speed 2.1 X
Track quality 100.0 %
Test CRC 48AB5EE5
Copy CRC 48AB5EE5
Accurately ripped (confidence 3) [D954766E] (AR v2)
Copy OK

Track 13 Filename C:\oneanight\13 - Just Another Honky (2006 Remastered Version).wav Peak level 100.0 %
Extraction speed 2.1 X
Track quality 100.0 %
Test CRC F3933DF0
Copy CRC F3933DF0
Accurately ripped (confidence 3) [9F92E31E] (AR v2)
Copy OK

Track 14 Filename C:\oneanight\14 - On The Beach (Remastered Album Version).wav Peak level 100.0 %
Extraction speed 2.3 X
Track quality 100.0 %
Test CRC B2806F3E
Copy CRC B2806F3E
Accurately ripped (confidence 3) [1E3E3A9B] (AR v2)
Copy OK

Track 15 Filename C:\oneanight\15 - Wicked Messenger (2006 Remastered Version).wav Peak level 100.0 %
Extraction speed 2.3 X
Track quality 100.0 %
Test CRC 1C8E8DB4
Copy CRC 1C8E8DB4
Accurately ripped (confidence 3) A81A779 (AR v2)
Copy OK

Track 16 Filename C:\oneanight\16 - Too Bad (2006 Remastered Version).wav Peak level 93.0 %
Extraction speed 2.2 X
Track quality 100.0 %
Test CRC 207E21C8
Copy CRC 207E21C8
Accurately ripped (confidence 3) [23697F42] (AR v2)
Copy OK

Track 17 Filename C:\oneanight\17 - Rear Wheel Skid (Remastered Single Version).wav Peak level 100.0 %
Extraction speed 2.5 X
Track quality 100.0 %
Test CRC C8470B88
Copy CRC C8470B88
Accurately ripped (confidence 3) [8E2AD4CD] (AR v2)
Copy OK

Track 18 Filename C:\oneanight\18 - Love In Vain (Live - Fillmore East, New York 11,10,70).wav Peak level 100.0 %
Extraction speed 2.7 X
Track quality 100.0 %
Test CRC 17632109
Copy CRC 17632109
Accurately ripped (confidence 3) [F7B1C297] (AR v2)
Copy OK

All tracks accurately ripped

No errors occurred

End of status report

- CUETools DB Plugin V2.1.6

[CTDB TOCID: bjzKWTGTFYyzV.OQCgWRUA_uhAc-] found
Submit result: bjzKWTGTFYyzV.OQCgWRUA_uhAc- has been confirmed
Track | CTDB Status
1 | (10/10) Accurately ripped
2 | (10/10) Accurately ripped
3 | (10/10) Accurately ripped
4 | (10/10) Accurately ripped
5 | (10/10) Accurately ripped
6 | (10/10) Accurately ripped
7 | (10/10) Accurately ripped
8 | (10/10) Accurately ripped
9 | (10/10) Accurately ripped
10 | (10/10) Accurately ripped
11 | (10/10) Accurately ripped
12 | (10/10) Accurately ripped
13 | (10/10) Accurately ripped
14 | (10/10) Accurately ripped
15 | (10/10) Accurately ripped
16 | (10/10) Accurately ripped
17 | (10/10) Accurately ripped
18 | (10/10) Accurately ripped

==== Log checksum 9EC2FAAD58F80F810846AD483E913E172962D330A5DD0805B9F90B6924E39858 ====

foobar2000 1.2 / Dynamic Range Meter 1.1.1
log date: 2015-08-21 14:29:50

Analyzed: Faces / The Faces Anthology [Disc 1]

DR Peak RMS Duration Track

DR7 0.00 dB -8.55 dB 4:39 01-Stay With Me (2006 Remastered Version)
DR7 0.00 dB -9.54 dB 3:38 02-Miss Judy's Farm (2006 Remastered Version)
DR8 0.00 dB -9.23 dB 2:35 03-Cindy Incidentally (2006 Remastered Version)
DR8 0.00 dB -8.96 dB 3:43 04-You're So Rude (2006 Remastered Version)
DR9 0.00 dB -10.76 dB 4:14 05-Flying (2006 Remastered Version)
DR6 -0.29 dB -8.64 dB 5:05 06-That's All You Need (Remastered Album Version)
DR7 0.00 dB -9.19 dB 3:06 07-My Fault (2006 Remasterd Version)
DR8 -0.19 dB -9.72 dB 5:48 08-Had Me A Real Good Time (2006 Remastered Version)
DR12 0.00 dB -15.70 dB 3:05 09-Richmond (Remasterd Album Version)
DR8 0.00 dB -10.90 dB 5:26 10-Too Much Woman (For A Henpecked Man) [Live - Fillmore East, New York 11/10/70]
DR8 0.00 dB -9.57 dB 3:06 11-Love Lives Here (2006 Remastered Version)
DR8 0.00 dB -10.19 dB 4:34 12-Debris (2006 Remastered Version)
DR8 0.00 dB -9.63 dB 3:33 13-Just Another Honky (2006 Remastered Version)
DR11 0.00 dB -13.65 dB 4:15 14-On The Beach (Remastered Album Version)
DR9 0.00 dB -10.34 dB 4:07 15-Wicked Messenger (2006 Remastered Version)
DR6 -0.62 dB -8.23 dB 3:13 16-Too Bad (2006 Remastered Version)
DR9 0.00 dB -10.42 dB 4:44 17-Rear Wheel Skid (Remastered Single Version)
DR9 0.00 dB -11.67 dB 6:23 18-Love In Vain (Live - Fillmore East, New York 11/10/70)

Number of tracks: 18
Official DR value: DR8

Samplerate: 44100 Hz
Channels: 2
Bits per sample: 16
Bitrate: 659 kbps
Codec: FLAC

Exact Audio Copy V1.0 beta 6 from 9. April 2015

EAC extraction logfile from 13. August 2015, 3:13

Faces / The Faces Anthology [Disc 2]

Used drive : HL-DT-STBD-RE GGW-H20L Adapter: 1 ID: 0

Read mode : Secure
Utilize accurate stream : Yes
Defeat audio cache : Yes
Make use of C2 pointers : No

Read offset correction

: 667
Overread into Lead-In and Lead-Out : No
Fill up missing offset samples with silence : Yes
Delete leading and trailing silent blocks : No
Null samples used in CRC calculations : Yes
Used interface
: Native Win32 interface for Win NT & 2000
Gap handling
: Appended to previous track

Used output format : User Defined Encoder
Selected bitrate : 1024 kBit/s
Quality : High
Add ID3 tag : No
Command line compressor : C:\Program Files (x86)\Exact Audio Copy\Flac\flac.exe
Additional command line options : -8 -V -T "ARTIST=%artist%" -T "TITLE=%title%" -T "ALBUM=%albumtitle%" -T "DATE=%year%" -T "TRACKNUMBER=%tracknr%" -T "GENRE=%genre%" -T "PERFORMER=%albuminterpret%" -T "COMPOSER=%composer%" %haslyrics%--tag-from-file=LYRICS="%lyricsfile%"%haslyrics% -T "ALBUMARTIST=%albumartist%" -T "ALBUM ARTIST=%albumartist%" -T "DISCNUMBER=%cdnumber%" -T "TOTALDISCS=%totalcds%" -T "TOTALTRACKS=%numtracks%" -T "COMMENT=EAC V1.0 beta 6, Secure Mode, Test & Copy, AccurateRip, FLAC - 8 - oneanight oan" %source%

TOC of the extracted CD Track | Start | Length | Start sector | End sector
--1 | 0:00.00 | 3:31.65 | 0 | 15889 2 | 3:31.65 | 3:37.53 | 15890 | 32217 3 | 7:09.43 | 5:28.25 | 32218 | 56842 4 | 12:37.68 | 4:23.32 | 56843 | 76599 5 | 17:01.25 | 5:23.39 | 76600 | 100863 6 | 22:24.64 | 4:30.64 | 100864 | 121177 7 | 26:55.53 | 2:35.67 | 121178 | 132869 8 | 29:31.45 | 5:49.48 | 132870 | 159092 9 | 35:21.18 | 5:44.00 | 159093 | 184892
10 | 41:05.18 | 4:18.71 | 184893 | 204313
11 | 45:24.14 | 3:06.73 | 204314 | 218336
12 | 48:31.12 | 4:22.40 | 218337 | 238026
13 | 52:53.52 | 2:00.53 | 238027 | 247079
14 | 54:54.30 | 5:46.18 | 247080 | 273047
15 | 60:40.48 | 3:06.27 | 273048 | 287024
16 | 63:47.00 | 3:13.66 | 287025 | 301565
17 | 67:00.66 | 2:53.42 | 301566 | 314582
18 | 69:54.33 | 2:05.52 | 314583 | 324009

Track 1 Filename C:\oneanight\01 - Ooh La La (2006 Remastered Version).wav Pre-gap length 0:00:02.00 Peak level 93.6 %
Extraction speed 1.1 X
Track quality 100.0 %
Test CRC BDE4685C
Copy CRC BDE4685C
Accurately ripped (confidence 3) [87FD142F] (AR v2)
Copy OK

Track 2 Filename C:\oneanight\02 - Maybe I'm Amazed (Remastered Single Version).wav Peak level 98.8 %
Extraction speed 1.2 X
Track quality 100.0 %
Test CRC 01AC4432
Copy CRC 01AC4432
Accurately ripped (confidence 3) [786054CA] (AR v2)
Copy OK

Track 3 Filename C:\oneanight\03 - Memphis, Tennessee (2006 Remastered Version).wav Peak level 100.0 %
Extraction speed 1.3 X
Track quality 99.9 %
Test CRC C0A52976
Copy CRC C0A52976
Accurately ripped (confidence 3) [CCA134C5] (AR v2)
Copy OK

Track 4 Filename C:\oneanight\04 - Pool Hall Richard (2006 Remastered Single Version).wav Peak level 98.7 %
Extraction speed 1.5 X
Track quality 100.0 %
Test CRC A179739C
Copy CRC A179739C
Accurately ripped (confidence 3) [23D443A8] (AR v2)
Copy OK

Track 5 Filename C:\oneanight\05 - Bad 'N' Ruin (2006 Remastered Version).wav Peak level 100.0 %
Extraction speed 1.7 X
Track quality 100.0 %
Test CRC F9F8A664
Copy CRC F9F8A664
Accurately ripped (confidence 3) [11AB891C] (AR v2)
Copy OK

Track 6 Filename C:\oneanight\06 - You Can Make Me Dance, Sing Or Anything (2006 Remastered Single Version).wav Peak level 90.0 %
Extraction speed 1.7 X
Track quality 100.0 %
Test CRC F9B15DC3
Copy CRC F9B15DC3
Accurately ripped (confidence 3) 2662270 (AR v2)
Copy OK

Track 7 Filename C:\oneanight\07 - Last Orders Please (2006 Remastered Version).wav Peak level 91.7 %
Extraction speed 1.6 X
Track quality 100.0 %
Test CRC F2D9E2ED
Copy CRC F2D9E2ED
Accurately ripped (confidence 3) [1780AEB1] (AR v2)
Copy OK

Track 8 Filename C:\oneanight\08 - Around The Plynth (2006 Remastered Version).wav Peak level 100.0 %
Extraction speed 2.0 X
Track quality 100.0 %
Test CRC 59BACFC2
Copy CRC 59BACFC2
Accurately ripped (confidence 3) [7E4CEEFE] (AR v2)
Copy OK

Track 9 Filename C:\oneanight\09 - Three Button Hand Me Down (2006 Remastered Version).wav Peak level 89.4 %
Extraction speed 2.1 X
Track quality 100.0 %
Test CRC 69CE0B28
Copy CRC 69CE0B28
Accurately ripped (confidence 3) [1C3204F1] (AR v2)
Copy OK

Track 10 Filename C:\oneanight\10 - As Long As You Tell Him (Single Version).wav Peak level 98.1 %
Extraction speed 1.8 X
Track quality 99.9 %
Test CRC 535F7334
Copy CRC 535F7334
Accurately ripped (confidence 3) [9C4139C8] (AR v2)
Copy OK

Track 11 Filename C:\oneanight\11 - Glad And Sorry (2006 Remastered Version).wav Peak level 100.0 %
Extraction speed 2.0 X
Track quality 100.0 %
Test CRC 9149AAD2
Copy CRC 9149AAD2
Accurately ripped (confidence 3) [8CDF5B21] (AR v2)
Copy OK

Track 12 Filename C:\oneanight\12 - Pineapple And the Monkey (2006 Remastered Version).wav Peak level 97.4 %
Extraction speed 2.2 X
Track quality 100.0 %
Test CRC 1A91C10B
Copy CRC 1A91C10B
Accurately ripped (confidence 3) [D3B6CB29] (AR v2)
Copy OK

Track 13 Filename C:\oneanight\13 - Flags And Banners (2006 Remastered Alternate Version).wav Peak level 97.4 %
Extraction speed 1.9 X
Track quality 100.0 %
Test CRC 6EEED7F5
Copy CRC 6EEED7F5
Accurately ripped (confidence 3) [6826E2C8] (AR v2)
Copy OK

Track 14 Filename C:\oneanight\14 - Sweet Lady Mary (2006 Remastered Version).wav Peak level 100.0 %
Extraction speed 2.2 X
Track quality 99.9 %
Test CRC 82A1F36E
Copy CRC 82A1F36E
Accurately ripped (confidence 3) [1C018066] (AR v2)
Copy OK

Track 15 Filename C:\oneanight\15 - Silicone Grown (2006 Remastered Version).wav Peak level 93.3 %
Extraction speed 2.3 X
Track quality 100.0 %
Test CRC CA47A6D9
Copy CRC CA47A6D9
Accurately ripped (confidence 3) [1C90FA5F] (AR v2)
Copy OK

Track 16 Filename C:\oneanight\16 - Shake, Shudder Shiver (2006 Remastered Version).wav Peak level 91.6 %
Extraction speed 1.9 X
Track quality 99.9 %
Test CRC 6792A92A
Copy CRC 6792A92A
Accurately ripped (confidence 3) [7A31F191] (AR v2)
Copy OK

Track 17 Filename C:\oneanight\17 - Borstal Boys (2006 Remastered Version).wav Peak level 99.0 %
Extraction speed 2.3 X
Track quality 100.0 %
Test CRC 17FB5CFA
Copy CRC 17FB5CFA
Accurately ripped (confidence 3) [97ABCA96] (AR v2)
Copy OK

Track 18 Filename C:\oneanight\18 - Gasoline Alley (Live - Fillmore East, New York 11,10,70).wav Peak level 90.2 %
Extraction speed 2.2 X
Track quality 100.0 %
Test CRC DD3172D5
Copy CRC DD3172D5
Accurately ripped (confidence 3) [9FB60D75] (AR v2)
Copy OK

All tracks accurately ripped

No errors occurred

End of status report

- CUETools DB Plugin V2.1.6

[CTDB TOCID: 1vW.oUzmUGUnuxPR9vfdZ2_s7LE-] found
Submit result: 1vW.oUzmUGUnuxPR9vfdZ2_s7LE- has been confirmed
Track | CTDB Status
1 | (12/12) Accurately ripped
2 | (12/12) Accurately ripped
3 | (11/12) Accurately ripped
4 | (11/12) Accurately ripped
5 | (11/12) Accurately ripped
6 | (11/12) Accurately ripped
7 | (11/12) Accurately ripped
8 | (11/12) Accurately ripped
9 | (11/12) Accurately ripped
10 | (11/12) Accurately ripped
11 | (11/12) Accurately ripped
12 | (11/12) Accurately ripped
13 | (11/12) Accurately ripped
14 | (11/12) Accurately ripped
15 | (11/12) Accurately ripped
16 | (11/12) Accurately ripped
17 | (11/12) Accurately ripped
18 | (11/12) Accurately ripped

==== Log checksum 17728AC29E39B1D063B922BF772E5236F9CAB72DED2158BA5A4A21E74BD7F378 ====

foobar2000 1.2 / Dynamic Range Meter 1.1.1
log date: 2015-08-21 14:30:14

Analyzed: Faces / The Faces Anthology [Disc 2]

DR Peak RMS Duration Track

DR9 -0.57 dB -11.97 dB 3:32 01-Ooh La La (2006 Remastered Version)
DR9 -0.10 dB -11.19 dB 3:38 02-Maybe I'm Amazed (Remastered Single Version)
DR7 0.00 dB -8.60 dB 5:28 03-Memphis, Tennessee (2006 Remastered Version)
DR7 -0.11 dB -7.87 dB 4:23 04-Pool Hall Richard (2006 Remastered Single Version)
DR8 0.00 dB -9.81 dB 5:24 05-Bad 'N' Ruin (2006 Remastered Version)
DR9 -0.91 dB -11.77 dB 4:31 06-You Can Make Me Dance, Sing Or Anything (2006 Remastered Single Version)
DR9 -0.74 dB -11.10 dB 2:36 07-Last Orders Please (2006 Remastered Version)
DR10 0.00 dB -12.52 dB 5:50 08-Around The Plynth (2006 Remastered Version)
DR10 -0.97 dB -13.00 dB 5:44 09-Three Button Hand Me Down (2006 Remastered Version)
DR10 -0.16 dB -12.89 dB 4:19 10-As Long As You Tell Him (Single Version)
DR8 0.00 dB -9.85 dB 3:07 11-Glad And Sorry (2006 Remastered Version)
DR11 -0.22 dB -12.71 dB 4:23 12-Pineapple And the Monkey (2006 Remastered Version)
DR8 -0.23 dB -10.82 dB 2:01 13-Flags And Banners (2006 Remastered Alternate Version)
DR9 0.00 dB -10.80 dB 5:46 14-Sweet Lady Mary (2006 Remastered Version)
DR7 -0.60 dB -8.79 dB 3:06 15-Silicone Grown (2006 Remastered Version)
DR7 -0.75 dB -9.65 dB 3:14 16-Shake, Shudder Shiver (2006 Remastered Version)
DR8 -0.08 dB -9.45 dB 2:54 17-Borstal Boys (2006 Remastered Version)
DR11 -0.89 dB -14.15 dB 2:06 18-Gasoline Alley (Live - Fillmore East, New York 11/10/70)

Number of tracks: 18
Official DR value: DR9

Samplerate: 44100 Hz
Channels: 2
Bits per sample: 16
Bitrate: 804 kbps
Codec: FLAC

Faces - Stay With Me: Faces Anthology (2012) 2CD

Faces - Stay With Me: Faces Anthology (2012) 2CD

All thanks to original releaser - oneanight
Password: designol

DOWNLOAD:
Buy Premium To Support Me & Get Resumable Support & Max Speed


Links are Interchangeable - No Password

Direct Download

Tags: Anthology

Faces - Stay With Me: Faces Anthology (2012) 2CD Download via Hotfile Rapidshare Fileserve Megaupload & FileSonic, Faces - Stay With Me: Faces Anthology (2012) 2CD free torrent downloads included crack, serial, keygen.


Attention!Information

Members of Guest cannot leave comments.