Chihiro Yamanaka - Syncopation Hazard (2015) [SHM-CD]

Download Now

Chihiro Yamanaka - Syncopation Hazard (2015) [SHM-CD]

Chihiro Yamanaka - Syncopation Hazard (2015)
EAC | FLAC | Tracks (Cue&Log) ~ 371 Mb (incl 5%) | Scans included | Time: 00:52:21
Genre: Contemporary Jazz, Post-Bop, Neo-Bop | Label: Blue Note, Universal | # UCCQ-1043

"Chihiro Yamanaka major debut 10th anniversary commemorative work! The past few years, committed to, such as the Beatles music and classic, also It was work that was challenging even ensemble, including wind in the previous work, to commemorate the 10th anniversary of major debut This work piano trio work tackle the royal road of the standard song! latest studio album and made this work the theme of ragtime. Around the famous songs such as the song of the famous Scott Joplin that was the rage in the United States in the early 19th century, William Volcom, music other Keith Jarrett, a wide range of recording plans such as original songs of the mountains. Ragtime was focused on the new style of the mountains of the piano in pursuit of specific syncopation, works of fan coveted."


Tracklist:

01. Syncopation Hazard (04:31)
02. The Entertainer / Ritual (05:33)
03. Maple Leaf Rag (03:37)
04. The Easy Winners (05:31)
05. Dove (05:10)
06. Reflection Rag (05:15)
07. Sunflower Slow Drag / Ladies In Mercedes (05:35)
08. New Rag (05:27)
09. Heliotrope Bouquet (05:23)
10. Uniformity Rag (02:54)
11. Graceful Ghost Rag (03:22)


Exact Audio Copy V1.1 from 23. June 2015

EAC extraction logfile from 15. August 2015, 17:28

Chihiro Yamanaka / Syncopation Hazard

Used drive : HL-DT-STDVD-RAM GH22NS30 Adapter: 2 ID: 0

Read mode : Secure
Utilize accurate stream : Yes
Defeat audio cache : Yes
Make use of C2 pointers : No

Read offset correction

: 102
Overread into Lead-In and Lead-Out : Yes
Fill up missing offset samples with silence : Yes
Delete leading and trailing silent blocks : No
Null samples used in CRC calculations : Yes
Used interface
: Installed external ASPI interface
Gap handling
: Appended to previous track

Used output format : User Defined Encoder
Selected bitrate : 128 kBit/s
Quality : High
Add ID3 tag : No
Command line compressor : G:\Program Files\Exact Audio Copy\Encoder\flac.exe
Additional command line options : -V -8 -T "Genre=%genre%" -T "Artist=%artist%" -T "Title=%title%" -T "Album=%albumtitle%" -T "Date=%year%" -T "Tracknumber=%tracknr%" -T "Comment=EACv1.1 FLAC -8" %source%

TOC of the extracted CD Track | Start | Length | Start sector | End sector
--1 | 0:00.00 | 4:31.27 | 0 | 20351 2 | 4:31.27 | 5:33.23 | 20352 | 45349 3 | 10:04.50 | 3:37.23 | 45350 | 61647 4 | 13:41.73 | 5:31.07 | 61648 | 86479 5 | 19:13.05 | 5:10.21 | 86480 | 109750 6 | 24:23.26 | 5:15.15 | 109751 | 133390 7 | 29:38.41 | 5:35.12 | 133391 | 158527 8 | 35:13.53 | 5:27.58 | 158528 | 183110 9 | 40:41.36 | 5:23.48 | 183111 | 207383
10 | 46:05.09 | 2:54.04 | 207384 | 220437
11 | 48:59.13 | 3:22.01 | 220438 | 235588

Track 1 Filename F:\WAV\01 - Syncopation Hazard.wav Pre-gap length 0:00:02.00 Peak level 97.8 %
Extraction speed 4.4 X
Track quality 100.0 %
Test CRC C67D827C
Copy CRC C67D827C
Accurately ripped (confidence 1) [3FF244AB] (AR v2)
Copy OK

Track 2 Filename F:\WAV\02 - The Entertainer - Ritual.wav Peak level 97.8 %
Extraction speed 4.6 X
Track quality 99.9 %
Test CRC C2B26A99
Copy CRC C2B26A99
Accurately ripped (confidence 1) [826C6EC7] (AR v2)
Copy OK

Track 3 Filename F:\WAV\03 - Maple Leaf Rag.wav Peak level 100.0 %
Extraction speed 5.2 X
Track quality 100.0 %
Test CRC 1AF51A4B
Copy CRC 1AF51A4B
Accurately ripped (confidence 1) [E3F08CEC] (AR v2)
Copy OK

Track 4 Filename F:\WAV\04 - The Easy Winners.wav Peak level 98.5 %
Extraction speed 6.0 X
Track quality 100.0 %
Test CRC 66C18137
Copy CRC 66C18137
Accurately ripped (confidence 1) [83ACEE7B] (AR v2)
Copy OK

Track 5 Filename F:\WAV\05 - Dove.wav Peak level 97.6 %
Extraction speed 6.4 X
Track quality 100.0 %
Test CRC 632EEC4B
Copy CRC 632EEC4B
Accurately ripped (confidence 1) [1C425795] (AR v2)
Copy OK

Track 6 Filename F:\WAV\06 - Reflection Rag.wav Peak level 100.0 %
Extraction speed 6.7 X
Track quality 100.0 %
Test CRC 1934C62A
Copy CRC 1934C62A
Accurately ripped (confidence 1) [0ACA5383] (AR v2)
Copy OK

Track 7 Filename F:\WAV\07 - Sunflower Slow Drag - Ladies In Mercedes.wav Peak level 98.3 %
Extraction speed 7.1 X
Track quality 100.0 %
Test CRC 93E49576
Copy CRC 93E49576
Accurately ripped (confidence 1) [8BBC6607] (AR v2)
Copy OK

Track 8 Filename F:\WAV\08 - New Rag.wav Peak level 97.9 %
Extraction speed 6.8 X
Track quality 100.0 %
Test CRC 9685E588
Copy CRC 9685E588
Accurately ripped (confidence 1) [0DCAC713] (AR v2)
Copy OK

Track 9 Filename F:\WAV\09 - Heliotrope Bouquet.wav Peak level 97.8 %
Extraction speed 7.8 X
Track quality 100.0 %
Test CRC 0D1AA587
Copy CRC 0D1AA587
Accurately ripped (confidence 1) [54AB6D7A] (AR v2)
Copy OK

Track 10 Filename F:\WAV\10 - Uniformity Rag.wav Peak level 100.0 %
Extraction speed 7.2 X
Track quality 100.0 %
Test CRC DC1E822D
Copy CRC DC1E822D
Accurately ripped (confidence 1) B07213B (AR v2)
Copy OK

Track 11 Filename F:\WAV\11 - Graceful Ghost Rag.wav Peak level 97.8 %
Extraction speed 5.1 X
Track quality 100.0 %
Test CRC 5386A34B
Copy CRC 5386A34B
Accurately ripped (confidence 1) [33071301] (AR v2)
Copy OK

All tracks accurately ripped

No errors occurred

End of status report

==== Log checksum 0ABA71AFD72E9E5E2136698C326C80720072ED3DDFCA946B4100CCA7E495C625 ====

foobar2000 1.2 / Dynamic Range Meter 1.1.1
log date: 2015-08-21 17:44:43

Analyzed: Chihiro Yamanaka / Syncopation Hazard

DR Peak RMS Duration Track

DR10 -0.19 dB -12.92 dB 4:31 01-Syncopation Hazard
DR11 -0.19 dB -14.09 dB 5:33 02-The Entertainer / Ritual
DR11 0.00 dB -12.40 dB 3:37 03-Maple Leaf Rag
DR10 -0.12 dB -12.59 dB 5:31 04-The Easy Winners
DR13 -0.21 dB -16.29 dB 5:10 05-Dove
DR11 0.00 dB -13.32 dB 5:15 06-Reflection Rag
DR11 -0.14 dB -12.80 dB 5:35 07-Sunflower Slow Drag / Ladies In Mercedes
DR11 -0.18 dB -13.17 dB 5:28 08-New Rag
DR10 -0.19 dB -12.44 dB 5:24 09-Heliotrope Bouquet
DR10 0.00 dB -11.95 dB 2:54 10-Uniformity Rag
DR11 -0.19 dB -12.46 dB 3:22 11-Graceful Ghost Rag

Number of tracks: 11
Official DR value: DR11

Samplerate: 44100 Hz
Channels: 2
Bits per sample: 16
Bitrate: 786 kbps
Codec: FLAC

Chihiro Yamanaka - Syncopation Hazard (2015) [SHM-CD]

Chihiro Yamanaka - Syncopation Hazard (2015) [SHM-CD]

All thanks to original releaser - simple.i
Password: designol

DOWNLOAD
(Premium Recommended)


All above links are interchangable. No password

Direct Download

Tags: Chihiro, Yamanaka, Syncopation, Hazard

Chihiro Yamanaka - Syncopation Hazard (2015) [SHM-CD] Download via Hotfile Rapidshare Fileserve Megaupload & FileSonic, Chihiro Yamanaka - Syncopation Hazard (2015) [SHM-CD] free torrent downloads included crack, serial, keygen.


Attention!Information

Members of Guest cannot leave comments.