Epidaurus - Earthly Paradise (1977) [Reissue 1991]

Download Now

Epidaurus - Earthly Paradise (1977) [Reissue 1991]

Epidaurus - Earthly Paradise (1977) [Reissue 1991]
EAC Rip | FLAC (tracks+.cue+log) - 204 MB | MP3 CBR 320 kbps (LAME 3.93) - 76 MB | Covers - 41 MB
Genre: Progressive Rock | RAR 3% Rec. | Label: Garden of Delights (CD 001)

"Epidaurus were a mid seventies German progressive outfit formed around 1976. Their first album showed that they were firmly rooted in the early 70's progressive style of Yes, Pink Floyd and fellow German rockers, Eloy. This album were Symphonic rock at its best, with mellotron, lots of keyboards and a beautiful female voice. "Earthly Paradise" is a classic prog album, serving a mellifluous mélange of melodic Mellotron and Moog."

Tracklist:
01. Actions And Reactions
02. Silas Marner
03. Wings Of The Dove
04. Andas
05. Mitternachtstraum

Total time: 32:26

Exact Audio Copy V1.0 beta 3 from 29. August 2011

EAC extraction logfile from 30. March 2015, 18:08

Epidaurus / Earthly Paradise

Used drive : _NEC DVD_RW ND-3540A Adapter: 1 ID: 0

Read mode : Secure
Utilize accurate stream : Yes
Defeat audio cache : Yes
Make use of C2 pointers : No

Read offset correction

: 48
Overread into Lead-In and Lead-Out : No
Fill up missing offset samples with silence : Yes
Delete leading and trailing silent blocks : No
Null samples used in CRC calculations : Yes
Used interface
: Native Win32 interface for Win NT & 2000
Gap handling
: Appended to previous track

Used output format : User Defined Encoder
Selected bitrate : 1024 kBit/s
Quality : High
Add ID3 tag : Yes
Command line compressor : C:\Program Files (x86)\Exact Audio Copy\FLAC\FLAC.EXE
Additional command line options : -6 -V -T "ARTIST=%artist%" -T "TITLE=%title%" -T "ALBUM=%albumtitle%" -T "DATE=%year%" -T "TRACKNUMBER=%tracknr%" -T "GENRE=%genre%" -T "COMMENT=%comment%" %hascover%--picture="%coverfile%"%hascover% %source% -o %dest%

TOC of the extracted CD Track | Start | Length | Start sector | End sector
--1 | 0:00.00 | 7:01.00 | 0 | 31574 2 | 7:01.00 | 7:52.00 | 31575 | 66974 3 | 14:53.00 | 5:07.62 | 66975 | 90061 4 | 20:00.62 | 6:20.13 | 90062 | 118574 5 | 26:21.00 | 6:05.00 | 118575 | 145949

Track 1 Filename F:\Music\olaf_alien\Epidaurus - Earthly Paradise (1977, Epidaurus - 1991, Garden Of Delights)\01 - Actions and Reactions.wav Pre-gap length 0:00:02.00 Peak level 87.1 %
Extraction speed 2.2 X
Track quality 100.0 %
Test CRC CEFEFC9E
Copy CRC CEFEFC9E
Accurately ripped (confidence 4) [59CC1FB7] (AR v2)
Copy OK

Track 2 Filename F:\Music\olaf_alien\Epidaurus - Earthly Paradise (1977, Epidaurus - 1991, Garden Of Delights)\02 - Silas Marner.wav Pre-gap length 0:00:04.25 Peak level 93.9 %
Extraction speed 2.2 X
Track quality 100.0 %
Test CRC 853E9B39
Copy CRC 853E9B39
Accurately ripped (confidence 4) [CEDF1F8F] (AR v2)
Copy OK

Track 3 Filename F:\Music\olaf_alien\Epidaurus - Earthly Paradise (1977, Epidaurus - 1991, Garden Of Delights)\03 - Wings of the Dove.wav Pre-gap length 0:00:03.00 Peak level 85.8 %
Extraction speed 2.2 X
Track quality 100.0 %
Test CRC 19ADFA87
Copy CRC 19ADFA87
Accurately ripped (confidence 4) [CC914CEE] (AR v2)
Copy OK

Track 4 Filename F:\Music\olaf_alien\Epidaurus - Earthly Paradise (1977, Epidaurus - 1991, Garden Of Delights)\04 - Andas.wav Pre-gap length 0:00:04.37 Peak level 100.0 %
Extraction speed 2.2 X
Track quality 100.0 %
Test CRC 7C01682A
Copy CRC 7C01682A
Accurately ripped (confidence 4) [703C4B53] (AR v2)
Copy OK

Track 5 Filename F:\Music\olaf_alien\Epidaurus - Earthly Paradise (1977, Epidaurus - 1991, Garden Of Delights)\05 - Mitternachtstraum.wav Pre-gap length 0:00:03.50 Peak level 90.0 %
Extraction speed 2.2 X
Track quality 100.0 %
Test CRC 726F796B
Copy CRC 726F796B
Accurately ripped (confidence 4) [E683918C] (AR v2)
Copy OK

All tracks accurately ripped

No errors occurred

End of status report

==== Log checksum 51B53DFBF7C48E4EFCAFAB80CD6BC1AE4A06B1F65CBEC339551E8FD7551EBB14 ====

[CUETools log; Date: 18.08.2015 19:41:28; Version: 2.1.4]
[CTDB TOCID: HSrjsylnvoqjqN2bSJlVz4jJBQs-] found.
Track | CTDB Status
1 | (5/6) Accurately ripped
2 | (5/6) Accurately ripped
3 | (5/6) Accurately ripped
4 | (5/6) Accurately ripped
5 | (5/6) Accurately ripped
[AccurateRip ID: 0006ea11-001fef63-37079a05] found.
Track [ CRC | V2 ] Status
01 [c10156a9|59cc1fb7] (07+05/17) Accurately ripped
02 [877f6daa|cedf1f8f] (07+05/17) Accurately ripped
03 [5da2c242|cc914cee] (07+05/17) Accurately ripped
04 [97d30528|703c4b53] (07+05/17) Accurately ripped
05 [c9d20456|e683918c] (07+05/17) Accurately ripped
Offsetted by -12:
01 [f5f894d1] (02/17) Accurately ripped
02 [f42c44d2] (02/17) Accurately ripped
03 [7a586ea2] (02/17) Accurately ripped
04 [ccb4498c] (02/17) Accurately ripped
05 [65976cb2] (02/17) Accurately ripped
Offsetted by -36:
01 [5fe71121] (00/17) No match (V2 was not tested)
02 [cd85f322] (00/17) No match (V2 was not tested)
03 3c3c762 (00/17) No match (V2 was not tested)
04 [3676d254] (00/17) No match (V2 was not tested)
05 [9d223d6a] (00/17) No match (V2 was not tested)

Track Peak [ CRC32 ] [W/O NULL] [ LOG ]
-- 100,0 [E598A71B] [C7EFF991]
01 87,1 [CEFEFC9E] [EA3D97D2] CRC32
02 93,9 [853E9B39] [0F8B720F] CRC32
03 85,8 [19ADFA87] [CBA46671] CRC32
04 100,0 [7C01682A] [91787115] CRC32
05 90,0 [726F796B] [7345A81A] CRC32
Thanks to olaf_alien

See also:
Download Links:
(Premium Recommended)


All above links are interchangable. No password

Direct Download

Tags: Epidaurus, Earthly, Paradise, Reissue

Epidaurus - Earthly Paradise (1977) [Reissue 1991] Download via Hotfile Rapidshare Fileserve Megaupload & FileSonic, Epidaurus - Earthly Paradise (1977) [Reissue 1991] free torrent downloads included crack, serial, keygen.


Attention!Information

Members of Guest cannot leave comments.