Dream Theater - Live At The Marquee (1993) [ATCO Records, AMCY-574, Japan]

Download Now

Dream Theater - Live At The Marquee (1993) [ATCO Records, AMCY-574, Japan]

Dream Theater - Live At The Marquee (1993)
EAC | Flac(Image) + Cue + Log & MP3 CBR 320Kbps
ATCO Records, AMCY-574 | ~ 358 or 118 Mb | Scans Included
Progressive Rock / Progressive Metal

"This is a live recording featuring songs from When Dream and Day Unite and Images and Words. There really isn't that much going on here that can't be heard on the studio records. "A Fortune in Lies" is treated with more aggression than the original and remains one of their gems from the past..."


Tracklist:

01. Metropolis (9:34)
02. A Fortune In Lies (5:15)
03. Bombay Vindaloo (6:56)
04. Another Day (4:37)
05. Another Hand / The Killing Hand (10:47)
06. Pull Me Under (8:22)

Exact Audio Copy V0.99 prebeta 5 from 4. May 2009

Archivo Log de extracciones desde 11. Enero 2012, 16:29

Dream Theater / Live At The Marquee - Japan (AMCY-574)

Usar unidad : HL-DT-STDVDRAM GH22NS70 Adapter: 0 ID: 0

Modo de Lectura : Seguro
Utilizar Corriente Exacta : Sн
Descartar Audio cachй : Sн
Utilizar los punteros C2 : No

Correcciуn de Desplazamiento de Lectura : 667
Sobreleer tanto en Lead-In como en Lead-Out : No
Rellenar las muestras faltantes con silencios : Sн
Eliminar silencios inicial y final : No
Se han usado muestras nulas en los cбlculos CRC : No
Interfaz usada
: Interfaz propio de Win32 para Windowns NT y 2000

Formato de Salida utilizado : Compresor sin pйrdida Monkey's Audio
Bitrate seleccionado

: High Lossless Compression
Calidad
: Alta
Aсadir Etiqueta ID3

: Sн
Compresor de linea de comandos : C:\Program Files (x86)\Exact Audio Copy\MAC.exe

TOC del CD extraido Pista | Inicio | Duraciуn | Sector inicial | Sector final
1 | 0:00.00 | 9:33.47 | 0 | 43021 2 | 9:33.47 | 5:15.15 | 43022 | 66661 3 | 14:48.62 | 6:55.45 | 66662 | 97831 4 | 21:44.32 | 4:37.13 | 97832 | 118619 5 | 26:21.45 | 10:46.57 | 118620 | 167126 6 | 37:08.27 | 8:22.33 | 167127 | 204809

Gama de estados y errores

Seleccionar gama Nombre de Archivo E:\Mъsica\EAC\Dream Theater\Live At The Marquee\Dream Theater - Live At The Marquee - Japan (AMCY-574).wav Nivel Pico 99.8 %
Gama de Calidad 100.0 %
Test CRC 6E7FFF53
Copiar CRC 6E7FFF53
Copia OK

Sin Errores


Resumen AccurateRip

Pista 1 extraido de modo preciso (nivel de confianza 11) EB39208
Pista 2 extraido de modo preciso (nivel de confianza 11) [D3444836]
Pista 3 extraido de modo preciso (nivel de confianza 11) [DA4DD5C4]
Pista 4 extraido de modo preciso (nivel de confianza 11) [0104D756]
Pista 5 extraido de modo preciso (nivel de confianza 11) [8B682A69]
Pista 6 extraido de modo preciso (nivel de confianza 11) [FA372255]

Todas las pistas extraidas de modo preciso

Final del Informe

foobar2000 1.2.9 / Dynamic Range Meter 1.1.1
log date: 2015-08-22 16:19:35

Analyzed: Dream Theater / Live At The Marquee [AMCY-574]

DR Peak RMS Duration Track

DR9 -0.01 dB -10.48 dB 9:34 01-Metropolis
DR9 -0.01 dB -9.85 dB 5:15 02-A Fortune In Lies
DR10 -0.01 dB -11.51 dB 6:56 03-Bombay Vindaloo
DR10 -0.01 dB -11.61 dB 4:37 04-Another Day
DR9 -0.01 dB -10.72 dB 10:47 05-Another Hand / The Killing Hand
DR8 -0.01 dB -9.44 dB 8:22 06-Pull Me Under

Number of tracks: 6
Official DR value: DR9

Samplerate: 44100 Hz
Channels: 2
Bits per sample: 16
Bitrate: 1036 kbps
Codec: FLAC

[CUETools log; Date: 22.08.2015 15:31:34; Version: 2.1.4]
[CTDB TOCID: oSrY9.YciZDvhcDTytq4.mTRBLs-] found.
Track | CTDB Status
1 | (18/18) Accurately ripped
2 | (18/18) Accurately ripped
3 | (18/18) Accurately ripped
4 | (18/18) Accurately ripped
5 | (18/18) Accurately ripped
6 | (18/18) Accurately ripped
[AccurateRip ID: 000aa6d9-0038900b-460aaa06] found.
Track [ CRC | V2 ] Status
01 eb39208|230ac8d0 (14+15/29) Accurately ripped
02 [d3444836|023f57c5] (14+15/29) Accurately ripped
03 [da4dd5c4|a023851f] (14+15/29) Accurately ripped
04 [0104d756|2fb62ef6] (14+15/29) Accurately ripped
05 [8b682a69|ac7a394d] (14+15/29) Accurately ripped
06 [fa372255|f5924104] (14+15/29) Accurately ripped

Track Peak [ CRC32 ] [W/O NULL]
-- 99,8 [FE22DDB9] [6E7FFF53]
01 99,8 [9DFF60DB] [FE179AAD]
02 99,8 [D10D4C6C] [998A7BDF]
03 99,8 A7E3DDA [4FE2CD64]
04 99,8 [71C3C260] [5DCA9CB5]
05 99,8 [FECFFB53] [A42484B4]
06 99,8 [7BEC2527] [78F32E67]

Dream Theater - Live At The Marquee (1993) [ATCO Records, AMCY-574, Japan]

DOWNLOAD LINKS
(Premium Recommended)


Links are Interchangeable - No Password - Single Extraction

Direct Download

Tags: Theater, Marquee, Records

Dream Theater - Live At The Marquee (1993) [ATCO Records, AMCY-574, Japan] Download via Hotfile Rapidshare Fileserve Megaupload & FileSonic, Dream Theater - Live At The Marquee (1993) [ATCO Records, AMCY-574, Japan] free torrent downloads included crack, serial, keygen.


Attention!Information

Members of Guest cannot leave comments.