The Blues Brothers - Original Soundtrack Recording (1980) [1995, Reissue]

Download Now

The Blues Brothers - Original Soundtrack Recording (1980) [1995, Reissue]

The Blues Brothers - Original Soundtrack Recording (1980)
EAC Rip | FLAC (Img) + Cue + Log ~ 319 Mb | MP3 CBR320 ~ 126 Mb
Scans Included (JPG, 400 dpi) | RAR 5% Recovery
Blues, R&B | Atlantic #82787-2

"The Blues Brothers: Music from the Soundtrack was released on June 20, 1980 as the second album by the Blues Brothers Band, which also toured that year to promote the film. "Gimme Some Lovin'" was a Top 20 Billboard hit, peaking at number 18. The album was a followup to their debut, the live album, Briefcase Full of Blues. Later that year they released a second live album, Made in America, which featured the Top 40 track, "Who's Making Love"..."

Wiki | Discogs | All Music
***************

The Blues Brothers - Original Soundtrack Recording (1980) [1995, Reissue]

Track List:

01. She Caught The Katy [04:13]
02. Peter Gunn Theme [03:49]
03. Gimme Some Lovin' [03:09]
04. Shake A Tail Feather (with Ray Charles) [02:50]
05. Everybody Needs Somebody To Love [03:26]
06. The Old Landmark (with James Brown) [03:00]
07. Think (with Aretha Franklin) [03:17]
08. Theme From 'Rawhide' [02:40]
09. Minnie The Moocher (with Cab Calloway) [03:26]
10. Sweet Home Chicago [07:52]
11. Jailhouse Rock [03:20]

Exact Audio Copy V1.1 from 23. June 2015

EAC extraction logfile from 18. August 2015, 13:33

The Blues Brothers / The Blues Brothers (Original Soundtrack)

Used drive : MATSHITADVD+-RW SW830 Adapter: 1 ID: 0

Read mode : Burst

Read offset correction

: 6
Overread into Lead-In and Lead-Out : No
Fill up missing offset samples with silence : Yes
Delete leading and trailing silent blocks : No
Null samples used in CRC calculations : Yes
Used interface
: Native Win32 interface for Win NT & 2000

Used output format : User Defined Encoder
Selected bitrate : 768 kBit/s
Quality : High
Add ID3 tag : No
Command line compressor : C:\Program Files (x86)\Exact Audio Copy\FLAC\FLAC.EXE
Additional command line options : -6 -V -T "ARTIST=%artist%" -T "TITLE=%title%" -T "ALBUM=%albumtitle%" -T "DATE=%year%" -T "TRACKNUMBER=%tracknr%" -T "GENRE=%genre%" -T "COMMENT=%comment%" -T "BAND=%albuminterpret%" -T "ALBUMARTIST=%albuminterpret%" -T "COMPOSER=%composer%" %haslyrics%--tag-from-file=LYRICS="%lyricsfile%"%haslyrics% -T "DISCNUMBER=%cdnumber%" -T "TOTALDISCS=%totalcds%" -T "TOTALTRACKS=%numtracks%" %hascover%--picture="%coverfile%"%hascover% %source% -o %dest%

TOC of the extracted CD Track | Start | Length | Start sector | End sector
--1 | 0:00.32 | 4:12.13 | 32 | 18944 2 | 4:12.45 | 3:48.72 | 18945 | 36116 3 | 8:01.42 | 3:08.15 | 36117 | 50231 4 | 11:09.57 | 2:49.68 | 50232 | 62974 5 | 13:59.50 | 3:25.12 | 62975 | 78361 6 | 17:24.62 | 2:59.08 | 78362 | 91794 7 | 20:23.70 | 3:16.22 | 91795 | 106516 8 | 23:40.17 | 2:39.18 | 106517 | 118459 9 | 26:19.35 | 3:25.40 | 118460 | 133874
10 | 29:45.00 | 7:51.55 | 133875 | 169254
11 | 37:36.55 | 3:19.72 | 169255 | 184251

Range status and errors

Selected range Filename C:\Users\Boris\Desktop\BluBro2\The Blues Brothers - The Blues Brothers (Original Soundtrack).wav Peak level 98.8 %
Extraction speed 24.7 X
Test CRC C25DC3CE
Copy CRC C25DC3CE
Copy OK

No errors occurred


AccurateRip summary

Track 1 accurately ripped (confidence 33) [6EC3BF45] (AR v2)
Track 2 accurately ripped (confidence 33) [2961AEB4] (AR v2)
Track 3 accurately ripped (confidence 33) [DB75AD44] (AR v2)
Track 4 accurately ripped (confidence 33) [36186E9C] (AR v2)
Track 5 accurately ripped (confidence 33) [88782988] (AR v2)
Track 6 accurately ripped (confidence 33) [83DFC721] (AR v2)
Track 7 accurately ripped (confidence 33) [CB956D43] (AR v2)
Track 8 accurately ripped (confidence 33) [08147899] (AR v2)
Track 9 accurately ripped (confidence 33) [9490E301] (AR v2)
Track 10 accurately ripped (confidence 32) [657495E6] (AR v2)
Track 11 accurately ripped (confidence 32) [C9925631] (AR v2)

All tracks accurately ripped

End of status report

- CUETools DB Plugin V2.1.6

[CTDB TOCID: cKlmOxPPNB73VnB0tgmdvTAjpKQ-] found
Submit result: cKlmOxPPNB73VnB0tgmdvTAjpKQ- has been confirmed
Track | CTDB Status
1 | (40/40) Accurately ripped
2 | (40/40) Accurately ripped
3 | (40/40) Accurately ripped
4 | (40/40) Accurately ripped
5 | (40/40) Accurately ripped
6 | (40/40) Accurately ripped
7 | (40/40) Accurately ripped
8 | (40/40) Accurately ripped
9 | (40/40) Accurately ripped
10 | (40/40) Accurately ripped
11 | (40/40) Accurately ripped

==== Log checksum E562DFEC51AEF603494AF9CE1AB1FDF7213C0C8B332EAA5C243D74621EF6F2A6 ====

foobar2000 1.2.6 / Dynamic Range Meter 1.1.1
log date: 2015-08-22 14:40:35

Analyzed: The Blues Brothers / The Blues Brothers (Original Soundtrack)

DR Peak RMS Duration Track

DR10 -0.50 dB -12.48 dB 4:12 01-She Caught The Katy
DR11 -0.50 dB -12.79 dB 3:49 02-Peter Gunn Theme
DR9 -0.50 dB -10.80 dB 3:08 03-Gimme Some Lovin'
DR10 -0.10 dB -11.71 dB 2:50 04-Shake A Tail Feather (with Ray Charles)
DR8 -0.50 dB -10.38 dB 3:25 05-Everybody Needs Somebody To Love
DR9 -0.10 dB -10.87 dB 2:59 06-The Old Landmark (with James Brown)
DR9 -0.10 dB -10.81 dB 3:16 07-Think (with Aretha Franklin)
DR9 -0.50 dB -11.99 dB 2:39 08-Theme From 'Rawhide'
DR10 -1.00 dB -13.04 dB 3:26 09-Minnie The Moocher (with Cab Calloway)
DR10 -0.50 dB -11.94 dB 7:52 10-Sweet Home Chicago
DR9 -0.50 dB -10.20 dB 3:20 11-Jailhouse Rock

Number of tracks: 11
Official DR value: DR9

Samplerate: 44100 Hz
Channels: 2
Bits per sample: 16
Bitrate: 948 kbps
Codec: FLAC

[CUETools log; Date: 22.08.2015 14:40:41; Version: 2.1.5]
Pregap length 00:00:32.
[CTDB TOCID: cKlmOxPPNB73VnB0tgmdvTAjpKQ-] found.
Track | CTDB Status
1 | (41/41) Accurately ripped
2 | (41/41) Accurately ripped
3 | (41/41) Accurately ripped
4 | (41/41) Accurately ripped
5 | (41/41) Accurately ripped
6 | (41/41) Accurately ripped
7 | (41/41) Accurately ripped
8 | (41/41) Accurately ripped
9 | (41/41) Accurately ripped
10 | (41/41) Accurately ripped
11 | (41/41) Accurately ripped
[AccurateRip ID: 001008c1-008aed1c-8c09980b] found.
Track [ CRC | V2 ] Status
01 [63dfae91|6ec3bf45] (049+033/238) Accurately ripped
02 [a8f19458|2961aeb4] (051+033/241) Accurately ripped
03 [ccd87b1b|db75ad44] (052+033/236) Accurately ripped
04 [08cdc20d|36186e9c] (051+033/236) Accurately ripped
05 [956e616d|88782988] (052+033/238) Accurately ripped
06 [490dc57e|83dfc721] (051+033/234) Accurately ripped
07 [76cf8580|cb956d43] (051+033/235) Accurately ripped
08 [f0685c38|08147899] (052+033/240) Accurately ripped
09 [74c1c341|9490e301] (052+033/237) Accurately ripped
10 [1b597be8|657495e6] (051+032/232) Accurately ripped
11 [3040167b|c9925631] (052+032/231) Accurately ripped
Offsetted by -1246:
01 [d4d3f849] (005/238) Accurately ripped
02 [ca69ddde] (005/241) Accurately ripped
03 [58ea6ced] (005/236) Accurately ripped
04 [6e0dada7] (005/236) Accurately ripped
05 [1dccd3f7] (005/238) Accurately ripped
06 [5837be6d] (005/234) Accurately ripped
07 [a96e92da] (004/235) Accurately ripped
08 [efc661e4] (005/240) Accurately ripped
09 e031397 (005/237) Accurately ripped
10 [5457506c] (005/232) Accurately ripped
11 [d6f953fc] (005/231) Accurately ripped
Offsetted by -893:
01 [76711a72] (010/238) Accurately ripped
02 [c822c3e8] (010/241) Accurately ripped
03 [213f5716] (010/236) Accurately ripped
04 [6452495e] (010/236) Accurately ripped
05 [f03487df] (010/238) Accurately ripped
06 [338bbae7] (010/234) Accurately ripped
07 [73fd9cc6] (010/235) Accurately ripped
08 [d52da125] (010/240) Accurately ripped
09 [c846b4b6] (010/237) Accurately ripped
10 [e85597c3] (010/232) Accurately ripped
11 [65ab1ce0] (010/231) Accurately ripped
Offsetted by -664:
01 [9ae9d516] (003/238) Accurately ripped
02 [f12688d5] (003/241) Accurately ripped
03 [d4391195] (003/236) Accurately ripped
04 [631e5285] (003/236) Accurately ripped
05 [de8ac62b] (003/238) Accurately ripped
06 [3228c836] (003/234) Accurately ripped
07 [32a258c4] (003/235) Accurately ripped
08 b124c6d (003/240) Accurately ripped
09 [dcf35b48] (003/237) Accurately ripped
10 [5b0bc28b] (003/232) Accurately ripped
11 [513c0a2d] (003/231) Accurately ripped
Offsetted by -340:
01 [5a573e69] (038/238) Accurately ripped
02 [e1cfc93a] (038/241) Accurately ripped
03 [dceccdc0] (036/236) Accurately ripped
04 [d24a48cc] (037/236) Accurately ripped
05 [922efc7f] (038/238) Accurately ripped
06 [8b2f3c65] (034/234) Accurately ripped
07 [cfae91fc] (037/235) Accurately ripped
08 [3fb73d80] (038/240) Accurately ripped
09 [efe4ef67] (037/237) Accurately ripped
10 [e900fa72] (036/232) Accurately ripped
11 [c9503c23] (035/231) Accurately ripped
Offsetted by -117:
01 [d1a95186] (017/238) Accurately ripped
02 [fdfe2af4] (016/241) Accurately ripped
03 [4b5cffdd] (016/236) Accurately ripped
04 [957f7da1] (016/236) Accurately ripped
05 [32c07342] (016/238) Accurately ripped
06 [1831d3f9] (016/234) Accurately ripped
07 [8ad96c7b] (016/235) Accurately ripped
08 [2a296184] (017/240) Accurately ripped
09 [8f38d350] (016/237) Accurately ripped
10 8edc9ee (016/232) Accurately ripped
11 [3633aada] (015/231) Accurately ripped
Offsetted by -334:
01 [03a7489a] (000/238) No match
02 [e8d3a574] (002/241) Accurately ripped
03 5bf03bb (000/236) No match
04 [0e2e7818] (000/236) No match
05 [15a7c409] (000/238) No match
06 [ae98966e] (002/234) Accurately ripped
07 [c5e443ea] (000/235) No match
08 [88932180] (000/240) No match
09 [fd92d9ad] (000/237) No match
10 [adb9827c] (000/232) No match
11 [5d123428] (000/231) No match

Track Peak [ CRC32 ] [W/O NULL] [ LOG ]
-- 98,8 [C25DC3CE] [0ACFAF1B] CRC32
01 94,4 [78CF2677] [0CAE7FEF]
02 94,4 [A21E0818] [C903D09F]
03 94,4 [8CEDE413] [01CBA85D]
04 98,8 [2BC46F8D] [8FD2C4CA]
05 94,4 [A93ADF0A] [641C7D74]
06 98,8 [3DDCB4F3] [0606D30F]
07 98,8 [F736D599] [EF72A0DF]
08 94,4 [E7F941E7] [28B1A804]
09 89,1 [EF62EA8D] [F66D2D4C]
10 94,4 [8F9DCFD3] [5FF9ED98]
11 94,4 [2B005128] [6497D65B]

The Blues Brothers - Original Soundtrack Recording (1980) [1995, Reissue]

All thanks go to Boris1


Download Links:
(Premium Recommended)


All above links are interchangable. No password

Direct Download

Tags: Brothers, Original, Soundtrack, Recording, Reissue

The Blues Brothers - Original Soundtrack Recording (1980) [1995, Reissue] Download via Hotfile Rapidshare Fileserve Megaupload & FileSonic, The Blues Brothers - Original Soundtrack Recording (1980) [1995, Reissue] free torrent downloads included crack, serial, keygen.


Attention!Information

Members of Guest cannot leave comments.