Radiomöbel - 2 Studio Albums (1975-1978) [Reissue 2005]

Download Now

Radiomöbel - 2 Studio Albums (1975-1978) [Reissue 2005]

Radiomöbel - 2 Studio Albums (1975-1978) [Reissue 2005]
EAC Rip | FLAC (tracks+.cue+log) - 493 MB | MP3 CBR 320 kbps (LAME 3.93) - 204 MB | Covers - 79 MB
Genre: Progressive/Psychedelic Rock | RAR 3% Rec. | Label: Transubstans Records

"Tramseböx (1975). Debut album from Swedish psych/prog band. 9 tracks of ambitious, spooky 1970s psychedelia with atmospheric and cosmic sounds. With Swedish lyrics and focus on guitars, that are often quite fuzzed out. Compared to their 2nd album, "Gudang Garam", this is more in the direction of hippie psych, at times reminiscent of both Älgarnas Trädgård as well as Träd, Gräs & Stenar. Even seen them being compared to Kennelmus and Bent Wwind. The sound have been cleaned up from the mastertape. First time on CD..."

Radiomöbel - 2 Studio Albums (1975-1978) [Reissue 2005]

Radiomöbel - Tramseböx (1975) [Reissue 2005]
EAC Rip | FLAC (tracks+.cue+log) - 223 MB | MP3 CBR 320 kbps (LAME 3.93) - 101 MB | Covers - 33 MB
Genre: Progressive/Psychedelic Rock | RAR 3% Rec. | Label: Transubstans Records (TRANS014)

Tracklist:
01. Tramseböx
02. Vi Hatar Stenar
03. Den Nya
04. Hav
05. Baksidan I Moll
06. Dagen
07. Den Sista Vännen
08. Three Miles
09. Våra Ord
10. Tramseböx

Total time: 42:07

Exact Audio Copy V1.0 beta 1 from 15. November 2010

EAC extraction logfile from 3. January 2012, 2:24

Radiomobel / Tramsebox

Used drive : Optiarc DVD RW AD-7240S Adapter: 2 ID: 1

Read mode : Secure
Utilize accurate stream : Yes
Defeat audio cache : Yes
Make use of C2 pointers : No

Read offset correction

: 48
Overread into Lead-In and Lead-Out : No
Fill up missing offset samples with silence : Yes
Delete leading and trailing silent blocks : No
Null samples used in CRC calculations : Yes
Used interface
: Native Win32 interface for Win NT & 2000
Gap handling
: Appended to previous track

Used output format : User Defined Encoder
Selected bitrate : 896 kBit/s
Quality : High
Add ID3 tag : No
Command line compressor : C:\Program Files (x86)\Exact Audio Copy New\FLAC\FLAC.EXE
Additional command line options : -8 -V -T "ARTIST=%a" -T "TITLE=%t" -T "ALBUM=%g" -T "DATE=%y" -T "TRACKNUMBER=%n" -T "GENRE=%m" -T "COMMENT=EAC FLAC -8" %s

TOC of the extracted CD Track | Start | Length | Start sector | End sector
--1 | 0:00.00 | 0:04.00 | 0 | 299 2 | 0:04.00 | 4:54.54 | 300 | 22403 3 | 4:58.54 | 2:17.57 | 22404 | 32735 4 | 7:16.36 | 8:58.15 | 32736 | 73100 5 | 16:14.51 | 4:20.28 | 73101 | 92628 6 | 20:35.04 | 8:20.72 | 92629 | 130200 7 | 28:56.01 | 3:03.29 | 130201 | 143954 8 | 31:59.30 | 3:54.04 | 143955 | 161508 9 | 35:53.34 | 6:04.26 | 161509 | 188834
10 | 41:57.60 | 0:09.45 | 188835 | 189554

Track 1 Filename C:\Lossless\Radiomobel - Collection [flac]\1975 - Tramsebox\01 - Tramsebox.wav Pre-gap length 0:00:02.00 Peak level 10.3 %
Extraction speed 0.1 X
Track quality 97.2 %
Test CRC 3B01E8A4
Copy CRC 3B01E8A4
Track not present in AccurateRip database
Copy OK

Track 2 Filename C:\Lossless\Radiomobel - Collection [flac]\1975 - Tramsebox\02 - Vi Hatar Stenar.wav Peak level 94.0 %
Extraction speed 2.4 X
Track quality 100.0 %
Test CRC C41E74F3
Copy CRC C41E74F3
Accurately ripped (confidence 1) [09867F65]
Copy OK

Track 3 Filename C:\Lossless\Radiomobel - Collection [flac]\1975 - Tramsebox\03 - Den Nya.wav Peak level 64.8 %
Extraction speed 2.3 X
Track quality 100.0 %
Test CRC 7FED7A9F
Copy CRC 7FED7A9F
Accurately ripped (confidence 1) [1DAE2E00]
Copy OK

Track 4 Filename C:\Lossless\Radiomobel - Collection [flac]\1975 - Tramsebox\04 - Hav.wav Peak level 100.0 %
Extraction speed 3.1 X
Track quality 100.0 %
Test CRC A7D017A5
Copy CRC A7D017A5
Accurately ripped (confidence 1) [1C7B9F81]
Copy OK

Track 5 Filename C:\Lossless\Radiomobel - Collection [flac]\1975 - Tramsebox\05 - Baksidan I Moll.wav Peak level 62.6 %
Extraction speed 3.3 X
Track quality 100.0 %
Test CRC AC47D9DE
Copy CRC AC47D9DE
Accurately ripped (confidence 1) [E6BEE774]
Copy OK

Track 6 Filename C:\Lossless\Radiomobel - Collection [flac]\1975 - Tramsebox\06 - Dagen.wav Peak level 61.7 %
Extraction speed 3.8 X
Track quality 100.0 %
Test CRC 23BA5130
Copy CRC 23BA5130
Accurately ripped (confidence 1) FEEB613
Copy OK

Track 7 Filename C:\Lossless\Radiomobel - Collection [flac]\1975 - Tramsebox\07 - Den Siste Vannen.wav Peak level 80.8 %
Extraction speed 3.6 X
Track quality 100.0 %
Test CRC 18C36939
Copy CRC 18C36939
Accurately ripped (confidence 1) [E320DBB3]
Copy OK

Track 8 Filename C:\Lossless\Radiomobel - Collection [flac]\1975 - Tramsebox\08 - Three Miles.wav Peak level 85.4 %
Extraction speed 3.9 X
Track quality 100.0 %
Test CRC DD1DDEC0
Copy CRC DD1DDEC0
Accurately ripped (confidence 1) [A506FD58]
Copy OK

Track 9 Filename C:\Lossless\Radiomobel - Collection [flac]\1975 - Tramsebox\09 - Vara Ord.wav Peak level 71.0 %
Extraction speed 4.3 X
Track quality 100.0 %
Test CRC 6D849562
Copy CRC 6D849562
Accurately ripped (confidence 1) [D9A6437A]
Copy OK

Track 10 Filename C:\Lossless\Radiomobel - Collection [flac]\1975 - Tramsebox\10 - onus.wav Peak level 25.3 %
Extraction speed 0.9 X
Track quality 100.0 %
Test CRC 675C663F
Copy CRC 675C663F
Accurately ripped (confidence 1) [73474F4B]
Copy OK

9 track(s) accurately ripped
1 track(s) not present in the AccurateRip database

Some tracks could not be verified as accurate

No errors occurred

End of status report

==== Log checksum 5DF129BF77DE536B20709E9FA885E58714DE4D9BA83B7D9CB7246B875C4515D8 ====

[CUETools log; Date: 13.08.2015 9:23:36; Version: 2.1.4]
[CTDB TOCID: zBcQfJHAi4FIlChUXNU1rfMbKYI-] disk not present in database.
[AccurateRip ID: 000fcbd9-00836147-7b09df0a] found.
Track [ CRC | V2 ] Status
01 [47727c33|7d616d55] (0+0/1) No match
02 [09867f65|a3068ef0] (1+1/3) Accurately ripped
03 [1dae2e00|3b1baa40] (1+1/3) Accurately ripped
04 [1c7b9f81|b80d7ded] (1+1/3) Accurately ripped
05 [e6bee774|fc04a139] (1+1/3) Accurately ripped
06 feeb613|6af9cc9c (1+1/3) Accurately ripped
07 [e320dbb3|2c561c68] (1+1/3) Accurately ripped
08 [a506fd58|497baf11] (1+1/3) Accurately ripped
09 [d9a6437a|0b4b6efa] (1+1/3) Accurately ripped
10 [73474f4b|37556e6e] (1+1/3) Accurately ripped

Track Peak [ CRC32 ] [W/O NULL] [ LOG ]
-- 100,0 [7307E571] [3E317BC5]
01 10,3 [3B01E8A4] [19B38A49] CRC32
02 94,0 [C41E74F3] [EB6DF61A] CRC32
03 64,8 [7FED7A9F] [F3B32BC0] CRC32
04 100,0 [A7D017A5] [73E41EF1] CRC32
05 62,6 [AC47D9DE] [9ECCF8F0] CRC32
06 61,7 [23BA5130] [49B2B958] CRC32
07 80,7 [18C36939] [99D51C09] CRC32
08 85,4 [DD1DDEC0] [E1971B2A] CRC32
09 71,0 [6D849562] [29CB0879] CRC32
10 25,3 [675C663F] [C11374D8] CRC32

Radiomöbel - 2 Studio Albums (1975-1978) [Reissue 2005]

Radiomöbel - Gudang Garam (1978) [Reissue 2005]
EAC Rip | FLAC (tracks+.cue+log) - 270 MB | MP3 CBR 320 kbps (LAME 3.93) - 103 MB | Covers - 46 MB
Genre: Progressive/Psychedelic Rock | RAR 3% Rec. | Label: Transubstans Records (TRANS003)

Tracklist:
01. Gudang Garam
02. Höstsång
03. Fasa
04. E-matt
05. Vaggvisa
06. Kylle
07. Flugornos Morgon
08. Finalen

Total time: 44:00

Exact Audio Copy V1.0 beta 1 from 15. November 2010

EAC extraction logfile from 3. January 2012, 2:58

Radiomobel / Gudang Garam

Used drive : Optiarc DVD RW AD-7240S Adapter: 2 ID: 1

Read mode : Secure
Utilize accurate stream : Yes
Defeat audio cache : Yes
Make use of C2 pointers : No

Read offset correction

: 48
Overread into Lead-In and Lead-Out : No
Fill up missing offset samples with silence : Yes
Delete leading and trailing silent blocks : No
Null samples used in CRC calculations : Yes
Used interface
: Native Win32 interface for Win NT & 2000
Gap handling
: Appended to previous track

Used output format : User Defined Encoder
Selected bitrate : 896 kBit/s
Quality : High
Add ID3 tag : No
Command line compressor : C:\Program Files (x86)\Exact Audio Copy New\FLAC\FLAC.EXE
Additional command line options : -8 -V -T "ARTIST=%a" -T "TITLE=%t" -T "ALBUM=%g" -T "DATE=%y" -T "TRACKNUMBER=%n" -T "GENRE=%m" -T "COMMENT=EAC FLAC -8" %s

TOC of the extracted CD Track | Start | Length | Start sector | End sector
--1 | 0:00.00 | 0:04.00 | 0 | 299 2 | 0:04.00 | 6:51.33 | 300 | 31157 3 | 6:55.33 | 7:11.16 | 31158 | 63498 4 | 14:06.49 | 8:22.00 | 63499 | 101148 5 | 22:28.49 | 3:42.21 | 101149 | 117819 6 | 26:10.70 | 0:39.68 | 117820 | 120812 7 | 26:50.63 | 15:47.74 | 120813 | 191911 8 | 42:38.62 | 1:21.37 | 191912 | 198023

Track 1 Filename C:\Lossless\Radiomobel - Collection [flac]\1978 - Gudang Garam\01 - Gudang Garam.wav Pre-gap length 0:00:02.00 Peak level 71.2 %
Extraction speed 0.1 X
Track quality 97.2 %
Test CRC F2606283
Copy CRC F2606283
Track not present in AccurateRip database
Copy OK

Track 2 Filename C:\Lossless\Radiomobel - Collection [flac]\1978 - Gudang Garam\02 - Hostsang.wav Peak level 100.0 %
Extraction speed 2.4 X
Track quality 99.9 %
Test CRC 86550DCD
Copy CRC 86550DCD
Track not present in AccurateRip database
Copy OK

Track 3 Filename C:\Lossless\Radiomobel - Collection [flac]\1978 - Gudang Garam\03 - Fasa.wav Peak level 100.0 %
Extraction speed 3.1 X
Track quality 100.0 %
Test CRC 314FD5AF
Copy CRC 314FD5AF
Track not present in AccurateRip database
Copy OK

Track 4 Filename C:\Lossless\Radiomobel - Collection [flac]\1978 - Gudang Garam\04 - E-matt.wav Peak level 100.0 %
Extraction speed 3.6 X
Track quality 100.0 %
Test CRC 6D8FD7A1
Copy CRC 6D8FD7A1
Track not present in AccurateRip database
Copy OK

Track 5 Filename C:\Lossless\Radiomobel - Collection [flac]\1978 - Gudang Garam\05 - Vaggvisa.wav Peak level 100.0 %
Extraction speed 3.6 X
Track quality 100.0 %
Test CRC 7F7ADF0D
Copy CRC 7F7ADF0D
Track not present in AccurateRip database
Copy OK

Track 6 Filename C:\Lossless\Radiomobel - Collection [flac]\1978 - Gudang Garam\06 - Kylle.wav Peak level 100.0 %
Extraction speed 2.2 X
Track quality 100.0 %
Test CRC 1EF33111
Copy CRC 1EF33111
Track not present in AccurateRip database
Copy OK

Track 7 Filename C:\Lossless\Radiomobel - Collection [flac]\1978 - Gudang Garam\07 - Flugornas Morgon.wav Peak level 100.0 %
Extraction speed 4.5 X
Track quality 100.0 %
Test CRC E3B57AB6
Copy CRC E3B57AB6
Track not present in AccurateRip database
Copy OK

Track 8 Filename C:\Lossless\Radiomobel - Collection [flac]\1978 - Gudang Garam\08 - Finalen.wav Peak level 100.0 %
Extraction speed 3.4 X
Track quality 100.0 %
Test CRC 3DB6BE51
Copy CRC 3DB6BE51
Track not present in AccurateRip database
Copy OK

None of the tracks are present in the AccurateRip database

No errors occurred

End of status report

==== Log checksum 6E6CF7E27CECFAC665E7914F402B84B0304E2F29301BE1D5FF0FBE8D4EDAF388 ====

[CUETools log; Date: 13.08.2015 9:24:10; Version: 2.1.4]
[CTDB TOCID: oSzr.ugRM.QQsOqSnLa9V6XfOBo-] found.
Track | CTDB Status
1 | (1/1) Accurately ripped
2 | (1/1) Accurately ripped
3 | (1/1) Accurately ripped
4 | (1/1) Accurately ripped
5 | (1/1) Accurately ripped
6 | (1/1) Accurately ripped
7 | (1/1) Accurately ripped
8 | (1/1) Accurately ripped
[AccurateRip ID: 000c9563-00575723-570a5008] found.
Track [ CRC | V2 ] Status
01 [d98e14c9|a3081f41] (0+0/1) No match
02 [a1984e39|85f823b1] (2+0/2) Accurately ripped
03 [735d8624|660ee252] (2+0/2) Accurately ripped
04 [6427a61e|d494f7a6] (2+0/2) Accurately ripped
05 666a08a|d2d5e926 (2+0/2) Accurately ripped
06 d269a4e|ba24cfe9 (2+0/2) Accurately ripped
07 [92a292f6|273b56a6] (2+0/2) Accurately ripped
08 [ec613c90|f82a994a] (2+0/2) Accurately ripped
Offsetted by -103:
01 [5a6a00d0] (1/1) Accurately ripped
02 [c22844e1] (0/2) No match
03 [29835e9c] (0/2) No match
04 6c58613 (0/2) No match
05 [fb24062b] (0/2) No match
06 [6df961ee] (0/2) No match
07 [678a84e8] (0/2) No match
08 [0469e1ba] (0/2) No match

Track Peak [ CRC32 ] [W/O NULL] [ LOG ]
-- 100,0 [17AB0B45] 51B59B5
01 71,2 [F2606283] [E8037AF7] CRC32
02 100,0 [86550DCD] [36D88859] CRC32
03 100,0 [314FD5AF] [C862EC36] CRC32
04 100,0 [6D8FD7A1] 3849259 CRC32
05 100,0 [7F7ADF0D] [A87E2F8A] CRC32
06 100,0 [1EF33111] F4F75A4 CRC32
07 100,0 [E3B57AB6] [DD081387] CRC32
08 100,0 [3DB6BE51] [D4EF3755] CRC32

Thanks to abrelapuertaninyo
Download Links:
(Premium Recommended)


All above links are interchangable. No password

Direct Download

Tags: Radiom, Studio, Albums, Reissue

Radiomöbel - 2 Studio Albums (1975-1978) [Reissue 2005] Download via Hotfile Rapidshare Fileserve Megaupload & FileSonic, Radiomöbel - 2 Studio Albums (1975-1978) [Reissue 2005] free torrent downloads included crack, serial, keygen.


Attention!Information

Members of Guest cannot leave comments.