Alif Laila & Ustad Tari Khan - Sangam: A Coming Together (2007)

Download Now

Alif Laila & Ustad Tari Khan - Sangam: A Coming Together (2007)

Alif Laila & Ustad Tari Khan - Sangam A Coming Together (2007)
EAC Rip | FLAC with CUE and log | scans | 482 mb
MP3 CBR 320kbps | RAR | 167 mb
Genre: Indian classical

Sangam: A Coming Together is a 2007 CD by sitarist Alif Laila and tabla player Ustad Tari Khan. The CD was released by Mapleshade and features three ragas.
Alif Laila & Ustad Tari Khan - Sangam: A Coming Together (2007)

1. Raag Basant (32:04)
2. Raag Desh (25:39)
3. Raag Shivaranjani (14:14)

Exact Audio Copy V1.1 from 23. June 2015

EAC extraction logfile from 19. August 2015, 14:36

Alif Laila & Ustad Tari Khan / Sangam: A Coming Together

Used drive : TEAC DVD-ROM DV-28SW Adapter: 1 ID: 0

Read mode : Secure
Utilize accurate stream : Yes
Defeat audio cache : Yes
Make use of C2 pointers : No

Read offset correction

: 6
Overread into Lead-In and Lead-Out : No
Fill up missing offset samples with silence : Yes
Delete leading and trailing silent blocks : No
Null samples used in CRC calculations : Yes
Used interface
: Native Win32 interface for Win NT & 2000
Gap handling
: Appended to previous track

Used output format : Internal WAV Routines
Sample format : 44.100 Hz; 16 Bit; Stereo

TOC of the extracted CD Track | Start | Length | Start sector | End sector
--1 | 0:00.00 | 32:04.54 | 0 | 144353 2 | 32:04.54 | 25:39.39 | 144354 | 259817 3 | 57:44.18 | 14:14.62 | 259818 | 323929

Track 1 Filename C:\My Documents\My FLAC\Alif Laila & Ustad Tari Khan - Sangam A Coming Together (2007) [FLAC]\01 - Raag Basant.wav Pre-gap length 0:00:02.00 Peak level 100.0 %
Extraction speed 4.0 X
Track quality 100.0 %
Test CRC 77FD03A8
Copy CRC 77FD03A8
Accurately ripped (confidence 2) [41FAE8FB] (AR v2)
Copy OK

Track 2 Filename C:\My Documents\My FLAC\Alif Laila & Ustad Tari Khan - Sangam A Coming Together (2007) [FLAC]\02 - Raag Desh.wav Pre-gap length 0:00:03.00 Peak level 87.0 %
Extraction speed 5.5 X
Track quality 100.0 %
Test CRC DFD89F0A
Copy CRC DFD89F0A
Accurately ripped (confidence 2) [5E9D87C8] (AR v2)
Copy OK

Track 3 Filename C:\My Documents\My FLAC\Alif Laila & Ustad Tari Khan - Sangam A Coming Together (2007) [FLAC]\03 - Raag Shivaranjani.wav Pre-gap length 0:00:03.00 Peak level 86.4 %
Extraction speed 6.1 X
Track quality 100.0 %
Test CRC F6D57F64
Copy CRC F6D57F64
Accurately ripped (confidence 2) [AB8B3EE4] (AR v2)
Copy OK

All tracks accurately ripped

No errors occurred

End of status report

- CUETools DB Plugin V2.1.6

[CTDB TOCID: 8mkGJsVVEfblIqEgiWErNi_FGAw-] found
Submit result: already submitted
Track | CTDB Status
1 | (2/2) Accurately ripped
2 | (2/2) Accurately ripped
3 | (2/2) Accurately ripped

Alif Laila & Ustad Tari Khan - Sangam: A Coming Together (2007)

DOWNLOAD LINKS
(Premium Recommended)


Links are Interchangeable - No Password - Single Extraction

Direct Download

Tags: Sangam, Coming, Together

Alif Laila & Ustad Tari Khan - Sangam: A Coming Together (2007) Download via Hotfile Rapidshare Fileserve Megaupload & FileSonic, Alif Laila & Ustad Tari Khan - Sangam: A Coming Together (2007) free torrent downloads included crack, serial, keygen.


Attention!Information

Members of Guest cannot leave comments.