The Darts - Get It! The Very Best Of Darts (2CD, 2011) RE-UP

Download Now

The Darts - Get It! The Very Best Of Darts (2CD, 2011) RE-UP

Darts - Get It! The Very Best Of Darts (2CD, 2011)
EAC-FLAC(tracks) with CUEs & LOGs - 742 MB | Full Scans | MP3 CBR 320 Kbps - 259 MB
Pop Rock / Doo-Wop Revival | TT - 113 minutes | Music Club Deluxe / Demon Records U.K. # MCDLX 517

"Darts were a nine-piece British doo-wop revival band that achieved chart success in the late 1970s and early 1980s. With four singers, five backing musicians and a repertoire that mixed '50s nostalgia with punky '70s energy, Darts had it all. Hits like `Daddy Cool', `Come Back My Love', `The Boy From New York City' and `It's Raining' established them as ones to watch, while they were so hot live that in 1978 they sold more tickets in the UK than any other act. This package contains all the hits, stage favorites and more. This collection features highlights from across four hit albums including two Top 10 albums as well as six Top 10 singles. The Darts is still in the Top 500 selling list according to the Guinness Book of British Hit Singles."

"allmusic.com biography: After the demise of the UK's John Dummer Blues Band, Iain Thompson (bass) and drummer John Dummer joined forces with Hammy Howell (b. 24 October 1954, London, England, d. 13 January 1999, Torquay, Devon, England; keyboards), Horatio Hornblower (b. Nigel Trubridge; saxophone) and singers Rita Ray, Griff Fender (Ian Collier), bass player Den Hegarty and Bob Fish (ex-Mickey Jupp) as revivalists mining the vocal harmony seam of rock ‘n' roll. Dave Kelly, an ex-Dummer guitarist, was a more transient participant. Bursting upon metropolitan clubland in the late 70s, Darts were championed by pop historian and Radio London disc jockey Charlie Gillett who helped them procure a Magnet Records contract. Their debut single - a medley of ‘Daddy Cool' and Little Richard's ‘The Girl Can't Help It' - ascended the UK Top 10 in 1977, kicking off three years of high charting entries in the singles lists that mixed stylized self-compositions (e.g. ‘It's Raining', ‘Don't Let It Fade Away') with predominant revamps of US hits such as ‘Come Back My Love' (Cardinals), ‘The Boy From New York City' (Ad Libs), ‘Get It' (Gene Vincent) and ‘Duke Of Earl' (Gene Chandler).
After the eventual replacement of Hegarty with Kenny Edwards in 1979, their records were less successful. Without the television commercial coverage that sent the Jackie Wilson original to number 1 a few years later, Darts' version of ‘Reet Petite' struggled to number 51 while ‘Let's Hang On' - also 1980 - was their last bona fide smash - and ‘White Christmas'/‘Sh-Boom' the first serious miss. With the exit of Howell (to higher education) and Dummer (to form the ribald True Life Confessions), Darts were still able to continue in a recognizable form but were no longer hit parade contenders. As leader of Rocky Sharpe And The Replays, Hegarty hovered between 60 and 17 in the UK singles list until 1983 when his post as a children's television presenter took vocational priority. Keeping the faith longer, Ray and Fish produced a 1985 album for the Mint Juleps, an a cappella girl group who had been inspired initially by Darts.

"

Tracks:

CD1:
01. Daddy Cool / The Girl Can't Help It
02. Come Back My Love
03. Duke Of Earl
04. Sh-Boom (Life Could Be A Dream)
05. Don't Let It Fade Away
06. Let's Hang On
07. The Boy From New York City
08. It's Raining
09. Get It
10. Don't Say Yes
11. Honey Love
12. Jump Children Jump
13. Why I Cry
14. Too Hot In The Kitchen
15. Bells In My Heart
16. My True Story
17. Bones
18. Messing Shoes Blues
19. Cool Jerk
20. I'm Mad / Fancy Man / Framed / Riot In Cell Block No. 9 / Trouble

CD2:
01. Reet Petite
02. Can't Get Enough Of Your Love
03. Voodoo Voodoo
04. Peaches
05. Shotgun
06. Zing Went The Strings Of My Heart
07. Stay Away (From Them Girls)
08. Late Last Night
09. Cuckoo
10. Hammy's Boogie
11. Don't Hang Up
12. Sometime Lately
13. Honey Bee
14. Late For Work
15. Young Blood
16. Who's That Knocking
17. This Is The Night
18. Naff Off
19. I Gotta Go Home
20. White Christmas

Recording information: 1977-1980.

Exact Audio Copy V1.0 beta 3 from 29. August 2011

EAC extraction logfile from 11. June 2012, 20:14

Darts / Get It! - The Very Best Of Darts (CD 1)

Used drive : ASUS DRW-2014S1 Adapter: 0 ID: 0

Read mode : Secure
Utilize accurate stream : Yes
Defeat audio cache : Yes
Make use of C2 pointers : No

Read offset correction

: 6
Overread into Lead-In and Lead-Out : No
Fill up missing offset samples with silence : Yes
Delete leading and trailing silent blocks : No
Null samples used in CRC calculations : Yes
Used interface
: Native Win32 interface for Win NT & 2000
Gap handling
: Appended to previous track

Used output format : User Defined Encoder
Selected bitrate : 1024 kBit/s
Quality : High
Add ID3 tag : No
Command line compressor : C:\Program Files\FLAC\flac.exe
Additional command line options : -8 -V -T "ARTIST=%artist%" -T "TITLE=%title%" -T "ALBUM=%albumtitle%" -T "DATE=%year%" -T "TRACKNUMBER=%tracknr%" -T "GENRE=%genre%" -T "PERFORMER=%albuminterpret%" -T "COMPOSER=%composer%" %haslyrics%--tag-from-file=LYRICS="%lyricsfile%"%haslyrics% -T "ALBUMARTIST=%albumartist%" -T "DISCNUMBER=%cdnumber%" -T "TOTALDISCS=%totalcds%" -T "TOTALTRACKS=%numtracks%" -T "COMMENT=%comment%" %source% -o %dest%

TOC of the extracted CD Track | Start | Length | Start sector | End sector
--1 | 0:00.00 | 2:29.64 | 0 | 11238 2 | 2:29.64 | 2:31.43 | 11239 | 22606 3 | 5:01.32 | 3:43.04 | 22607 | 39335 4 | 8:44.36 | 2:38.43 | 39336 | 51228 5 | 11:23.04 | 3:23.71 | 51229 | 66524 6 | 14:47.00 | 3:14.59 | 66525 | 81133 7 | 18:01.59 | 3:04.34 | 81134 | 94967 8 | 21:06.18 | 3:45.44 | 94968 | 111886 9 | 24:51.62 | 2:57.21 | 111887 | 125182
10 | 27:49.08 | 2:34.70 | 125183 | 136802
11 | 30:24.03 | 2:19.69 | 136803 | 147296
12 | 32:43.72 | 2:33.06 | 147297 | 158777
13 | 35:17.03 | 3:10.20 | 158778 | 173047
14 | 38:27.23 | 2:24.01 | 173048 | 183848
15 | 40:51.24 | 2:10.26 | 183849 | 193624
16 | 43:01.50 | 2:41.68 | 193625 | 205767
17 | 45:43.43 | 2:57.58 | 205768 | 219100
18 | 48:41.26 | 2:45.14 | 219101 | 231489
19 | 51:26.40 | 3:32.58 | 231490 | 247447
20 | 54:59.23 | 4:43.64 | 247448 | 268736

Track 1 Filename C:\EAC\CD1\01 - Daddy Cool , The Girl Can't Help It.wav Pre-gap length 0:00:02.00 Peak level 99.7 %
Extraction speed 4.7 X
Track quality 100.0 %
Test CRC 4D468D3D
Copy CRC 4D468D3D
Track not present in AccurateRip database
Copy OK

Track 2 Filename C:\EAC\CD1\02 - Come Back My Love.wav Pre-gap length 0:00:01.00 Peak level 96.8 %
Extraction speed 5.0 X
Track quality 100.0 %
Test CRC 28EABB47
Copy CRC 28EABB47
Track not present in AccurateRip database
Copy OK

Track 3 Filename C:\EAC\CD1\03 - Duke Of Earl.wav Pre-gap length 0:00:01.00 Peak level 96.8 %
Extraction speed 5.7 X
Track quality 100.0 %
Test CRC CD601EA2
Copy CRC CD601EA2
Track not present in AccurateRip database
Copy OK

Track 4 Filename C:\EAC\CD1\04 - Sh-Boom (Life Could Be A Dream).wav Pre-gap length 0:00:00.56 Peak level 92.6 %
Extraction speed 5.7 X
Track quality 100.0 %
Test CRC 86CF9EBC
Copy CRC 86CF9EBC
Track not present in AccurateRip database
Copy OK

Track 5 Filename C:\EAC\CD1\05 - Don't Let It Fade Away.wav Pre-gap length 0:00:01.00 Peak level 98.3 %
Extraction speed 6.3 X
Track quality 100.0 %
Test CRC 57BAD4E2
Copy CRC 57BAD4E2
Track not present in AccurateRip database
Copy OK

Track 6 Filename C:\EAC\CD1\06 - Let's Hang On.wav Pre-gap length 0:00:01.00 Peak level 99.7 %
Extraction speed 6.5 X
Track quality 100.0 %
Test CRC 425A5744
Copy CRC 425A5744
Track not present in AccurateRip database
Copy OK

Track 7 Filename C:\EAC\CD1\07 - The Boy From New York City.wav Pre-gap length 0:00:01.00 Peak level 98.3 %
Extraction speed 6.8 X
Track quality 100.0 %
Test CRC E5BA5FDB
Copy CRC E5BA5FDB
Track not present in AccurateRip database
Copy OK

Track 8 Filename C:\EAC\CD1\08 - It's Raining.wav Pre-gap length 0:00:01.00 Peak level 97.5 %
Extraction speed 7.3 X
Track quality 100.0 %
Test CRC 52EDBCA7
Copy CRC 52EDBCA7
Track not present in AccurateRip database
Copy OK

Track 9 Filename C:\EAC\CD1\09 - Get It.wav Pre-gap length 0:00:00.48 Peak level 98.3 %
Extraction speed 5.3 X
Track quality 99.9 %
Test CRC 62E6A396
Copy CRC 62E6A396
Track not present in AccurateRip database
Copy OK

Track 10 Filename C:\EAC\CD1\10 - Don't Say Yes.wav Pre-gap length 0:00:01.00 Peak level 97.6 %
Extraction speed 7.1 X
Track quality 100.0 %
Test CRC 02A6F4A9
Copy CRC 02A6F4A9
Track not present in AccurateRip database
Copy OK

Track 11 Filename C:\EAC\CD1\11 - Honey Love.wav Pre-gap length 0:00:01.00 Peak level 92.5 %
Extraction speed 7.2 X
Track quality 100.0 %
Test CRC 7088BB9A
Copy CRC 7088BB9A
Track not present in AccurateRip database
Copy OK

Track 12 Filename C:\EAC\CD1\12 - Jump Children Jump.wav Pre-gap length 0:00:00.98 Peak level 93.2 %
Extraction speed 5.4 X
Track quality 99.9 %
Test CRC E79D3529
Copy CRC E79D3529
Track not present in AccurateRip database
Copy OK

Track 13 Filename C:\EAC\CD1\13 - Why I Cry.wav Pre-gap length 0:00:01.00 Peak level 83.1 %
Extraction speed 7.9 X
Track quality 100.0 %
Test CRC 78062853
Copy CRC 78062853
Track not present in AccurateRip database
Copy OK

Track 14 Filename C:\EAC\CD1\14 - Too Hot In The Kitchen.wav Pre-gap length 0:00:01.00 Peak level 93.3 %
Extraction speed 7.7 X
Track quality 100.0 %
Test CRC F8D8CA36
Copy CRC F8D8CA36
Track not present in AccurateRip database
Copy OK

Track 15 Filename C:\EAC\CD1\15 - Bells In My Heart.wav Pre-gap length 0:00:01.00 Peak level 95.5 %
Extraction speed 7.8 X
Track quality 100.0 %
Test CRC F2477DA6
Copy CRC F2477DA6
Track not present in AccurateRip database
Copy OK

Track 16 Filename C:\EAC\CD1\16 - My True Story.wav Pre-gap length 0:00:01.00 Peak level 88.1 %
Extraction speed 8.3 X
Track quality 100.0 %
Test CRC F2FC360F
Copy CRC F2FC360F
Track not present in AccurateRip database
Copy OK

Track 17 Filename C:\EAC\CD1\17 - Bones.wav Pre-gap length 0:00:01.00 Peak level 96.8 %
Extraction speed 8.5 X
Track quality 100.0 %
Test CRC 9D565166
Copy CRC 9D565166
Track not present in AccurateRip database
Copy OK

Track 18 Filename C:\EAC\CD1\18 - Messing Shoes Blues.wav Pre-gap length 0:00:01.00 Peak level 100.0 %
Extraction speed 8.6 X
Track quality 100.0 %
Test CRC 3E339AA5
Copy CRC 3E339AA5
Track not present in AccurateRip database
Copy OK

Track 19 Filename C:\EAC\CD1\19 - Cool Jerk.wav Pre-gap length 0:00:01.00 Peak level 96.8 %
Extraction speed 9.2 X
Track quality 100.0 %
Test CRC 7BC39092
Copy CRC 7BC39092
Track not present in AccurateRip database
Copy OK

Track 20 Filename C:\EAC\CD1\20 - I'm Mad , Fancy Man , Framed , Riot In Cell Block No. 9 , Trouble.wav Pre-gap length 0:00:01.00 Peak level 86.1 %
Extraction speed 7.5 X
Track quality 99.9 %
Test CRC 891032AB
Copy CRC 891032AB
Track not present in AccurateRip database
Copy OK

None of the tracks are present in the AccurateRip database

No errors occurred

End of status report

- CUETools DB Plugin V2.1.3

[CTDB TOCID: aqE4yiiAG5bBR.rjsZZtpUHoHgY-] found, Submit result: aqE4yiiAG5bBR.rjsZZtpUHoHgY- has been confirmed
[0076ea08] (1/1) Accurately ripped

==== Log checksum 382346F42737217C32508F64BDF1C49661124803A990F4F47097A525247F8DF8 ====

++++++++++++++++++++++++++++++++++++++++++++++++++++++++++=

Exact Audio Copy V1.0 beta 3 from 29. August 2011

EAC extraction logfile from 11. June 2012, 20:50

Darts / Get It!! The Very Best Of Darts (CD2)

Used drive : ASUS DRW-2014S1 Adapter: 0 ID: 0

Read mode : Secure
Utilize accurate stream : Yes
Defeat audio cache : Yes
Make use of C2 pointers : No

Read offset correction

: 6
Overread into Lead-In and Lead-Out : No
Fill up missing offset samples with silence : Yes
Delete leading and trailing silent blocks : No
Null samples used in CRC calculations : Yes
Used interface
: Native Win32 interface for Win NT & 2000
Gap handling
: Appended to previous track

Used output format : User Defined Encoder
Selected bitrate : 1024 kBit/s
Quality : High
Add ID3 tag : No
Command line compressor : C:\Program Files\FLAC\flac.exe
Additional command line options : -8 -V -T "ARTIST=%artist%" -T "TITLE=%title%" -T "ALBUM=%albumtitle%" -T "DATE=%year%" -T "TRACKNUMBER=%tracknr%" -T "GENRE=%genre%" -T "PERFORMER=%albuminterpret%" -T "COMPOSER=%composer%" %haslyrics%--tag-from-file=LYRICS="%lyricsfile%"%haslyrics% -T "ALBUMARTIST=%albumartist%" -T "DISCNUMBER=%cdnumber%" -T "TOTALDISCS=%totalcds%" -T "TOTALTRACKS=%numtracks%" -T "COMMENT=%comment%" %source% -o %dest%

TOC of the extracted CD Track | Start | Length | Start sector | End sector
--1 | 0:00.00 | 2:55.01 | 0 | 13125 2 | 2:55.01 | 3:28.39 | 13126 | 28764 3 | 6:23.40 | 2:14.37 | 28765 | 38851 4 | 8:38.02 | 2:47.69 | 38852 | 51445 5 | 11:25.71 | 2:46.10 | 51446 | 63905 6 | 14:12.06 | 3:05.21 | 63906 | 77801 7 | 17:17.27 | 2:33.30 | 77802 | 89306 8 | 19:50.57 | 2:34.59 | 89307 | 100915 9 | 22:25.41 | 3:28.03 | 100916 | 116518
10 | 25:53.44 | 2:35.67 | 116519 | 128210
11 | 28:29.36 | 2:31.18 | 128211 | 139553
12 | 31:00.54 | 2:39.49 | 139554 | 151527
13 | 33:40.28 | 1:59.54 | 151528 | 160506
14 | 35:40.07 | 2:36.54 | 160507 | 172260
15 | 38:16.61 | 2:45.08 | 172261 | 184643
16 | 41:01.69 | 2:00.46 | 184644 | 193689
17 | 43:02.40 | 1:57.18 | 193690 | 202482
18 | 44:59.58 | 2:49.66 | 202483 | 215223
19 | 47:49.49 | 2:58.02 | 215224 | 228575
20 | 50:47.51 | 2:29.31 | 228576 | 239781

Track 1 Filename C:\EAC\CD2\01 - Reet Petite.wav Pre-gap length 0:00:02.00 Peak level 96.8 %
Extraction speed 4.8 X
Track quality 100.0 %
Test CRC 99533D1A
Copy CRC 99533D1A
Track not present in AccurateRip database
Copy OK

Track 2 Filename C:\EAC\CD2\02 - Can't Get Enough Of Your Love.wav Pre-gap length 0:00:00.45 Peak level 96.8 %
Extraction speed 5.3 X
Track quality 100.0 %
Test CRC E0754FA5
Copy CRC E0754FA5
Track not present in AccurateRip database
Copy OK

Track 3 Filename C:\EAC\CD2\03 - Voodoo Voodoo.wav Pre-gap length 0:00:01.00 Peak level 85.5 %
Extraction speed 5.3 X
Track quality 100.0 %
Test CRC 8E490595
Copy CRC 8E490595
Track not present in AccurateRip database
Copy OK

Track 4 Filename C:\EAC\CD2\04 - Peaches.wav Pre-gap length 0:00:01.00 Peak level 88.8 %
Extraction speed 5.8 X
Track quality 100.0 %
Test CRC C73B138B
Copy CRC C73B138B
Track not present in AccurateRip database
Copy OK

Track 5 Filename C:\EAC\CD2\05 - Shotgun.wav Pre-gap length 0:00:00.26 Peak level 98.3 %
Extraction speed 6.0 X
Track quality 100.0 %
Test CRC 6AB49FB6
Copy CRC 6AB49FB6
Track not present in AccurateRip database
Copy OK

Track 6 Filename C:\EAC\CD2\06 - Zing Went The Strings Of My Heart.wav Pre-gap length 0:00:01.00 Peak level 96.8 %
Extraction speed 4.7 X
Track quality 99.9 %
Test CRC B7B6AE2D
Copy CRC B7B6AE2D
Track not present in AccurateRip database
Copy OK

Track 7 Filename C:\EAC\CD2\07 - Stay Away (From Them Girls).wav Pre-gap length 0:00:01.00 Peak level 96.8 %
Extraction speed 6.4 X
Track quality 100.0 %
Test CRC B50FAA15
Copy CRC B50FAA15
Track not present in AccurateRip database
Copy OK

Track 8 Filename C:\EAC\CD2\08 - Late Last Night.wav Pre-gap length 0:00:01.00 Peak level 87.0 %
Extraction speed 6.7 X
Track quality 100.0 %
Test CRC 274DCAC7
Copy CRC 274DCAC7
Track not present in AccurateRip database
Copy OK

Track 9 Filename C:\EAC\CD2\09 - Cuckoo.wav Pre-gap length 0:00:01.00 Peak level 88.1 %
Extraction speed 7.2 X
Track quality 100.0 %
Test CRC EB486E1A
Copy CRC EB486E1A
Track not present in AccurateRip database
Copy OK

Track 10 Filename C:\EAC\CD2\10 - Hammy's Boogie.wav Pre-gap length 0:00:01.00 Peak level 96.6 %
Extraction speed 7.0 X
Track quality 100.0 %
Test CRC 81551A7A
Copy CRC 81551A7A
Track not present in AccurateRip database
Copy OK

Track 11 Filename C:\EAC\CD2\11 - Don't Hang Up.wav Pre-gap length 0:00:01.00 Peak level 100.0 %
Extraction speed 7.2 X
Track quality 100.0 %
Test CRC 9AC2F904
Copy CRC 9AC2F904
Track not present in AccurateRip database
Copy OK

Track 12 Filename C:\EAC\CD2\12 - Sometime Lately.wav Pre-gap length 0:00:01.00 Peak level 95.4 %
Extraction speed 7.5 X
Track quality 100.0 %
Test CRC CC66BFF9
Copy CRC CC66BFF9
Track not present in AccurateRip database
Copy OK

Track 13 Filename C:\EAC\CD2\13 - Honey Bee.wav Pre-gap length 0:00:01.00 Peak level 94.6 %
Extraction speed 7.2 X
Track quality 100.0 %
Test CRC D17F24A9
Copy CRC D17F24A9
Track not present in AccurateRip database
Copy OK

Track 14 Filename C:\EAC\CD2\14 - Late For Work.wav Pre-gap length 0:00:01.00 Peak level 86.1 %
Extraction speed 5.6 X
Track quality 99.9 %
Test CRC 30A07254
Copy CRC 30A07254
Track not present in AccurateRip database
Copy OK

Track 15 Filename C:\EAC\CD2\15 - Young Blood.wav Pre-gap length 0:00:01.00 Peak level 91.7 %
Extraction speed 8.0 X
Track quality 100.0 %
Test CRC 21C99F83
Copy CRC 21C99F83
Track not present in AccurateRip database
Copy OK

Track 16 Filename C:\EAC\CD2\16 - Who's That Knocking.wav Pre-gap length 0:00:01.00 Peak level 91.2 %
Extraction speed 7.6 X
Track quality 100.0 %
Test CRC 707E3733
Copy CRC 707E3733
Track not present in AccurateRip database
Copy OK

Track 17 Filename C:\EAC\CD2\17 - This Is The Night.wav Pre-gap length 0:00:00.48 Peak level 91.7 %
Extraction speed 7.7 X
Track quality 100.0 %
Test CRC 70F56275
Copy CRC 70F56275
Track not present in AccurateRip database
Copy OK

Track 18 Filename C:\EAC\CD2\18 - Naff Off.wav Pre-gap length 0:00:01.00 Peak level 99.2 %
Extraction speed 8.5 X
Track quality 100.0 %
Test CRC 6AE5F7D5
Copy CRC 6AE5F7D5
Track not present in AccurateRip database
Copy OK

Track 19 Filename C:\EAC\CD2\19 - I Gotta Go Home.wav Pre-gap length 0:00:01.00 Peak level 97.7 %
Extraction speed 8.7 X
Track quality 100.0 %
Test CRC AC4C4D9D
Copy CRC AC4C4D9D
Track not present in AccurateRip database
Copy OK

Track 20 Filename C:\EAC\CD2\20 - White Christmas.wav Pre-gap length 0:00:01.00 Peak level 93.0 %
Extraction speed 6.0 X
Track quality 99.9 %
Test CRC 359E20EF
Copy CRC 359E20EF
Track not present in AccurateRip database
Copy OK

None of the tracks are present in the AccurateRip database

No errors occurred

End of status report

- CUETools DB Plugin V2.1.3

[CTDB TOCID: CtanRxOX9wtsERQSo57Vl._IN.k-] found, Submit result: CtanRxOX9wtsERQSo57Vl._IN.k- has been confirmed
[01d22355] (1/1) Accurately ripped

==== Log checksum 1BCBD5C4063572D80E6C96076BD1F3883873323BAEF5D99BC35D5098D9AB77A4 ====

Thanks to Se3am!
Download Links:
(Premium Recommended)


All above links are interchangable. No password

Direct Download

The Darts - Get It! The Very Best Of Darts (2CD, 2011) RE-UP Download via Hotfile Rapidshare Fileserve Megaupload & FileSonic, The Darts - Get It! The Very Best Of Darts (2CD, 2011) RE-UP free torrent downloads included crack, serial, keygen.


#1 | Author: iceman666 | 30 August 2015 00:10
Unexpected treat...thank you

Attention!Information

Members of Guest cannot leave comments.