Jeff Larson - The World Over (2012)

Download Now

Jeff Larson - The World Over (2012)

Jeff Larson - The World Over (2012)
EAC Rip | FLAC (Img) + Cue + Log ~ 284 Mb | MP3 CBR320 ~ 100 Mb
Scans Included (JPG, 300 dpi) | RAR 5% Recovery
Pop/Soft/Folk/Country Rock | Red Bell Recordings #673393041228

"The Northern California singer/songwriter/guitarist delivers one of his finest albums with "The World Over." Jeff Larson's earnest vocals and unwaveringly engaging folk-rock-country songs have an alluring, early Eagles feel. Appropriately, among those contributing stirring harmonies is Jeddrah Schmit, daughter of Eagles bassist Timothy B. Schmit. Also complementing Larson's voice are the duo of Gerry Beckley and Dewey Bunnell (America) and Jeffrey Foskett (Brian Wilson Band). Larson's warm, wonderful songs will grab you immediately and just get better with each subsequent listening. Every one of the 10 numbers here proves to be an individual gem..."

Discogs | All Music
***************

Jeff Larson - The World Over (2012)

Track List:

01. Your Way Back Home [03:23]
02. Approaching Midnight [03:54]
03. Midhaven Getaway [04:21]
04. Monday Clouds Tuesday Rain [03:39]
05. One Good Lie [03:53]
06. This Morning In Amsterdam [04:08]
07. See It Fall [04:23]
08. Point Of Rising [03:48]
09. In Time [04:07]
10. Reason To Be Near You [03:22]

Exact Audio Copy V0.99 prebeta 4 from 23. January 2008

Отчёт EAC об извлечении, выполненном 4. августа 2012, 10:43

Jeff Larson / The World Over

Дисковод: HL-DT-STDVDRAM GH20LS10 Adapter: 3 ID: 1

Режим чтения : Достоверность
Использование точного потока : Да
Отключение кэша аудио : Да
Использование указателей C2 : Нет

Коррекция смещения при чтении : 667
Способность читать области Lead-in и Lead-out : Нет
Заполнение пропущенных сэмплов тишиной : Да
Удаление блоков с тишиной в начале и конце : Нет
При вычислениях CRC использовались нулевые сэмплы : Да
Интерфейс : Встроенный Win32-интерфейс для Win NT/2000

Выходной формат : Внутренние WAV-операции
Формат сэмплов : 44.100 Гц; 16 бит; стерео

TOC извлечённого CD Трек | Старт | Длительность | Начальный сектор | Конечный сектор

1 | 0:00.00 | 3:22.56 | 0 | 15205
2 | 3:22.56 | 3:53.21 | 15206 | 32701
3 | 7:16.02 | 4:20.28 | 32702 | 52229
4 | 11:36.30 | 3:38.19 | 52230 | 68598
5 | 15:14.49 | 3:52.35 | 68599 | 86033
6 | 19:07.09 | 4:07.04 | 86034 | 104562
7 | 23:14.13 | 4:22.67 | 104563 | 124279
8 | 27:37.05 | 3:47.53 | 124280 | 141357
9 | 31:24.58 | 4:06.44 | 141358 | 159851
10 | 35:31.27 | 3:21.41 | 159852 | 174967

Характеристики диапазона извлечения и сообщения об ошибках

Выбранный диапазон Имя файла D:\Lossless\Jeff Larson - The World Over - 2012\Jeff Larson - The World Over.wav Пиковый уровень 98.8 %
Качество диапазона 100.0 %
CRC теста F8B98532
CRC копии F8B98532
Копирование... OK

Ошибок не произошло


AccurateRip: сводка

Трек 1 нет в базе данных
Трек 2 нет в базе данных
Трек 3 нет в базе данных
Трек 4 нет в базе данных
Трек 5 нет в базе данных
Трек 6 нет в базе данных
Трек 7 нет в базе данных
Трек 8 нет в базе данных
Трек 9 нет в базе данных
Трек 10 нет в базе данных

Ни одного трека нет в базе AccurateRip

Конец отчёта

foobar2000 1.2.6 / Dynamic Range Meter 1.1.1
log date: 2015-08-23 19:10:09

Analyzed: Jeff Larson / The World Over

DR Peak RMS Duration Track

DR8 -0.10 dB -9.69 dB 3:23 01-Your Way Back Home
DR8 -0.10 dB -9.77 dB 3:53 02-Approaching Midnight
DR8 -0.10 dB -8.83 dB 4:20 03-Midhaven Getaway
DR8 -0.10 dB -10.58 dB 3:38 04-Monday Clouds Tuesday Rain
DR9 -0.10 dB -11.13 dB 3:52 05-One Good Lie
DR10 -0.10 dB -12.21 dB 4:07 06-This Morning In Amsterdam
DR10 -0.10 dB -12.55 dB 4:23 07-See It Fall
DR8 -0.10 dB -9.91 dB 3:48 08-Point Of Rising
DR9 -0.10 dB -12.05 dB 4:07 09-In Time
DR6 -0.10 dB -8.93 dB 3:22 10-Reason To Be Near You

Number of tracks: 10
Official DR value: DR8

Samplerate: 44100 Hz
Channels: 2
Bits per sample: 16
Bitrate: 952 kbps
Codec: FLAC

[CUETools log; Date: 23.08.2015 19:10:29; Version: 2.1.5]
[CTDB TOCID: cknC4VziL1vmwWrOCgIUe1Yug40-] found.
Track | CTDB Status
1 | (1/1) Accurately ripped
2 | (1/1) Accurately ripped
3 | (1/1) Accurately ripped
4 | (1/1) Accurately ripped
5 | (1/1) Accurately ripped
6 | (1/1) Accurately ripped
7 | (1/1) Accurately ripped
8 | (1/1) Accurately ripped
9 | (1/1) Accurately ripped
10 | (1/1) Accurately ripped
[AccurateRip ID: 000ea530-0075c541-95091c0a] disk not present in database.

Track Peak [ CRC32 ] [W/O NULL] [ LOG ]
-- 98,8 [F8B98532] [1F3E0DCA] CRC32
01 98,8 [DE2E0858] [93FB25E1]
02 98,8 [483916FA] [77468AA1]
03 98,8 [043D0144] [208F0AB4]
04 98,8 [25C41A2C] [E3FDF1FC]
05 98,8 [0C8F214E] [3C13CFF4]
06 98,8 [255A3B95] [7EF384DE]
07 98,8 [1375C061] [FC763991]
08 98,8 65664DA [58DA4613]
09 98,8 [A4F6B500] [ABEDD5A4]
10 98,8 [10C719BB] [3FA37083]

Jeff Larson - The World Over (2012)


Download Links:
(Premium Recommended)


All above links are interchangable. No password

Direct Download

Tags: Larson

Jeff Larson - The World Over (2012) Download via Hotfile Rapidshare Fileserve Megaupload & FileSonic, Jeff Larson - The World Over (2012) free torrent downloads included crack, serial, keygen.


Attention!Information

Members of Guest cannot leave comments.