Brenda Lee - Grandma What Great Songs You Sang! & Miss Dynamite (1959 & 1960) [2LP on 1CD - 2004] Re-uploaD

Download Now

Brenda Lee - Grandma What Great Songs You Sang! & Miss Dynamite (1959 & 1960) [2LP on 1CD - 2004] Re-uploaD

Brenda Lee - Grandma What Great Songs You Sang! & Miss Dynamite (1959 & 1960)
2LP on 1CD | EAC Rip | FLAC+CUE+LOG - 391 MB | Full Scans | MP3 CBR 320 Kbps - 132 MB
Pop / Country / Oldies | 58:18 minutes | Label: Ace Records Ltd. | Cat. # CDCHD 1027

The legendary Brenda Lee's first two LPs recorded for US Decca when she was just 15 and 16, are paired (in stereo) on this CD. "Grandma, What Great Songs You Sang!" was a largely experimental set comprising songs from an earlier age. "Miss Dynamite" (known simply as "Brenda Lee" in the USA) shows how quickly she was able to establish her own recording persona given the right material. Both LP were produced by Owen Bradley and this 2 on 1 CD reissue has been mastered from the original stereo recordings.
"One of the biggest pop stars of the early '60s, Brenda Lee hasn't attracted as much critical respect as she deserves. She is sometimes inaccurately characterized as one of the few female teen idols. More crucially, the credit for achieving success with pop-country crossovers usually goes to Patsy Cline, although Lee's efforts in this era were arguably of equal importance. While she made few recordings of note after the mid-'60s, the best of her first decade is fine indeed, encompassing not just the pop ballads that were her biggest hits, but straight country and some surprisingly fierce rockabilly.

Brenda Lee - Grandma What Great Songs You Sang! & Miss Dynamite (1959 & 1960) [2LP on 1CD - 2004] Re-uploaD

In late 1959, Brenda Lee was dangerously close to becoming a 14-year-old has-been. A dynamic performer, she wowed everyone who saw her in concert, but she'd failed to dent the charts for two straight years after debuting with a pair of middling hits. Clearly, the novelty was wearing off. Earlier that year, Decca had recorded a set of vintage pop standards -- most from the 1910s and '20s -- to transfer her appeal to older audiences, but the LP failed to sell. Then, in August 1959, she recorded "Sweet Nothin's," an irresistibly flirty piece of country-pop; early in 1960, it reached the Top Ten and was followed in short order by three more (two of which hit number one). For this CD reissue, Ace compiles Brenda Lee's first two LPs, which together straddle the line between her pre-fame period (1959's Grandma, What Great Songs You Sang!) and her great breakout of 1960 (Brenda Lee, or its British release, Miss Dynamite). For listeners searching for a title to expand their knowledge of Lee beyond the usual hits compilations, this disc functions very well. The latter LP has a raft of hits and great performances to use for context, while the former shows off her talent in far different settings. Although a Decca executive thought only of the marketplace when he commissioned Lee to sing songs like "Pennies from Heaven" and "A Good Man Is Hard to Find," the results are surprising -- here was a girl who had turned 14 just one month earlier exhibiting marvelous interpretive sense on a set of standards, all of them at least 30 years older than the singer herself. Her self-titled LP of 1960 is one of those great rock records that has been unfortunately superceded by hits compilations; aside from the Top Ten singles -- "Sweet Nothin's," "That's All You Gotta Do," and the number one "I'm Sorry" -- many of the songs here (even the non-hits) end up on compilations, like a re-recorded stereo version of her 1957 hit "Dynamite," "My Baby Likes Western Guys," "Weep No More My Baby," "Let's Jump the Broomstick," and "Wee Wee Willies."

-- John Bush, allmusic.com"


Tracklist:

01. Some Of These Days
02. Pennies From Heaven
03. Baby Face
04. A Good Man Is Hard To Find
05. Just Because
06. Toot, Toot, Tootsie
07. Ballin' The Jack
08. Rock-A-Bye Your Baby With A Dixie Melody
09. Pretty Baby
10. Side By Side
11. Back In Your Own Backyard
12. St. Louis Blues
13. Dynamite
14. Weep No More My Baby
15. Jambalaya (On The Bayou)
16. (If I'm Dreaming) Just Let Me Dream
17. Be My Love Agan
18. My Baby Likes Western Guys
19. Sweet Nothin's
20. I'm Sorry
21. That's All You Gotta Do
22. Heading Home
23. Wee Wee Willies
24. Let's Jump The Broomstick

Tracks 1-12 is Grandma What Great Songs You Sang! (Decca DL 78873 / Brunswick LAT 8319 [LP 1959]).
Tracks 13-24 is Miss Dynamite (Brunswick LAT 8347 [LP 1960]).
Produced by Owen Bradley. CD Mastering by Nick Robbins at Sound Mastering Ltd.Exact Audio Copy V0.99 prebeta 5 from 4. May 2009

Отчёт EAC об извлечении, выполненном 29. августа 2010, 9:44

Brenda Lee / Grandma What Great Songs You Sang! & Miss Dynamite

Дисковод: PLEXTOR DVDR PX-880SA Adapter: 1 ID: 0

Режим чтения : Достоверность
Использование точного потока : Да
Отключение кэша аудио : Да
Использование указателей C2 : Нет

Коррекция смещения при чтении : 6
Способность читать области Lead-in и Lead-out : Нет
Заполнение пропущенных сэмплов тишиной : Да
Удаление блоков с тишиной в начале и конце : Нет
При вычислениях CRC использовались нулевые сэмплы : Да
Интерфейс : Встроенный Win32-интерфейс для Win NT/2000

Выходной формат : Пользовательский кодировщик
Выбранный битрейт : 1024 kBit/s
Качество : Высокий
Добавление ID3-тэга : Да
Утилита сжатия : C:\Program Files\Exact Audio Copy\wapet.exe
Дополнительные параметры : %d -t "Artist=%a" -t "Album Artist=%a" -t "Releaser=% wwphil" -t "Album=%g" -t "Year=%y" -t "Genre=%m" mac.exe %s %d -c2000

TOC извлечённого CD Трек | Старт | Длительность | Начальный сектор | Конечный сектор

1 | 0:00.00 | 2:23.44 | 0 | 10768
2 | 2:23.44 | 2:25.03 | 10769 | 21646
3 | 4:48.47 | 2:15.00 | 21647 | 31771
4 | 7:03.47 | 2:27.68 | 31772 | 42864
5 | 9:31.40 | 1:57.25 | 42865 | 51664
6 | 11:28.65 | 2:20.11 | 51665 | 62175
7 | 13:49.01 | 1:55.73 | 62176 | 70873
8 | 15:44.74 | 2:26.23 | 70874 | 81846
9 | 18:11.22 | 1:42.11 | 81847 | 89507
10 | 19:53.33 | 2:12.02 | 89508 | 99409
11 | 22:05.35 | 2:50.06 | 99410 | 112165
12 | 24:55.41 | 2:54.11 | 112166 | 125226
13 | 27:49.52 | 1:58.48 | 125227 | 134124
14 | 29:48.25 | 3:01.51 | 134125 | 147750
15 | 32:50.01 | 2:45.46 | 147751 | 160171
16 | 35:35.47 | 2:50.34 | 160172 | 172955
17 | 38:26.06 | 2:38.68 | 172956 | 184873
18 | 41:04.74 | 2:14.72 | 184874 | 194995
19 | 43:19.71 | 2:24.45 | 194996 | 205840
20 | 45:44.41 | 2:41.41 | 205841 | 217956
21 | 48:26.07 | 2:28.73 | 217957 | 229129
22 | 50:55.05 | 2:40.15 | 229130 | 241144
23 | 53:35.20 | 2:08.29 | 241145 | 250773
24 | 55:43.49 | 2:34.63 | 250774 | 262386

Характеристики диапазона извлечения и сообщения об ошибках

Выбранный диапазон Имя файла D:\Brenda Lee - Grandma What Great Songs You Sang! & Miss Dynamite\Brenda Lee - Grandma What Great Songs You Sang! & Miss Dynamite.wav Пиковый уровень 100.0 %
Качество диапазона 100.0 %
CRC теста 18EF1219
CRC копии 18EF1219
Копирование... OK

Ошибок не произошло


AccurateRip: сводка

Трек 1 точность не определена (достоверность 2) [1D16F3DE], AccurateRip вернул [5F1CF6AE]
Трек 2 точность не определена (достоверность 2) [53BC291A], AccurateRip вернул [1CD94BFF]
Трек 3 точность не определена (достоверность 3) [1DE1B15A], AccurateRip вернул [6E74AB04]
Трек 4 точность не определена (достоверность 3) [40AB5DD2], AccurateRip вернул [919D3793]
Трек 5 точность не определена (достоверность 3) [A628956D], AccurateRip вернул [031F824F]
Трек 6 точность не определена (достоверность 2) [E1A79633], AccurateRip вернул [A3664582]
Трек 7 точность не определена (достоверность 2) [2EC1F025], AccurateRip вернул [7C3EE53B]
Трек 8 точность не определена (достоверность 2) [5DE6FF11], AccurateRip вернул [F7B1ED46]
Трек 9 точность не определена (достоверность 3) 8800B06, AccurateRip вернул [17DADF92]
Трек 10 точность не определена (достоверность 3) [9F9B1041], AccurateRip вернул [36AD6EB3]
Трек 11 точность не определена (достоверность 3) [4246AF05], AccurateRip вернул [64C438B7]
Трек 12 точность не определена (достоверность 3) [98450761], AccurateRip вернул [A19EF8A2]
Трек 13 точность не определена (достоверность 3) [CFEBB999], AccurateRip вернул [09B8241F]
Трек 14 точность не определена (достоверность 3) [9691864D], AccurateRip вернул 1556587
Трек 15 точность не определена (достоверность 3) [A47BAAF5], AccurateRip вернул [20F2920D]
Трек 16 точность не определена (достоверность 3) [8F7F7713], AccurateRip вернул [F5083CA2]
Трек 17 точность не определена (достоверность 3) [2A30DE76], AccurateRip вернул [7D93679D]
Трек 18 точность не определена (достоверность 3) [7F33F559], AccurateRip вернул [27828A33]
Трек 19 точность не определена (достоверность 3) [FDD9376B], AccurateRip вернул 2F00FE4
Трек 20 точность не определена (достоверность 3) [05D56C6A], AccurateRip вернул [29993682]
Трек 21 точность не определена (достоверность 3) [6F2681CE], AccurateRip вернул [D055E108]
Трек 22 точность не определена (достоверность 3) [FA44BFEC], AccurateRip вернул [EAD7D71C]
Трек 23 точность не определена (достоверность 3) D4F570B, AccurateRip вернул [254890E7]
Трек 24 точность не определена (достоверность 2) [A00B50FD], AccurateRip вернул [AB88C057]

Ни один трек не прошёл проверки на точность
В вашей базе может быть иной вариант штамповки диска

Конец отчёта

***************

[AccurateRip ID: 0030dbf2-035565ed-580daa18] found.
Track [ CRC ] Status
01 [1d16f3de] (2/4) Accurately ripped
02 [53bc291a] (2/4) Accurately ripped
03 [1de1b15a] (2/5) Accurately ripped
04 [40ab5dd2] (2/5) Accurately ripped
05 [a628956d] (2/5) Accurately ripped
06 [e1a79633] (2/4) Accurately ripped
07 [2ec1f025] (2/4) Accurately ripped
08 [5de6ff11] (2/4) Accurately ripped
09 8800b06 (2/5) Accurately ripped
10 [9f9b1041] (2/5) Accurately ripped
11 [4246af05] (2/5) Accurately ripped
12 [98450761] (2/5) Accurately ripped
13 [cfebb999] (2/5) Accurately ripped
14 [9691864d] (2/5) Accurately ripped
15 [a47baaf5] (2/5) Accurately ripped
16 [8f7f7713] (2/5) Accurately ripped
17 [2a30de76] (2/5) Accurately ripped
18 [7f33f559] (2/5) Accurately ripped
19 [fdd9376b] (2/5) Accurately ripped
20 [05d56c6a] (2/5) Accurately ripped
21 [6f2681ce] (2/5) Accurately ripped
22 [fa44bfec] (2/5) Accurately ripped
23 d4f570b (2/5) Accurately ripped
24 [a00b50fd] (2/4) Accurately ripped
Offsetted by 98:
01 [5f1cf6ae] (2/4) Accurately ripped
02 [1cd94bff] (2/4) Accurately ripped
03 [6e74ab04] (3/5) Accurately ripped
04 [919d3793] (3/5) Accurately ripped
05 [031f824f] (3/5) Accurately ripped
06 [a3664582] (2/4) Accurately ripped
07 [7c3ee53b] (2/4) Accurately ripped
08 [f7b1ed46] (2/4) Accurately ripped
09 [17dadf92] (3/5) Accurately ripped
10 [36ad6eb3] (3/5) Accurately ripped
11 [64c438b7] (3/5) Accurately ripped
12 [a19ef8a2] (3/5) Accurately ripped
13 [09b8241f] (3/5) Accurately ripped
14 1556587 (3/5) Accurately ripped
15 [20f2920d] (3/5) Accurately ripped
16 [f5083ca2] (3/5) Accurately ripped
17 [7d93679d] (3/5) Accurately ripped
18 [27828a33] (3/5) Accurately ripped
19 2f00fe4 (3/5) Accurately ripped
20 [29993682] (3/5) Accurately ripped
21 [d055e108] (3/5) Accurately ripped
22 [ead7d71c] (3/5) Accurately ripped
23 [254890e7] (3/5) Accurately ripped
24 [ab88c057] (2/4) Accurately ripped

Track Peak [ CRC32 ] [W/O NULL] [ LOG ]
-- 100,0 [18EF1219] [D9BC1DCC] CRC32
01 97,8 [99118D7F] [E5B0F7DC]
02 95,5 3F3BBBE [DEE0C6FA]
03 100,0 [3D2169B9] [82A1EFA9]
04 100,0 [F6565148] [1727F151]
05 100,0 [1A30ED65] [A2C1CBE6]
06 97,5 [47711917] [27740A2E]
07 100,0 [41B8A154] [EE9A89EA]
08 96,5 [4CB53BAB] [82069ADC]
09 100,0 [FE626CA2] [50AE67FD]
10 100,0 [F572C30D] 783A279
11 100,0 [5E5464D5] [31A00384]
12 100,0 [EB7697F5] [7542C529]
13 100,0 [422FA6A0] [9EF89177]
14 100,0 [7F512E5D] [F5CE60E9]
15 100,0 [D196A646] [AA3B84C4]
16 100,0 [4C5D315A] [986BBDD1]
17 100,0 [4A9FB4BF] [F4FD6C1E]
18 100,0 [0F972DBD] [6F83FE6E]
19 100,0 [ACB9C4D9] [AEA20A9C]
20 93,6 EA0514F [C8EB1852]
21 100,0 [7415A49A] ECADB09
22 100,0 [57BCAF19] 489DFD9
23 100,0 [A2E8D48C] 6134E7D
24 100,0 [98AE4ACB] [09A773DE]
DOWNLOAD LINKS:
Buy Premium To Support Me & Get Resumable Support & Max Speed


Links are Interchangeable - No Password - Single Extraction

Direct Download

Tags: Brenda, Grandma, Dynamite, uploaD

Brenda Lee - Grandma What Great Songs You Sang! & Miss Dynamite (1959 & 1960) [2LP on 1CD - 2004] Re-uploaD Download via Hotfile Rapidshare Fileserve Megaupload & FileSonic, Brenda Lee - Grandma What Great Songs You Sang! & Miss Dynamite (1959 & 1960) [2LP on 1CD - 2004] Re-uploaD free torrent downloads included crack, serial, keygen.


Attention!Information

Members of Guest cannot leave comments.