Bruno Angelini - Instant Sharings (2015) {La Buissonne}

Download Now


Bruno Angelini - Instant Sharings (2015) {La Buissonne}
Bruno Angelini - Instant Sharings (2015) {La Buissonne}
EAC rip (secure mode) | FLAC (tracks)+CUE+LOG -> 261 Mb | MP3 @320 -> 131 Mb
Full Artwork @ 300 dpi (png) -> 44 Mb | 5% repair rar
© 2015 La Buissonne / Harmonia Mundi | RJAL 397022
Jazz / Contemporary Jazz / Post Bop / Piano

"Challenging music that presents no obstacle to some seriously gorgeous moments. Pianist Angelini is joined by violinist Regis Huby, bassist Claude Tchamitchian and drummer Edward Perraud for a mix of classical, jazz and a bit of folk. The quartet shows a refreshing willingness to flash some sharp teeth even as it prepares its next stunning moment of pure melodic beauty."

"Emmené par le très inspiré et malheureusement trop peu médiatisé Bruno Angelini, ce quartet signe ici un disque d'une rare beauté. Un trip s'adossant notamment contre trois relectures de pièces signées Paul Motian, Steve Swallow et Wayne Shorter et que le pianiste marseillais et ses trois complices - le contrebassiste Claude Tchamitchian, le violoniste Régis Huby et le batteur Edward Perraud - revisitent avec un certain raffinement dans l'improvisation. Ces Instant Sharings portent non seulement bien leur nom mais éblouissent surtout dans cette puissante complicité qui unit les quatre musiciens. Chaque thème est une invitation au voyage, une errance sur des terres musicales sans étiquettes. Le lyrisme du violon d'Huby fait qu'on ne sait jamais si tout ceci est du jazz mais peu importe, la beauté et l'inspiration n'ont besoin d'aucun passeport pour exister... Un superbe disque de jazz chambriste qui devient de plus en plus essentiel au fil des écoutes."


Bruno Angelini - Instant Sharings (2015) {La Buissonne}


Personnel:
Bruno Angelini (piano, compositions)
Régis Huby (violon, violon ténor, électronique)
Claude Tchamitchian (contrebasse)
Edward Perraud (batterie, percussions)

tracklist:
01 - Folk song for Rosie
02 - Meridianne - A Wood Sylph
03 - Solange
04 - Home by another way
05 - Some Echoes
06 - Be Vigilant
07 - Open land
08 - Romy
09 - Immersion
10 - Folk song for Rosie

Exact Audio Copy V1.1 from 23. June 2015

EAC extraction logfile from 25. August 2015, 8:13

Bruno Angelini / Instant Sharings

Used drive : ATAPI iHBS112 2 Adapter: 1 ID: 0

Read mode : Secure
Utilize accurate stream : Yes
Defeat audio cache : Yes
Make use of C2 pointers : No

Read offset correction

: 6
Overread into Lead-In and Lead-Out : No
Fill up missing offset samples with silence : Yes
Delete leading and trailing silent blocks : No
Null samples used in CRC calculations : Yes
Used interface
: Native Win32 interface for Win NT & 2000
Gap handling
: Appended to previous track

Used output format : User Defined Encoder
Selected bitrate : 1024 kBit/s
Quality : High
Add ID3 tag : No
Command line compressor : C:\Program Files\Exact Audio Copy\Flac\flac.exe
Additional command line options : -8 -V -T "ARTIST=%artist%" -T "TITLE=%title%" -T "ALBUM=%albumtitle%" -T "DATE=%year%" -T "TRACKNUMBER=%tracknr%" -T "TOTALTRACKS=%numtracks%" -T "GENRE=%genre%" -T "ALBUMARTIST=%albumartist%" -T "ALBUM ARTIST=%albumartist%" -T "COMPOSER=%composer%" -T "PERFORMER=%albuminterpret%" -T "DISCNUMBER=%cdnumber%" -T "TOTALDISCS=%totalcds%" -T "COMMENT=EAC Secure Mode, Test & Copy, AccurateRip, FLAC -8" %source%

TOC of the extracted CD Track | Start | Length | Start sector | End sector
--1 | 0:00.00 | 9:02.73 | 0 | 40722 2 | 9:02.73 | 6:13.25 | 40723 | 68722 3 | 15:16.23 | 5:39.49 | 68723 | 94196 4 | 20:55.72 | 4:42.03 | 94197 | 115349 5 | 25:38.00 | 7:07.08 | 115350 | 147382 6 | 32:45.08 | 4:32.26 | 147383 | 167808 7 | 37:17.34 | 7:50.47 | 167809 | 203105 8 | 45:08.06 | 3:02.06 | 203106 | 216761 9 | 48:10.12 | 3:13.18 | 216762 | 231254
10 | 51:23.30 | 3:31.55 | 231255 | 247134

Track 1 Filename P:\DL\Bruno Angelini - Instant Sharings (2015) [FLAC]\01 - Folk song for Rosie.wav Pre-gap length 0:00:02.00 Peak level 88.5 %
Extraction speed 6.3 X
Track quality 100.0 %
Test CRC 2EA23509
Copy CRC 2EA23509
Track not present in AccurateRip database
Copy OK

Track 2 Filename P:\DL\Bruno Angelini - Instant Sharings (2015) [FLAC]\02 - Meridianne - A Wood Sylph.wav Peak level 96.1 %
Extraction speed 7.0 X
Track quality 100.0 %
Test CRC DB440BB8
Copy CRC DB440BB8
Track not present in AccurateRip database
Copy OK

Track 3 Filename P:\DL\Bruno Angelini - Instant Sharings (2015) [FLAC]\03 - Solange.wav Peak level 97.9 %
Extraction speed 7.5 X
Track quality 100.0 %
Test CRC 4A488362
Copy CRC 4A488362
Track not present in AccurateRip database
Copy OK

Track 4 Filename P:\DL\Bruno Angelini - Instant Sharings (2015) [FLAC]\04 - Home by another way.wav Peak level 96.6 %
Extraction speed 7.9 X
Track quality 100.0 %
Test CRC 6115612A
Copy CRC 6115612A
Track not present in AccurateRip database
Copy OK

Track 5 Filename P:\DL\Bruno Angelini - Instant Sharings (2015) [FLAC]\05 - Some Echoes.wav Peak level 100.0 %
Extraction speed 8.7 X
Track quality 100.0 %
Test CRC 726DE68E
Copy CRC 726DE68E
Track not present in AccurateRip database
Copy OK

Track 6 Filename P:\DL\Bruno Angelini - Instant Sharings (2015) [FLAC]\06 - Be Vigilant.wav Peak level 96.5 %
Extraction speed 8.8 X
Track quality 100.0 %
Test CRC 01733B09
Copy CRC 01733B09
Track not present in AccurateRip database
Copy OK

Track 7 Filename P:\DL\Bruno Angelini - Instant Sharings (2015) [FLAC]\07 - Open land.wav Peak level 96.0 %
Extraction speed 9.7 X
Track quality 100.0 %
Test CRC A2485665
Copy CRC A2485665
Track not present in AccurateRip database
Copy OK

Track 8 Filename P:\DL\Bruno Angelini - Instant Sharings (2015) [FLAC]\08 - Romy.wav Peak level 95.7 %
Extraction speed 9.1 X
Track quality 100.0 %
Test CRC DE8901F1
Copy CRC DE8901F1
Track not present in AccurateRip database
Copy OK

Track 9 Filename P:\DL\Bruno Angelini - Instant Sharings (2015) [FLAC]\09 - Immersion.wav Peak level 98.8 %
Extraction speed 9.3 X
Track quality 100.0 %
Test CRC 231AFB1B
Copy CRC 231AFB1B
Track not present in AccurateRip database
Copy OK

Track 10 Filename P:\DL\Bruno Angelini - Instant Sharings (2015) [FLAC]\10 - Folk song for Rosie.wav Peak level 55.2 %
Extraction speed 9.7 X
Track quality 100.0 %
Test CRC 3A37A66D
Copy CRC 3A37A66D
Track not present in AccurateRip database
Copy OK

None of the tracks are present in the AccurateRip database

No errors occurred

End of status report

- CUETools DB Plugin V2.1.6

[CTDB TOCID: WocA1BK5lHuvSV_oKufsyXBEbhg-] disk not present in database
Submit result:

==== Log checksum 1D0A8F6F928B9D942337A85A5C0EB681BDFFF9E44F4D9A9006F07987936147B3 ====

Bruno Angelini - Instant Sharings (2015) {La Buissonne}

Bruno Angelini - Instant Sharings (2015) {La Buissonne}

Download Links:
(Premium Recommended)


All above links are interchangable. No password

Direct Download

Tags: Angelini, Instant, Sharings, Buissonne

Bruno Angelini - Instant Sharings (2015) {La Buissonne} Download via Hotfile Rapidshare Fileserve Megaupload & FileSonic, Bruno Angelini - Instant Sharings (2015) {La Buissonne} free torrent downloads included crack, serial, keygen.


Attention!Information

Members of Guest cannot leave comments.