Nick Lowe - Nick The Knife (1982) [1990, Reissue]

Download Now

Nick Lowe - Nick The Knife (1982) [1990, Reissue]

Nick Lowe - Nick The Knife (1982) [1990, Reissue]
Pop/Rock, New Wave, Pub Rock | EAC Rip | FLAC, Tracks+CUE + LOG + Full Artwork (JPEG) | 33:56 Min | 226,28 Mb
Label: Columbia Records (USA) | Released: 1990, December, 29

"
Nick the Knife is a 1982 album by Nick Lowe. The album was Lowe's third solo LP, and his first since the 1981 breakup of his band Rockpile. However, the record still has several Rockpile ties, as Lowe's former bandmates Billy Bremner and Terry Williams play on the album. In addition, Lowe does a slowed-down remake of the Rockpile song "Heart"; the original version can be found on the band's album Seconds of Pleasure sung by Bremner. Nick the Knife reached #50 on the Billboard 200, and #99 on the UK album charts. No singles from the album made the US or UK charts, although in Canada "Stick It Where The Sun Don't Shine" hit the Top 40.
"

Nick Lowe - Nick The Knife (1982) [1990, Reissue]

Nick Lowe - Nick The Knife (1982) [1990, Reissue]


Release of the album: 1982, February [LP F-Beat Records, Cat.# XXLP 14, UK]
Release of this CD: 1990, December, 29 [CD Columbia (US), Cat.# CK 37932 / UPC: 074643793223]
© 1982 F-Beat Records Limited / ℗ 1982 Riviera Global Productions Limited
Manufactured by Columbia Records

Backing Vocals - Bobby Irwin
Bass [Additional] - James Eller
Bass, Vocals, Guitar - Nick Lowe
Drums - Bobby Irwin, Terry Williams
Engineer - Aldo Bocca
Guitar - Aldo Bocca, Billy Bremner, Martin Belmont
Piano, Organ [Hammond] - Ben Barson, Carlene Carter, Neil King*, Paul Carrack, Steve Nieve
Producer, Recorded By - Nick Lowe


Tracklist:

01. Burning (02:04)
(Nick Lowe)
02. Heart (03:43)
(Nick Lowe, Rockpile)
03. Stick It Where The Sun Don't Shine (03:41)
(Nick Lowe)
04. Queen Of Sheba (02:31)
(Nick Lowe)
05. My Heart Hurts (02:42)
(Nick Lowe, Carlene Carter)
06. Couldn't Love You (Any More Than I Do) (02:36)
(Nick Lowe)
07. Let Me Kiss Ya (02:57)
(Nick Lowe)
08. Too Many Teardrops (02:34)
(Nick Lowe, Carlene Carter)
09. Ba Doom (02:21)
(Nick Lowe)
10. Raining Raining (02:47)
(Nick Lowe)
11. One's Too Many (And a Hundred Ain't Enough) (02:34)
(Nick Lowe / Kim Wilson)
12. Zulu Kiss (03:26)
(Nick Lowe, Celling)

Recorded at Eden Studios, Acton, London

Exact Audio Copy V0.99 prebeta 5 from 4. May 2009

EAC extraction logfile from 3. January 2010, 10:33

Nick Lowe / Nick The Knife

Used drive : TSSTcorpDVD-ROM SH-D162C Adapter: 1 ID: 1

Read mode : Secure
Utilize accurate stream : Yes
Defeat audio cache : Yes
Make use of C2 pointers : No

Read offset correction

: 6
Overread into Lead-In and Lead-Out : No
Fill up missing offset samples with silence : Yes
Delete leading and trailing silent blocks : No
Null samples used in CRC calculations : Yes
Used interface
: Native Win32 interface for Win NT & 2000
Gap handling
: Appended to previous track

Used output format : User Defined Encoder
Selected bitrate : 1024 kBit/s
Quality : High
Add ID3 tag : No
Command line compressor : C:\Program Files\Exact Audio Copy\FLAC\FLAC.EXE
Additional command line options : -8 -V -T "ARTIST=%a" -T "TITLE=%t" -T "ALBUM=%g" -T "DATE=%y" -T "TRACKNUMBER=%n" -T "GENRE=%m" -T "COMMENT=%e" %s -o %d

TOC of the extracted CD Track | Start | Length | Start sector | End sector
--1 | 0:00.00 | 2:03.44 | 0 | 9268 2 | 2:03.44 | 3:43.28 | 9269 | 26021 3 | 5:46.72 | 3:41.34 | 26022 | 42630 4 | 9:28.31 | 2:30.42 | 42631 | 53922 5 | 11:58.73 | 2:42.12 | 53923 | 66084 6 | 14:41.10 | 2:36.32 | 66085 | 77816 7 | 17:17.42 | 2:56.62 | 77817 | 91078 8 | 20:14.29 | 2:34.15 | 91079 | 102643 9 | 22:48.44 | 2:20.50 | 102644 | 113193
10 | 25:09.19 | 2:46.50 | 113194 | 125693
11 | 27:55.69 | 2:34.19 | 125694 | 137262
12 | 30:30.13 | 3:25.73 | 137263 | 152710

Track 1 Filename K:\Capture\CDex Compress\Nick Lowe - [01] Burning.wav Pre-gap length 0:00:02.00 Peak level 98.6 %
Track quality 100.0 %
Test CRC 5814EDFE
Copy CRC 5814EDFE
Track not present in AccurateRip database
Copy OK

Track 2 Filename K:\Capture\CDex Compress\Nick Lowe - [02] Heart.wav Peak level 92.6 %
Track quality 100.0 %
Test CRC 4A18DDCC
Copy CRC 4A18DDCC
Track not present in AccurateRip database
Copy OK

Track 3 Filename K:\Capture\CDex Compress\Nick Lowe - [03] Stick It Where The Sun Don't Shine.wav Peak level 100.0 %
Track quality 100.0 %
Test CRC 87C257D5
Copy CRC 87C257D5
Track not present in AccurateRip database
Copy OK

Track 4 Filename K:\Capture\CDex Compress\Nick Lowe - [04] Queen Of Sheeba.wav Peak level 86.2 %
Track quality 100.0 %
Test CRC 0CB6DE67
Copy CRC 0CB6DE67
Track not present in AccurateRip database
Copy OK

Track 5 Filename K:\Capture\CDex Compress\Nick Lowe - [05] My Heart Hurts.wav Peak level 100.0 %
Track quality 100.0 %
Test CRC B1B18B7B
Copy CRC B1B18B7B
Track not present in AccurateRip database
Copy OK

Track 6 Filename K:\Capture\CDex Compress\Nick Lowe - [06] Couldn't Love You (Any More Than I Do).wav Peak level 80.8 %
Track quality 100.0 %
Test CRC E8DBBA41
Copy CRC E8DBBA41
Track not present in AccurateRip database
Copy OK

Track 7 Filename K:\Capture\CDex Compress\Nick Lowe - [07] Let Me Kiss Ya.wav Peak level 100.0 %
Track quality 100.0 %
Test CRC 3DC77F17
Copy CRC 3DC77F17
Track not present in AccurateRip database
Copy OK

Track 8 Filename K:\Capture\CDex Compress\Nick Lowe - [08] Too Many Teardrops.wav Peak level 99.0 %
Track quality 100.0 %
Test CRC 4A0829A0
Copy CRC 4A0829A0
Track not present in AccurateRip database
Copy OK

Track 9 Filename K:\Capture\CDex Compress\Nick Lowe - [09] Ba Doom.wav Peak level 90.9 %
Track quality 100.0 %
Test CRC F62D38D8
Copy CRC F62D38D8
Track not present in AccurateRip database
Copy OK

Track 10 Filename K:\Capture\CDex Compress\Nick Lowe - [10] Raining Raining.wav Peak level 90.2 %
Track quality 100.0 %
Test CRC 0DA86A14
Copy CRC 0DA86A14
Track not present in AccurateRip database
Copy OK

Track 11 Filename K:\Capture\CDex Compress\Nick Lowe - [11] One's Too Many (And A Hundred Ain't Enough).wav Peak level 98.3 %
Track quality 100.0 %
Test CRC 7A612304
Copy CRC 7A612304
Track not present in AccurateRip database
Copy OK

Track 12 Filename K:\Capture\CDex Compress\Nick Lowe - [12] Zulu Kiss.wav Peak level 100.0 %
Track quality 100.0 %
Test CRC A71910F3
Copy CRC A71910F3
Track not present in AccurateRip database
Copy OK

None of the tracks are present in the AccurateRip database

No errors occurred

End of status report

foobar2000 1.3.7 / Dynamic Range Meter 1.1.1
log date: 2015-08-26 22:31:10

Analyzed: Nick Lowe / Nick The Knife

DR Peak RMS Duration Track

DR13 -0.12 dB -14.84 dB 2:04 01-Burning
DR15 -0.66 dB -18.46 dB 3:43 02-Heart
DR13 0.00 dB -15.68 dB 3:41 03-Stick It Where The Sun Don't Shine
DR13 -1.29 dB -17.65 dB 2:31 04-Queen Of Sheeba
DR15 0.00 dB -17.03 dB 2:42 05-My Heart Hurts
DR13 -1.85 dB -17.51 dB 2:36 06-Couldn't Love You (Any More Than I Do)
DR15 0.00 dB -16.59 dB 2:57 07-Let Me Kiss Ya
DR15 -0.09 dB -17.58 dB 2:34 08-Too Many Teardrops
DR14 -0.82 dB -16.03 dB 2:21 09-Ba Doom
DR15 -0.89 dB -18.16 dB 2:47 10-Raining Raining
DR14 -0.15 dB -17.02 dB 2:34 11-One's Too Many (And A Hundred Ain't Enough)
DR15 0.00 dB -16.95 dB 3:26 12-Zulu Kiss

Number of tracks: 12
Official DR value: DR14

Samplerate: 44100 Hz
Channels: 2
Bits per sample: 16
Bitrate: 813 kbps
Codec: FLAC

All thanks to - goldenday

password: BlondStyle


Download Links:
(Premium Recommended)


All above links are interchangable. No password

Direct Download

Tags: Reissue

Nick Lowe - Nick The Knife (1982) [1990, Reissue] Download via Hotfile Rapidshare Fileserve Megaupload & FileSonic, Nick Lowe - Nick The Knife (1982) [1990, Reissue] free torrent downloads included crack, serial, keygen.


Attention!Information

Members of Guest cannot leave comments.