If - If 3 (1971) (2007 Remaster) [RE-UP]

Download Now

If - If 3 (1971) (2007 Remaster) [RE-UP]

If - If 3 (1971) (2007 Remaster)
Rock | 1cd | EAC Rip | Flac + Cue + Log | covers
Repertoire, REPUK 1097 | rel: 2007 | 360Mb

If3 continues in the same jazz-rock vein as its predecessors, with strong solo work from reedmen Dave Quincy and Dick Morrissey, and the unique fretwork of fleet-fingered guitarist Terry Smith. The material is more pop-oriented than on the band's previous releases, but it's the jazz chops of the players that place this album a notch or two above those of the other bands working this genre in the early 1970s.
~Allmusic

Track listing
01. Fibonacci's number (7:52)
02. Forgotten roads (4:29)
03. Sweet January (5:10)
04. Child of storm (3:56)
05. Far beyond (5:05)
06. Seldom seen sam (5:08)
07. Upstairs (4:45)
08. Here comes Mr. Time (4:51)
09. Forgotten Roads (Single Edit) (4:03)
10. Far Beyond (Single Edit) (3:53)
~ (49:12)

Personnel
- Dennis Elliott - drums
- J.W. Hodkinson - vocals
- John Mealing - keyboards, vocals
- Dick Morrissey - saxophones, flute
- Dave Quincy - saxophones
- Jim Richardson - bass
- Terry Smith - guitar

Exact Audio Copy V0.99 prebeta 5 from 4. May 2009

EAC extraction logfile from 20. November 2010, 13:26

If / If 3

Used drive : ASUS DRW-20B1LT Adapter: 5 ID: 0

Read mode : Secure
Utilize accurate stream : Yes
Defeat audio cache : Yes
Make use of C2 pointers : No

Read offset correction

: 6
Overread into Lead-In and Lead-Out : No
Fill up missing offset samples with silence : Yes
Delete leading and trailing silent blocks : No
Null samples used in CRC calculations : Yes
Used interface
: Native Win32 interface for Win NT & 2000

Used output format : Internal WAV Routines
Sample format : 44.100 Hz; 16 Bit; Stereo

TOC of the extracted CD Track | Start | Length | Start sector | End sector
--1 | 0:00.00 | 7:51.49 | 0 | 35373 2 | 7:51.49 | 4:29.09 | 35374 | 55557 3 | 12:20.58 | 5:10.03 | 55558 | 78810 4 | 17:30.61 | 3:55.39 | 78811 | 96474 5 | 21:26.25 | 5:04.60 | 96475 | 119334 6 | 26:31.10 | 5:07.63 | 119335 | 142422 7 | 31:38.73 | 4:45.28 | 142423 | 163825 8 | 36:24.26 | 4:51.13 | 163826 | 185663 9 | 41:15.39 | 4:03.08 | 185664 | 203896
10 | 45:18.47 | 3:53.24 | 203897 | 221395

Range status and errors

Selected range Filename C:\rip\If - If 3.wav Peak level 98.8 %
Range quality 100.0 %
Copy CRC F4D4484F
Copy OK

No errors occurred


AccurateRip summary

Track 1 accurately ripped (confidence 5) [27C71011]
Track 2 accurately ripped (confidence 5) [F397175B]
Track 3 accurately ripped (confidence 5) [A27A748D]
Track 4 accurately ripped (confidence 5) [1FAD7515]
Track 5 accurately ripped (confidence 5) [38996A06]
Track 6 accurately ripped (confidence 5) [25166AC8]
Track 7 accurately ripped (confidence 5) [86AC7F19]
Track 8 accurately ripped (confidence 5) [4B569604]
Track 9 accurately ripped (confidence 5) [133D7E16]
Track 10 accurately ripped (confidence 5) [756F3F31]

All tracks accurately ripped

End of status report

[CUETools log; Date: 2015.08.25. 12:12:12; Version: 2.1.5]
[CTDB TOCID: kcOkiw7VbKrWAGEoNvBbMoOnnTA-] found.
Track | CTDB Status
1 | (15/15) Accurately ripped
2 | (15/15) Accurately ripped
3 | (15/15) Accurately ripped
4 | (15/15) Accurately ripped
5 | (15/15) Accurately ripped
6 | (15/15) Accurately ripped
7 | (15/15) Accurately ripped
8 | (15/15) Accurately ripped
9 | (15/15) Accurately ripped
10 | (15/15) Accurately ripped
[AccurateRip ID: 0013e0e7-009bb313-840b870a] found.
Track [ CRC | V2 ] Status
01 [27c71011|6e7d1417] (07+10/17) Accurately ripped
02 [f397175b|573dd59c] (07+10/17) Accurately ripped
03 [a27a748d|84e4c2d1] (07+10/17) Accurately ripped
04 [1fad7515|87abb109] (07+10/17) Accurately ripped
05 [38996a06|0b35edeb] (07+10/17) Accurately ripped
06 [25166ac8|50b73942] (07+10/17) Accurately ripped
07 [86ac7f19|c38099db] (07+10/17) Accurately ripped
08 [4b569604|cacac321] (07+10/17) Accurately ripped
09 [133d7e16|389f465c] (07+10/17) Accurately ripped
10 [756f3f31|010ff4aa] (07+10/17) Accurately ripped

Track Peak [ CRC32 ] [W/O NULL] [ LOG ]
-- 98,8 [F4D4484F] [0F58EEA1] CRC32
01 98,8 [2F97BE13] [EB98043D]
02 98,8 [E5E16B04] EA55D20
03 98,8 [E7367C9A] [90C955AA]
04 98,8 297E910 [850CFDE8]
05 98,8 [D92E895C] [6BB3FC59]
06 98,8 [FB88562F] [78CC60C3]
07 98,8 [79582A01] [81EC1032]
08 98,8 [D5FD347B] [5D6C95CB]
09 98,8 [5AFF924C] [5B71CA3A]
10 98,8 [8426F367] [122CFC93]
password: asd
DOWNLOAD
(Premium Recommended)


All above links are interchangable. No password

Direct Download

Tags: Remaster

If - If 3 (1971) (2007 Remaster) [RE-UP] Download via Hotfile Rapidshare Fileserve Megaupload & FileSonic, If - If 3 (1971) (2007 Remaster) [RE-UP] free torrent downloads included crack, serial, keygen.


Attention!Information

Members of Guest cannot leave comments.