Depeche Mode - A Broken Frame (1982) [1987, Mute INT 846.804]

Download Now

Depeche Mode - A Broken Frame (1982) [1987, Mute INT 846.804]

Depeche Mode - A Broken Frame (1982)
EAC | Flac(Image) + Cue + Log & MP3 CBR 320Kbps
Mute INT 846.804 | ~ 242 or 118 Mb | Scans Included
Synth-pop

"Martin Gore has famously noted that Depeche Mode stopped worrying about its future when the first post-Vince Clarke-departure single, "See You," placed even higher on the English charts than anything else Clarke had done with them. Such confidence carries through all of A Broken Frame, a notably more ambitious effort than the pure pop/disco of the band's debut..."


Tracklist:

01. Leave In Silence [0:04:51.70]
02. My Secret Garden [0:04:46.07]
03. Monument [0:03:15.25]
04. Nothing To Fear [0:04:18.18]
05. See You [0:04:34.57]
06. Satellite [0:04:43.38]
07. The Meaning Of Love [0:03:06.30]
08. A Photograph Of You [0:03:04.50]
09. Shouldn't Have Done That [0:03:12.15]
10. The Sun & The Rainfall [0:05:03.22]

Exact Audio Copy V0.99 prebeta 5 from 4. May 2009

EAC extraction logfile from 10. September 2011, 20:53

Depeche Mode / A Broken Frame

Used drive : SlimtypeBD E DS4E1S Adapter: 0 ID: 1

Read mode : Secure
Utilize accurate stream : Yes
Defeat audio cache : Yes
Make use of C2 pointers : No

Read offset correction

: 6
Overread into Lead-In and Lead-Out : No
Fill up missing offset samples with silence : Yes
Delete leading and trailing silent blocks : No
Null samples used in CRC calculations : Yes
Used interface
: Native Win32 interface for Win NT & 2000

Used output format : User Defined Encoder
Selected bitrate : 768 kBit/s
Quality : High
Add ID3 tag : No
Command line compressor : C:\Program Files (x86)\Exact Audio Copy\Flac\flac.exe
Additional command line options : -T "DATE=%y" -T "GENRE=%m" -8 -V %s

TOC of the extracted CD Track | Start | Length | Start sector | End sector
--1 | 0:00.33 | 4:51.70 | 33 | 21927 2 | 4:52.28 | 4:46.07 | 21928 | 43384 3 | 9:38.35 | 3:15.25 | 43385 | 58034 4 | 12:53.60 | 4:18.18 | 58035 | 77402 5 | 17:12.03 | 4:34.57 | 77403 | 98009 6 | 21:46.60 | 4:43.38 | 98010 | 119272 7 | 26:30.23 | 3:06.30 | 119273 | 133252 8 | 29:36.53 | 3:04.50 | 133253 | 147102 9 | 32:41.28 | 3:12.15 | 147103 | 161517
10 | 35:53.43 | 5:03.22 | 161518 | 184264

Range status and errors

Selected range Filename F:\Depeche Mode - A Broken Frame (1982) (MUTE INT 846.804) (3rd Germany 1987)\Depeche Mode - A Broken Frame.wav Peak level 100.0 %
Range quality 100.0 %
Test CRC 7964C4E5
Copy CRC 7964C4E5
Copy OK

No errors occurred


AccurateRip summary

Track 1 accurately ripped (confidence 59) [08C2D345]
Track 2 accurately ripped (confidence 59) [12DA81FC]
Track 3 accurately ripped (confidence 61) [66E9DD16]
Track 4 accurately ripped (confidence 59) [C33821D0]
Track 5 accurately ripped (confidence 60) [D87E39E1]
Track 6 accurately ripped (confidence 59) [67F213A7]
Track 7 accurately ripped (confidence 60) [EDDB68F3]
Track 8 accurately ripped (confidence 61) [15150449]
Track 9 accurately ripped (confidence 61) [C45BC64D]
Track 10 accurately ripped (confidence 61) [A8E497C5]

All tracks accurately ripped

End of status report

foobar2000 1.2.9 / Dynamic Range Meter 1.1.1
log date: 2015-08-26 09:24:55

Analyzed: Depeche Mode / A Broken Frame

DR Peak RMS Duration Track

DR15 0.00 dB -17.27 dB 4:52 01-Leave In Silence
DR13 -0.59 dB -16.73 dB 4:46 02-My Secret Garden
DR14 0.00 dB -16.59 dB 3:15 03-Monument
DR13 -0.43 dB -16.61 dB 4:18 04-Nothing To Fear
DR15 0.00 dB -17.10 dB 4:35 05-See You
DR13 -2.06 dB -18.69 dB 4:44 06-Satellite
DR14 0.00 dB -16.52 dB 3:06 07-The Meaning Of Love
DR14 0.00 dB -16.16 dB 3:05 08-A Photograph Of You
DR14 -0.41 dB -18.62 dB 3:12 09-Shouldn't Have Done That
DR13 -0.30 dB -15.52 dB 5:03 10-The Sun & The Rainfall

Number of tracks: 10
Official DR value: DR14

Samplerate: 44100 Hz
Channels: 2
Bits per sample: 16
Bitrate: 729 kbps
Codec: FLAC

[CUETools log; Date: 26.08.2015 8:59:36; Version: 2.1.4]
Pregap length 00:00:33.
[CTDB TOCID: hDCew.8rWc6HWaCk8di3rOvC7x4-] found.
Track | CTDB Status
1 | (45/48) Accurately ripped
2 | (45/48) Accurately ripped
3 | (45/48) Accurately ripped
4 | (45/48) Accurately ripped
5 | (45/48) Accurately ripped
6 | (44/48) Accurately ripped
7 | (44/48) Accurately ripped
8 | (45/48) Accurately ripped
9 | (46/48) Accurately ripped
10 | (45/48) Accurately ripped
[AccurateRip ID: 000feeee-007ddb98-8d09980a] found.
Track [ CRC | V2 ] Status
01 [08c2d345|7eb9a867] (064+055/168) Accurately ripped
02 [12da81fc|dd15ca59] (064+055/169) Accurately ripped
03 [66e9dd16|8391f6f9] (066+055/170) Accurately ripped
04 [c33821d0|0d7ff117] (064+055/169) Accurately ripped
05 [d87e39e1|6f1594c0] (065+055/169) Accurately ripped
06 [67f213a7|780f96a2] (064+055/169) Accurately ripped
07 [eddb68f3|abbf9b91] (065+054/169) Accurately ripped
08 [15150449|9843bef6] (066+055/171) Accurately ripped
09 [c45bc64d|21d9b65c] (066+054/170) Accurately ripped
10 [a8e497c5|412ca9e9] (066+055/168) Accurately ripped
Offsetted by -2488:
01 [571f385c] (026/168) Accurately ripped
02 [79cf5ffc] (026/169) Accurately ripped
03 [da638d6a] (025/170) Accurately ripped
04 [616d5721] (026/169) Accurately ripped
05 [720e496b] (026/169) Accurately ripped
06 [5c85dc7a] (026/169) Accurately ripped
07 [2bff8be4] (026/169) Accurately ripped
08 [22d50178] (026/171) Accurately ripped
09 [23c38173] (026/170) Accurately ripped
10 [8bd53bba] (025/168) Accurately ripped
Offsetted by -1823:
01 [7b9acf60] (009/168) Accurately ripped
02 b4f864a (010/169) Accurately ripped
03 [d32c09a9] (010/170) Accurately ripped
04 [c35ae563] (010/169) Accurately ripped
05 [1dc3ca28] (009/169) Accurately ripped
06 [a846032b] (010/169) Accurately ripped
07 [e2395557] (010/169) Accurately ripped
08 [168f5db2] (010/171) Accurately ripped
09 [4f6e2946] (010/170) Accurately ripped
10 [e5f309a5] (008/168) Accurately ripped

Track Peak [ CRC32 ] [W/O NULL] [ LOG ]
-- 100,0 [7964C4E5] [4CF90409] CRC32
01 100,0 [2AE93463] 1E33F63
02 93,4 [64A98F2A] [942A412F]
03 100,0 [80B0ABF9] [70BE69E4]
04 95,1 [8B55CF94] [0066C502]
05 100,0 [070FB084] [99FE4795]
06 78,9 [AD9F6A06] [1788EB8A]
07 100,0 [844F2350] [FE02A4F1]
08 100,0 [FD3EECB1] [E36CB562]
09 95,3 729E727 [48618239]
10 96,6 [12DB350A] [9BD774D2]

Depeche Mode - A Broken Frame (1982) [1987, Mute INT 846.804]

DOWNLOAD LINKS:
(Premium Recommended)


All above links are interchangable. No password

Direct Download

Tags: Depeche, Broken

Depeche Mode - A Broken Frame (1982) [1987, Mute INT 846.804] Download via Hotfile Rapidshare Fileserve Megaupload & FileSonic, Depeche Mode - A Broken Frame (1982) [1987, Mute INT 846.804] free torrent downloads included crack, serial, keygen.


Attention!Information

Members of Guest cannot leave comments.