Various Artists - Keep On Rockin' - Australian Pop Of The 70's Vol. 5 [2CD] (2014)

Download Now

Various Artists - Keep On Rockin' - Australian Pop Of The 70's Vol. 5 [2CD] (2014)

Various Artists - Keep On Rockin' - Australian Pop Of The 70's Vol. 5 [2CD] (2014)
Pop, Pop/Rock, Soft Rock | EAC Rip | FLAC, Tracks+CUE + LOG + Artwork-600dpi (JPEG) | 76:32 + 79:00 Min | 1,13 Gb
Label: Sony Music Entertainment Australia Pty Ltd. (AU) | Released: 2014, July, 29

"
Australian-only two CD set. Carefully selected by compilation producer Brent James. Volume 5 brings together more all-time Aussie Classics and rare titles representing the '70s. Features original hit versions. Mastered from the best possible sources with many titles remastered from the original studio tapes for this release. Contains over 40 chart hits. Including Sherbet, Fielding & Dyer (with their other hit), Ariel, Supernaut, The Strangers and CD debuts for Railroad Gin, Digby Richards, Marcie Jones, Stuart & McKay through to progressive rock classics from Lotus and Flying Circus. Also featured is Number 96's Abigail with her smash 1973 hit and Pat Carroll's hit cover of a Eurovision song.
"

Various Artists - Keep On Rockin' - Australian Pop Of The 70's Vol. 5 [2CD] (2014)


Release of this 2CD Set: 2014, July, 29 [CD Sony Music Entertainment Australia Pty Ltd. (AU), Cat.# 88843053152 / EAN: 0888430531529]
This compilation © 2014 Sony Music Entertainment Australia Pty Ltd.
Distributed in Australia by Sony Music Entertainment Australia Pty Ltd.

Tracklist:

Disc One:

01. Brian Cadd - Keep On Rockin
02. Doug Ashdown - Winter In America (Leave Love Enough Alone)
03. Autumn - Yellow River
04. Daryl Braithwaite - Old Sid
05. Ariel - Jamaican Farewell
06. Stars - Back Again
07. Marcie Jones - Gonna Get Married
08. The Strangers - Melanie Makes Me Smile
09. Ray Burton - Too Hard To Handle
10. Johnny O'Keefe - So Tough
11. Feilding & Dyer - The Ghost
12. T.M.G. - My Little Girl
13. Kevin Johnson - Man Of The 20th Centruy
14. Russell Morris - Live With Freinds
15. Flake - Under The Silent Tree
16. Ol'55 - Stay (While The Night Is Young)
17. Railroad Gin - Do Ya Love Me
18. Ray Burgess - Touch Me
19. Digby Richards - Raincoat In The River
20. John St Peeters - So Many Ways
21. Stuart & McKay - Hey Billy
22. Finch - Short Changed Again

Disc Two:

01. Sherbet - You're All Woman
02. Lotus - Lotus 1 (I'll Be Gone)
03. Doug Parkinson & Southern Star Band - I'll Be Around
04. William Shakespeare - Just The Way You Are
05. Jon English - Handbags & Gladrags
06. Richard Clapton - Down In The Lucky Country
07. Abigail - Je T'aime (I Love You)
08. Moscos & Stone - Trouble In The City
09. Mississippi - Kings Of The World
10. Sinclair Brothers - Yesterfool
11. Colleen Hewett - Carry That Weight
12. Mark Holden - I Wanna Make You My Lady
13. Flying Circus - Turn Away
14. Col Joye - Heaven Is My Woman's Love
15. King Harvest - Wicheta Lineman
16. Supernaut - Too Hot To Touch
17. Samantha Sang - You Keep Me Dancing
18. Gerry & The Joy Band - Ongo Bongo
19. Pat Carroll - All Kinds Of Everything
20. Ronnie Burns - Prophet
21. Renee Geyer - Stares & Whispers
22. Reg Lindsay - Armstrong
23. Rabbit - Too Much Rock 'N' Roll

Exact Audio Copy V1.0 beta 3 from 29. August 2011

EAC extraction logfile from 7. March 2015, 2:14

Various Artists / Australian Pop Of The 70's Vol 5 Keep On Rockin' Disc 1

Used drive : HL-DT-STDVDRAM GH24NS90 Adapter: 1 ID: 0

Read mode : Secure
Utilize accurate stream : Yes
Defeat audio cache : No
Make use of C2 pointers : Yes

Read offset correction

: 6
Overread into Lead-In and Lead-Out : No
Fill up missing offset samples with silence : Yes
Delete leading and trailing silent blocks : No
Null samples used in CRC calculations : Yes
Used interface
: Native Win32 interface for Win NT & 2000
Gap handling
: Appended to previous track

Used output format : User Defined Encoder
Selected bitrate : 1024 kBit/s
Quality : High
Add ID3 tag : No
Command line compressor : C:\Program Files (x86)\FLAC\metaflac.exe
Additional command line options : -8

TOC of the extracted CD Track | Start | Length | Start sector | End sector
--1 | 0:00.00 | 4:39.12 | 0 | 20936 2 | 4:39.12 | 3:18.17 | 20937 | 35803 3 | 7:57.29 | 3:04.69 | 35804 | 49672 4 | 11:02.23 | 3:24.61 | 49673 | 65033 5 | 14:27.09 | 2:50.15 | 65034 | 77798 6 | 17:17.24 | 4:13.16 | 77799 | 96789 7 | 21:30.40 | 3:39.69 | 96790 | 113283 8 | 25:10.34 | 3:03.32 | 113284 | 127040 9 | 28:13.66 | 2:57.22 | 127041 | 140337
10 | 31:11.13 | 2:23.53 | 140338 | 151115
11 | 33:34.66 | 3:17.74 | 151116 | 165964
12 | 36:52.65 | 3:36.42 | 165965 | 182206
13 | 40:29.32 | 4:11.60 | 182207 | 201091
14 | 44:41.17 | 3:39.51 | 201092 | 217567
15 | 48:20.68 | 3:51.70 | 217568 | 234962
16 | 52:12.63 | 4:08.26 | 234963 | 253588
17 | 56:21.14 | 3:16.17 | 253589 | 268305
18 | 59:37.31 | 4:26.48 | 268306 | 288303
19 | 64:04.04 | 3:02.05 | 288304 | 301958
20 | 67:06.09 | 3:32.55 | 301959 | 317913
21 | 70:38.64 | 2:58.49 | 317914 | 331312
22 | 73:37.38 | 2:54.62 | 331313 | 344424

Track 1 Filename C:\Exact Audio Copy\01 Keep On Rockin' - Brian Cadd.wav Pre-gap length 0:00:02.00 Peak level 100.0 %
Extraction speed 4.2 X
Track quality 99.9 %
Test CRC 1C8D60EE
Copy CRC 1C8D60EE
Accurately ripped (confidence 1) [1758F83B] (AR v2)
Copy OK

Track 2 Filename C:\Exact Audio Copy\02 Winter In America (Leave Love Enough Alone) - Doug Ashdown.wav Pre-gap length 0:00:01.53 Peak level 100.0 %
Extraction speed 4.7 X
Track quality 100.0 %
Test CRC DD280BF7
Copy CRC DD280BF7
Accurately ripped (confidence 1) [DF6EB712] (AR v2)
Copy OK

Track 3 Filename C:\Exact Audio Copy\03 Yellow River - Autumn.wav Pre-gap length 0:00:01.63 Peak level 100.0 %
Extraction speed 5.0 X
Track quality 100.0 %
Test CRC 7BC86DA3
Copy CRC 7BC86DA3
Accurately ripped (confidence 1) [C24D4F7D] (AR v2)
Copy OK

Track 4 Filename C:\Exact Audio Copy\04 Old Sid - Daryl Braithwaite.wav Pre-gap length 0:00:00.72 Peak level 100.0 %
Extraction speed 5.0 X
Track quality 100.0 %
Test CRC 18949AF3
Copy CRC 18949AF3
Accurately ripped (confidence 1) [A5BBCA22] (AR v2)
Copy OK

Track 5 Filename C:\Exact Audio Copy\05 Jamaican Farewell - Ariel.wav Pre-gap length 0:00:01.66 Peak level 100.0 %
Extraction speed 5.6 X
Track quality 100.0 %
Test CRC 09E212FF
Copy CRC 09E212FF
Accurately ripped (confidence 1) [A0AB94D4] (AR v2)
Copy OK

Track 6 Filename C:\Exact Audio Copy\06 Back Again - Stars.wav Pre-gap length 0:00:01.54 Peak level 100.0 %
Extraction speed 5.7 X
Track quality 100.0 %
Test CRC BA25B98A
Copy CRC BA25B98A
Accurately ripped (confidence 1) [D43D9E3B] (AR v2)
Copy OK

Track 7 Filename C:\Exact Audio Copy\07 Gonna Get Married - Marcie Jones.wav Pre-gap length 0:00:01.21 Peak level 100.0 %
Extraction speed 6.2 X
Track quality 100.0 %
Test CRC F1063034
Copy CRC F1063034
Accurately ripped (confidence 1) [9CDEC872] (AR v2)
Copy OK

Track 8 Filename C:\Exact Audio Copy\08 Melanie Makes Me Smile - The Strangers.wav Pre-gap length 0:00:01.11 Peak level 95.5 %
Extraction speed 6.1 X
Track quality 100.0 %
Test CRC 64F9EF74
Copy CRC 64F9EF74
Accurately ripped (confidence 1) [D0940B93] (AR v2)
Copy OK

Track 9 Filename C:\Exact Audio Copy\09 Too Hard To Handle - Ray Burton.wav Pre-gap length 0:00:01.32 Peak level 100.0 %
Extraction speed 6.6 X
Track quality 100.0 %
Test CRC 337D6BB7
Copy CRC 337D6BB7
Accurately ripped (confidence 1) [FA29E390] (AR v2)
Copy OK

Track 10 Filename C:\Exact Audio Copy\10 So Tough - Johnny O'Keefe.wav Pre-gap length 0:00:00.73 Peak level 100.0 %
Extraction speed 6.4 X
Track quality 99.8 %
Test CRC A2D0B418
Copy CRC A2D0B418
Accurately ripped (confidence 1) [9DA3EE20] (AR v2)
Copy OK

Track 11 Filename C:\Exact Audio Copy\11 The Ghost - Fielding & Dyer.wav Pre-gap length 0:00:01.54 Peak level 100.0 %
Extraction speed 7.0 X
Track quality 100.0 %
Test CRC 40DE9BAF
Copy CRC 40DE9BAF
Accurately ripped (confidence 1) [49AC9EA8] (AR v2)
Copy OK

Track 12 Filename C:\Exact Audio Copy\12 My Little Girl - T.M.G..wav Pre-gap length 0:00:01.02 Peak level 93.3 %
Extraction speed 6.9 X
Track quality 100.0 %
Test CRC 344B8012
Copy CRC 344B8012
Accurately ripped (confidence 1) [88A45133] (AR v2)
Copy OK

Track 13 Filename C:\Exact Audio Copy\13 Man Of The 20th Century - Kevin Johnson.wav Pre-gap length 0:00:01.47 Peak level 100.0 %
Extraction speed 7.5 X
Track quality 100.0 %
Test CRC D8A8ACAE
Copy CRC D8A8ACAE
Accurately ripped (confidence 1) [81564AA4] (AR v2)
Copy OK

Track 14 Filename C:\Exact Audio Copy\14 Live With Friends - Russell Morris.wav Pre-gap length 0:00:02.02 Peak level 99.9 %
Extraction speed 7.7 X
Track quality 100.0 %
Test CRC 19F9AF89
Copy CRC 19F9AF89
Accurately ripped (confidence 1) [33D85A37] (AR v2)
Copy OK

Track 15 Filename C:\Exact Audio Copy\15 Under The Silent Tree - Flake.wav Pre-gap length 0:00:01.45 Peak level 95.5 %
Extraction speed 7.6 X
Track quality 100.0 %
Test CRC 7E3FE08A
Copy CRC 7E3FE08A
Accurately ripped (confidence 1) [438CEF9A] (AR v2)
Copy OK

Track 16 Filename C:\Exact Audio Copy\16 Stay (While The Night Is Young) - Ol'55.wav Pre-gap length 0:00:01.34 Peak level 100.0 %
Extraction speed 8.2 X
Track quality 100.0 %
Test CRC B22A0452
Copy CRC B22A0452
Accurately ripped (confidence 1) [C55C9BD4] (AR v2)
Copy OK

Track 17 Filename C:\Exact Audio Copy\17 Do Ya Love Me - Railroad Gin.wav Pre-gap length 0:00:01.41 Peak level 100.0 %
Extraction speed 7.9 X
Track quality 100.0 %
Test CRC E0A7FB24
Copy CRC E0A7FB24
Accurately ripped (confidence 1) [9EA7DB65] (AR v2)
Copy OK

Track 18 Filename C:\Exact Audio Copy\18 Touch Me - Ray Burgess.wav Pre-gap length 0:00:00.69 Peak level 100.0 %
Extraction speed 8.2 X
Track quality 100.0 %
Test CRC 7FC61933
Copy CRC 7FC61933
Accurately ripped (confidence 1) [F3683671] (AR v2)
Copy OK

Track 19 Filename C:\Exact Audio Copy\19 Raincoat In The River - Digby Richards.wav Pre-gap length 0:00:01.10 Peak level 100.0 %
Extraction speed 8.8 X
Track quality 100.0 %
Test CRC 49BE6B08
Copy CRC 49BE6B08
Accurately ripped (confidence 1) [6E57B8A1] (AR v2)
Copy OK

Track 20 Filename C:\Exact Audio Copy\20 So Many Ways - John St. Peeters.wav Pre-gap length 0:00:02.02 Peak level 90.1 %
Extraction speed 8.6 X
Track quality 100.0 %
Test CRC AD373DF4
Copy CRC AD373DF4
Accurately ripped (confidence 1) [15942E94] (AR v2)
Copy OK

Track 21 Filename C:\Exact Audio Copy\21 Hey Billy - Stuart & McKay.wav Pre-gap length 0:00:01.51 Peak level 100.0 %
Extraction speed 8.7 X
Track quality 100.0 %
Test CRC B85A363B
Copy CRC B85A363B
Accurately ripped (confidence 1) [E353E0C8] (AR v2)
Copy OK

Track 22 Filename C:\Exact Audio Copy\22 Short Changed Again - Finch.wav Pre-gap length 0:00:01.67 Peak level 95.7 %
Extraction speed 8.8 X
Track quality 100.0 %
Test CRC 063EF24A
Copy CRC 063EF24A
Accurately ripped (confidence 1) [010196F6] (AR v2)
Copy OK

All tracks accurately ripped

No errors occurred

End of status report

==== Log checksum 1F31887C2D0445341A20F32DDED9E008A7E4F4A6D66A0C6CFF3FA63A8D768C5B ====

Exact Audio Copy V1.0 beta 3 from 29. August 2011

EAC extraction logfile from 8. March 2015, 5:44

Various Artists / Australian Pop Of The 70's Vol 5 Keep On Rockin' Disc 2

Used drive : HL-DT-STDVDRAM GH24NS90 Adapter: 1 ID: 0

Read mode : Secure
Utilize accurate stream : Yes
Defeat audio cache : No
Make use of C2 pointers : Yes

Read offset correction

: 6
Overread into Lead-In and Lead-Out : No
Fill up missing offset samples with silence : Yes
Delete leading and trailing silent blocks : No
Null samples used in CRC calculations : Yes
Used interface
: Native Win32 interface for Win NT & 2000
Gap handling
: Appended to previous track

Used output format : User Defined Encoder
Selected bitrate : 1024 kBit/s
Quality : High
Add ID3 tag : No
Command line compressor : C:\Program Files (x86)\FLAC\metaflac.exe
Additional command line options : -8

TOC of the extracted CD Track | Start | Length | Start sector | End sector
--1 | 0:00.00 | 2:54.24 | 0 | 13073 2 | 2:54.24 | 3:47.16 | 13074 | 30114 3 | 6:41.40 | 3:18.29 | 30115 | 44993 4 | 9:59.69 | 3:10.16 | 44994 | 59259 5 | 13:10.10 | 5:21.58 | 59260 | 83392 6 | 18:31.68 | 3:37.49 | 83393 | 99716 7 | 22:09.42 | 3:18.74 | 99717 | 114640 8 | 25:28.41 | 3:07.03 | 114641 | 128668 9 | 28:35.44 | 2:30.44 | 128669 | 139962
10 | 31:06.13 | 4:11.16 | 139963 | 158803
11 | 35:17.29 | 2:53.25 | 158804 | 171803
12 | 38:10.54 | 2:40.61 | 171804 | 183864
13 | 40:51.40 | 3:42.01 | 183865 | 200515
14 | 44:33.41 | 2:46.58 | 200516 | 213023
15 | 47:20.24 | 4:16.02 | 213024 | 232225
16 | 51:36.26 | 4:04.36 | 232226 | 250561
17 | 55:40.62 | 2:53.13 | 250562 | 263549
18 | 58:34.00 | 3:33.66 | 263550 | 279590
19 | 62:07.66 | 3:02.66 | 279591 | 293306
20 | 65:10.57 | 4:19.52 | 293307 | 312783
21 | 69:30.34 | 3:24.61 | 312784 | 328144
22 | 72:55.20 | 2:40.65 | 328145 | 340209
23 | 75:36.10 | 3:24.17 | 340210 | 355526

Track 1 Filename C:\Exact Audio Copy\01 You're All Woman - Sherbet.wav Pre-gap length 0:00:02.00 Peak level 98.8 %
Extraction speed 4.0 X
Track quality 99.8 %
Test CRC FC3EE103
Copy CRC FC3EE103
Cannot be verified as accurate (confidence 1) [98BE2795], AccurateRip returned [CAAD9AB8] (AR v2)
Copy OK

Track 2 Filename C:\Exact Audio Copy\02 Lotus 1 (I'll Be Gone) - Lotus.wav Pre-gap length 0:00:01.47 Peak level 100.0 %
Extraction speed 4.4 X
Track quality 99.9 %
Test CRC 57A3BD32
Copy CRC 57A3BD32
Cannot be verified as accurate (confidence 1) [DC7DE2FD], AccurateRip returned [51301405] (AR v2)
Copy OK

Track 3 Filename C:\Exact Audio Copy\03 I'll Be Around - Doug Parkinson & The Southern Star Band.wav Pre-gap length 0:00:01.39 Peak level 100.0 %
Extraction speed 4.7 X
Track quality 100.0 %
Test CRC 4AA8E758
Copy CRC 4AA8E758
Cannot be verified as accurate (confidence 1) [507E45CC], AccurateRip returned [323CB8A2] (AR v2)
Copy OK

Track 4 Filename C:\Exact Audio Copy\04 Just The Way You Are - William Shakespeare.wav Pre-gap length 0:00:01.54 Peak level 100.0 %
Extraction speed 4.9 X
Track quality 100.0 %
Test CRC C3284907
Copy CRC C3284907
Cannot be verified as accurate (confidence 1) [A6ABFBFD], AccurateRip returned [26EE0560] (AR v2)
Copy OK

Track 5 Filename C:\Exact Audio Copy\05 Handbags & Gladrags - Jon English.wav Pre-gap length 0:00:02.17 Peak level 100.0 %
Extraction speed 5.4 X
Track quality 100.0 %
Test CRC 511D1AAD
Copy CRC 511D1AAD
Cannot be verified as accurate (confidence 1) [D518AFCB], AccurateRip returned [84BA7A38] (AR v2)
Copy OK

Track 6 Filename C:\Exact Audio Copy\06 Down In The Lucky Country - Richard Clapton.wav Pre-gap length 0:00:02.04 Peak level 100.0 %
Extraction speed 5.7 X
Track quality 99.9 %
Test CRC 3FBE028C
Copy CRC 3FBE028C
Cannot be verified as accurate (confidence 1) [25E5DB10], AccurateRip returned [EBE32DBE] (AR v2)
Copy OK

Track 7 Filename C:\Exact Audio Copy\07 Je T'Aime (I Love You) - Abigail.wav Pre-gap length 0:00:01.46 Peak level 100.0 %
Extraction speed 5.9 X
Track quality 100.0 %
Test CRC 399EA15A
Copy CRC 399EA15A
Cannot be verified as accurate (confidence 1) [F5E8A943], AccurateRip returned [096E732D] (AR v2)
Copy OK

Track 8 Filename C:\Exact Audio Copy\08 Trouble In The City - Moscos & Stone.wav Pre-gap length 0:00:02.02 Peak level 100.0 %
Extraction speed 6.1 X
Track quality 99.8 %
Test CRC 4FC1F6CB
Copy CRC 4FC1F6CB
Cannot be verified as accurate (confidence 1) [8A85A1F8], AccurateRip returned [AB750EC7] (AR v2)
Copy OK

Track 9 Filename C:\Exact Audio Copy\09 Kings Of The World - Mississippi.wav Pre-gap length 0:00:01.64 Peak level 99.8 %
Extraction speed 6.2 X
Track quality 100.0 %
Test CRC ED653D13
Copy CRC ED653D13
Cannot be verified as accurate (confidence 1) [8D1F4A1B], AccurateRip returned FA6A5BF (AR v2)
Copy OK

Track 10 Filename C:\Exact Audio Copy\10 Yesterfool - Sinclair Brothers.wav Pre-gap length 0:00:01.72 Peak level 100.0 %
Extraction speed 6.9 X
Track quality 100.0 %
Test CRC 2ED04C1E
Copy CRC 2ED04C1E
Cannot be verified as accurate (confidence 1) [FC69570A], AccurateRip returned [77CEDC25] (AR v2)
Copy OK

Track 11 Filename C:\Exact Audio Copy\11 Carry That Weight - Colleen Hewett.wav Pre-gap length 0:00:01.73 Peak level 100.0 %
Extraction speed 6.7 X
Track quality 99.8 %
Test CRC 424B931D
Copy CRC 424B931D
Cannot be verified as accurate (confidence 1) 2DCCA04, AccurateRip returned [1671AC8F] (AR v2)
Copy OK

Track 12 Filename C:\Exact Audio Copy\12 I Wanna Make You My Lady - Mark Holden.wav Pre-gap length 0:00:01.73 Peak level 97.3 %
Extraction speed 6.8 X
Track quality 100.0 %
Test CRC F2FD27DB
Copy CRC F2FD27DB
Cannot be verified as accurate (confidence 1) [58A49E3C], AccurateRip returned [E4E88974] (AR v2)
Copy OK

Track 13 Filename C:\Exact Audio Copy\13 Turn Away - Flying Circus.wav Pre-gap length 0:00:01.73 Peak level 100.0 %
Extraction speed 7.1 X
Track quality 100.0 %
Test CRC B6F26DA8
Copy CRC B6F26DA8
Cannot be verified as accurate (confidence 1) [31D3FF09], AccurateRip returned [AF8ECC27] (AR v2)
Copy OK

Track 14 Filename C:\Exact Audio Copy\14 Heaven Is My Woman's Love - Col Joye.wav Pre-gap length 0:00:01.60 Peak level 100.0 %
Extraction speed 7.7 X
Track quality 100.0 %
Test CRC 9AF4F461
Copy CRC 9AF4F461
Cannot be verified as accurate (confidence 1) [2E7603C3], AccurateRip returned [AD5581DD] (AR v2)
Copy OK

Track 15 Filename C:\Exact Audio Copy\15 Wicheta Lineman - King Harvest.wav Pre-gap length 0:00:01.74 Peak level 100.0 %
Extraction speed 7.7 X
Track quality 100.0 %
Test CRC E0874ECA
Copy CRC E0874ECA
Cannot be verified as accurate (confidence 1) [7140F6E3], AccurateRip returned [347F7835] (AR v2)
Copy OK

Track 16 Filename C:\Exact Audio Copy\16 Too Hot To Touch - Supernaut.wav Pre-gap length 0:00:01.69 Peak level 100.0 %
Extraction speed 8.1 X
Track quality 100.0 %
Test CRC F345578F
Copy CRC F345578F
Cannot be verified as accurate (confidence 1) [DF5CDECD], AccurateRip returned [58710055] (AR v2)
Copy OK

Track 17 Filename C:\Exact Audio Copy\17 You Keep Me Dancing - Samantha Sang.wav Pre-gap length 0:00:01.72 Peak level 100.0 %
Extraction speed 7.9 X
Track quality 100.0 %
Test CRC 2F8813E4
Copy CRC 2F8813E4
Cannot be verified as accurate (confidence 1) [FA773081], AccurateRip returned [0F966A2B] (AR v2)
Copy OK

Track 18 Filename C:\Exact Audio Copy\18 Ongo Bongo - Gerry & The Joy Band.wav Pre-gap length 0:00:02.00 Peak level 100.0 %
Extraction speed 8.5 X
Track quality 100.0 %
Test CRC 10F016EE
Copy CRC 10F016EE
Cannot be verified as accurate (confidence 1) [C659990B], AccurateRip returned [8D2E698C] (AR v2)
Copy OK

Track 19 Filename C:\Exact Audio Copy\19 All Kinds Of Everything - Pat Carroll.wav Pre-gap length 0:00:02.13 Peak level 100.0 %
Extraction speed 8.1 X
Track quality 100.0 %
Test CRC 74439937
Copy CRC 74439937
Cannot be verified as accurate (confidence 1) [AC6C34A6], AccurateRip returned [E28D16E9] (AR v2)
Copy OK

Track 20 Filename C:\Exact Audio Copy\20 Prophet - Ronnie Burns.wav Pre-gap length 0:00:01.72 Peak level 89.1 %
Extraction speed 8.5 X
Track quality 99.9 %
Test CRC 4B2B126A
Copy CRC 4B2B126A
Cannot be verified as accurate (confidence 1) [183BC7AC], AccurateRip returned [1D528B1F] (AR v2)
Copy OK

Track 21 Filename C:\Exact Audio Copy\21 Stares & Whispers - Renee Geyer.wav Pre-gap length 0:00:01.65 Peak level 99.9 %
Extraction speed 8.5 X
Track quality 100.0 %
Test CRC 0A179970
Copy CRC 0A179970
Cannot be verified as accurate (confidence 1) [908D4363], AccurateRip returned [EA0BC3C9] (AR v2)
Copy OK

Track 22 Filename C:\Exact Audio Copy\22 Armstrong - Reg Lindsay.wav Pre-gap length 0:00:01.68 Peak level 100.0 %
Extraction speed 8.5 X
Track quality 100.0 %
Test CRC B2CDAD34
Copy CRC B2CDAD34
Cannot be verified as accurate (confidence 1) [6E294A3D], AccurateRip returned [947A43CF] (AR v2)
Copy OK

Track 23 Filename C:\Exact Audio Copy\23 Too Much Rock 'N' Roll - Rabbit.wav Pre-gap length 0:00:01.70 Peak level 100.0 %
Extraction speed 8.7 X
Track quality 100.0 %
Test CRC 61EAE35D
Copy CRC 61EAE35D
Cannot be verified as accurate (confidence 1) [7463DB42], AccurateRip returned [3857E8CD] (AR v2)
Copy OK

No tracks could be verified as accurate
You may have a different pressing from the one(s) in the database

No errors occurred

End of status report

==== Log checksum B34E09B1954DE5C3B78565CD315FC5D53F95BD1745DA55DBF232CD25E560B601 ====

foobar2000 1.3.7 / Dynamic Range Meter 1.1.1
log date: 2015-08-27 19:26:42

Analyzed: Various Artists / Australian Pop Of The 70's Vol 5 Keep On Rockin' Disc 1

DR Peak RMS Duration Track

DR9 0.00 dB -10.50 dB 4:39 01-Brian Cadd
DR11 0.00 dB -13.12 dB 3:18 02-Doug Ashdown
DR9 0.00 dB -10.00 dB 3:05 03-Autumn
DR11 0.00 dB -13.05 dB 3:25 04-Daryl Braithwaite
DR9 0.00 dB -10.60 dB 2:50 05-Ariel
DR10 0.00 dB -11.39 dB 4:13 06-Stars
DR9 0.00 dB -10.26 dB 3:40 07-Marcie Jones
DR10 -0.40 dB -11.82 dB 3:03 08-The Strangers
DR10 0.00 dB -11.43 dB 2:57 09-Ray Burton
DR10 0.00 dB -11.48 dB 2:24 10-Johnny O'Keefe
DR10 0.00 dB -11.42 dB 3:18 11-Fielding & Dyer
DR8 -0.60 dB -9.81 dB 3:37 12-T.M.G.
DR11 0.00 dB -13.30 dB 4:12 13-Kevin Johnson
DR9 0.00 dB -10.70 dB 3:40 14-Russell Morris
DR7 -0.40 dB -7.65 dB 3:52 15-Flake
DR7 0.00 dB -8.55 dB 4:08 16-Ol'55
DR10 0.00 dB -10.63 dB 3:16 17-Railroad Gin
DR10 0.00 dB -11.74 dB 4:27 18-Ray Burgess
DR10 0.00 dB -11.98 dB 3:02 19-Digby Richards
DR9 -0.90 dB -12.36 dB 3:33 20-John St. Peeters
DR10 0.00 dB -11.81 dB 2:59 21-Stuart & McKay
DR9 -0.38 dB -10.04 dB 2:55 22-Finch

Number of tracks: 22
Official DR value: DR9

Samplerate: 44100 Hz
Channels: 2
Bits per sample: 16
Bitrate: 854 kbps
Codec: FLAC

foobar2000 1.3.7 / Dynamic Range Meter 1.1.1
log date: 2015-08-27 19:27:30

Analyzed: Various Artists / Australian Pop Of The 70's Vol 5 Keep On Rockin' Disc 2

DR Peak RMS Duration Track

DR8 -0.10 dB -10.78 dB 2:54 01-Sherbet
DR11 0.00 dB -11.21 dB 3:47 02-Lotus
DR11 0.00 dB -13.12 dB 3:18 03-Doug Parkinson & The Southern Star Band
DR11 0.00 dB -12.66 dB 3:10 04-William Shakespeare
DR10 0.00 dB -14.22 dB 5:22 05-Jon English
DR6 0.00 dB -7.37 dB 3:38 06-Richard Clapton
DR10 0.00 dB -12.40 dB 3:19 07-Abigail
DR10 0.00 dB -10.82 dB 3:07 08-Moscos & Stone
DR11 -0.01 dB -13.18 dB 2:31 09-Mississippi
DR11 0.00 dB -14.56 dB 4:11 10-Sinclair Brothers
DR8 0.00 dB -10.68 dB 2:53 11-Colleen Hewett
DR7 -0.23 dB -9.10 dB 2:41 12-Mark Holden
DR11 0.00 dB -12.26 dB 3:42 13-Flying Circus
DR10 0.00 dB -11.92 dB 2:47 14-Col Joye
DR11 0.00 dB -11.37 dB 4:16 15-King Harvest
DR9 0.00 dB -10.91 dB 4:04 16-Supernaut
DR11 0.00 dB -12.59 dB 2:53 17-Samantha Sang
DR10 0.00 dB -11.73 dB 3:34 18-Gerry & The Joy Band
DR10 0.00 dB -10.39 dB 3:03 19-Pat Carroll
DR8 -1.00 dB -10.73 dB 4:20 20-Ronnie Burns
DR7 0.00 dB -10.53 dB 3:25 21-Renee Geyer
DR9 0.00 dB -9.71 dB 2:41 22-Reg Lindsay
DR9 0.00 dB -10.51 dB 3:24 23-Rabbit

Number of tracks: 23
Official DR value: DR10

Samplerate: 44100 Hz
Channels: 2
Bits per sample: 16
Bitrate: 878 kbps
Codec: FLAC



password: BlondStyle


DOWNLOAD LINKS:
Buy Premium To Support Me & Get Resumable Support & Max Speed


Links are Interchangeable - No Password - Single Extraction

Direct Download

Tags: Various, Artists, Rockin, Australian

Various Artists - Keep On Rockin' - Australian Pop Of The 70's Vol. 5 [2CD] (2014) Download via Hotfile Rapidshare Fileserve Megaupload & FileSonic, Various Artists - Keep On Rockin' - Australian Pop Of The 70's Vol. 5 [2CD] (2014) free torrent downloads included crack, serial, keygen.


Attention!Information

Members of Guest cannot leave comments.