Marc Ribot - Live At The Village Vanguard (2014) [FLAC] {Pi Recordings}

Download Now


Marc Ribot - Live At The Village Vanguard (2014) [FLAC] {Pi Recordings}
Marc Ribot - Live At The Village Vanguard (2014) [FLAC] {Pi Recordings}
EAC rip (secure mode) | FLAC (tracks)+CUE+LOG -> 417 Mb | MP3 @320 -> 153 Mb
Full Artwork @ 300 dpi (jpg) -> 8 Mb | 5% repair rar
© 2014 Pi Recordings | PI 53
Jazz / Avant-Garde Jazz / Experimental / Guitar

"It might be more concise to list what musical genres Marc Ribot hasn't explored than the ones he has, but his approach to the guitar has often reflected the freedom, reinvention, and elastic boundaries of jazz, no matter what the specific context. On this date, recorded in mid-2012 during a handful of shows at one of New York's most iconic venues, Ribot gives himself the luxury of stretching out with a pair of gifted accompanists, bassist Henry Grimes (who worked with Albert Ayler, one of Ribot's key influences) and drummer Chad Taylor (a veteran of the Chicago Underground Duo and Trio), and the result is one of Ribot's most explicitly jazz-focused dates in some time."

Marc Ribot - Live At The Village Vanguard (2014) [FLAC] {Pi Recordings}


Personnel:
Guitar Marc Ribot
Drums Chad Taylor
Bass Henry Grimes

tracklist:
01. Dearly Beloved
02. The Wizard
03. Old Man River
04. Bells
05. I'm Confessin' (That I Love You)
06. Sun Ship

Exact Audio Copy V1.0 beta 3 from 29. August 2011

EAC extraction logfile from 18. October 2014, 19:40

Marc Ribot / Live At The Vanguard

Used drive : SONY DVD RW DRU-810A Adapter: 1 ID: 0

Read mode : Secure
Utilize accurate stream : Yes
Defeat audio cache : Yes
Make use of C2 pointers : No

Read offset correction

: 618
Overread into Lead-In and Lead-Out : No
Fill up missing offset samples with silence : Yes
Delete leading and trailing silent blocks : No
Null samples used in CRC calculations : Yes
Used interface
: Native Win32 interface for Win NT & 2000
Gap handling
: Appended to previous track

Used output format : User Defined Encoder
Selected bitrate : 128 kBit/s
Quality : High
Add ID3 tag : No
Command line compressor : C:\Program Files (x86)\Exact Audio Copy\Flac\flac.exe
Additional command line options : -8 -V -T "ARTIST=%artist%" -T "TITLE=%title%" -T "ALBUM=%albumtitle%" -T "DATE=%year%" -T "TRACKNUMBER=%tracknr%" -T "TOTALTRACKS=%numtracks%" -T "GENRE=%genre%" -T "ALBUMARTIST=%albumartist%" -T "ALBUM ARTIST=%albumartist%" -T "COMMENT=EAC Secure Mode, Test & Copy, AccurateRip, FLAC -8" %source%

TOC of the extracted CD Track | Start | Length | Start sector | End sector
--1 | 0:00.00 | 15:06.72 | 0 | 68021 2 | 15:06.72 | 7:59.48 | 68022 | 103994 3 | 23:06.45 | 6:37.31 | 103995 | 133800 4 | 29:44.01 | 19:09.09 | 133801 | 219984 5 | 48:53.10 | 8:12.48 | 219985 | 256932 6 | 57:05.58 | 7:15.43 | 256933 | 289600

Track 1 Filename F:\New Rips\Marc Ribot - Live At The Vanguard (2012) [FLAC]\01 - Dearly Beloved.wav Pre-gap length 0:00:02.00 Peak level 98.8 %
Extraction speed 5.4 X
Track quality 100.0 %
Test CRC F3CC5534
Copy CRC F3CC5534
Accurately ripped (confidence 4) [34D55C65] (AR v2)
Copy OK

Track 2 Filename F:\New Rips\Marc Ribot - Live At The Vanguard (2012) [FLAC]\02 - The Wizard.wav Peak level 98.8 %
Extraction speed 6.4 X
Track quality 100.0 %
Test CRC 785B431D
Copy CRC 785B431D
Accurately ripped (confidence 4) [C11C1102] (AR v2)
Copy OK

Track 3 Filename F:\New Rips\Marc Ribot - Live At The Vanguard (2012) [FLAC]\03 - Old Man River.wav Peak level 98.8 %
Extraction speed 6.2 X
Track quality 99.9 %
Test CRC 44B9F837
Copy CRC 44B9F837
Accurately ripped (confidence 4) [10608D77] (AR v2)
Copy OK

Track 4 Filename F:\New Rips\Marc Ribot - Live At The Vanguard (2012) [FLAC]\04 - Bells.wav Peak level 98.8 %
Extraction speed 8.2 X
Track quality 100.0 %
Test CRC 4984339C
Copy CRC 4984339C
Accurately ripped (confidence 4) [27F63D9B] (AR v2)
Copy OK

Track 5 Filename F:\New Rips\Marc Ribot - Live At The Vanguard (2012) [FLAC]\05 - I'm Confessing.wav Peak level 98.8 %
Extraction speed 8.0 X
Track quality 99.9 %
Test CRC 061C5E9C
Copy CRC 061C5E9C
Accurately ripped (confidence 4) [7684F0E7] (AR v2)
Copy OK

Track 6 Filename F:\New Rips\Marc Ribot - Live At The Vanguard (2012) [FLAC]\06 - Sun Ship.wav Peak level 98.8 %
Extraction speed 8.2 X
Track quality 99.9 %
Test CRC A43C7A97
Copy CRC A43C7A97
Accurately ripped (confidence 3) [77B62950] (AR v2)
Copy OK

All tracks accurately ripped

No errors occurred

End of status report

- CUETools DB Plugin V2.1.3

[CTDB TOCID: 3Rlzr88XhI7oI91lYlcilSy2VcE-] found, Submit result: 3Rlzr88XhI7oI91lYlcilSy2VcE- has been confirmed
[0ec6968b] (1/5) No match
[5afc1ad2] (4/5) Accurately ripped

==== Log checksum 547DC09994E6012E2BA78F23ADC1123CD2231ECC4D636D28D39285B5BAD8C20E ====

Marc Ribot - Live At The Village Vanguard (2014) [FLAC] {Pi Recordings}

Marc Ribot - Live At The Village Vanguard (2014) [FLAC] {Pi Recordings}


DOWNLOAD LINKS
(Premium Recommended)


Links are Interchangeable - No Password - Single Extraction

Direct Download

Tags: Village, Vanguard, Recordings

Marc Ribot - Live At The Village Vanguard (2014) [FLAC] {Pi Recordings} Download via Hotfile Rapidshare Fileserve Megaupload & FileSonic, Marc Ribot - Live At The Village Vanguard (2014) [FLAC] {Pi Recordings} free torrent downloads included crack, serial, keygen.


Attention!Information

Members of Guest cannot leave comments.